osu file format v14

[General]
AudioFilename: audio.mp3
AudioLeadIn: 0
PreviewTime: 97330
Countdown: 0
SampleSet: Soft
StackLeniency: 0.4
Mode: 0
LetterboxInBreaks: 0
WidescreenStoryboard: 1

[Editor]
DistanceSpacing: 1
BeatDivisor: 4
GridSize: 32
TimelineZoom: 1.2

[Metadata]
Title:FIRE BIRD (TV Size)
TitleUnicode:FIRE BIRD (TV Size)
Artist:Roselia
ArtistUnicode:Roselia
Creator:-Aqua
Version:Hinsvar's Normal
Source:BanG Dream! 2nd Season
Tags:バンドリ! ガールズバンドパーティ! BanG Dream! Bandori! Girls Band Party! ガルパ Garupa insert original song 9th single FIRE BIRD Ringing Bloom album Bandori project Girl Party Garupa! Fries Fried Potato ロゼリア Rozeria 湊友希那 Minato Yukina 氷川紗夜 Hikawa Sayo 今井リサ Imai Lisa 宇田川あこ Udagawa Ako 白金燐子 Shirokane Rinko 相羽あいな Aiba Aina Aiai 工藤晴香 Kudō Haruka Kudo Kudou Kudoharu Kdhr 遠藤ゆりか Endō Yurika Endo Endou Yurishii 桜川めぐ Sakuragawa Megu Meguchii 明坂聡美 Akesaka Satomi Akeko 中島由貴 Nakashima Yuki Shimayuki 志崎樺音 Shizaki Kanon Nonchan Non-chan Anime Video Game Japanese Stream Alternator Alternater Hinsvar Cami Xidorn nextplay newton- Yonaka- Shizuku- Onlybiscuit
BeatmapID:2021703
BeatmapSetID:947848

[Difficulty]
HPDrainRate:4
CircleSize:3
OverallDifficulty:4
ApproachRate:5
SliderMultiplier:1
SliderTickRate:1

[Events]
//Background and Video events
0,0,"hot asf sayo.jpg",0,0
Video,45,"FIRE BIRDY.mp4"
//Break Periods
2,49079,51530
//Storyboard Layer 0 (Background)
//Storyboard Layer 1 (Fail)
//Storyboard Layer 2 (Pass)
//Storyboard Layer 3 (Foreground)
//Storyboard Layer 4 (Overlay)
//Storyboard Sound Samples

[TimingPoints]
12461,750,4,2,1,60,1,0
12461,-54.054054054054,4,2,1,60,0,0
15086,-54.054054054054,4,2,1,30,0,0
15461,-54.054054054054,4,2,1,40,0,0
23148,-100,4,2,1,5,0,0
23336,-100,4,2,1,40,0,0
23523,-100,4,2,1,5,0,0
23710,-100,4,2,1,40,0,0
23711,-100,4,2,1,40,0,0
23898,-100,4,2,1,5,0,0
24086,-54.054054054054,4,2,1,40,0,0
33461,-100,4,2,1,40,0,0
34586,-54.054054054054,4,2,1,40,0,0
37211,779.220779220779,4,2,1,40,1,0
37211,-52.6315789473684,4,2,1,40,0,0
37990,810.810810810811,4,2,1,50,1,0
37990,-48.780487804878,4,2,1,50,0,0
38800,821.917808219178,4,2,1,60,1,0
38800,-48.780487804878,4,2,1,60,0,0
39210,761.421319796954,4,2,1,60,1,0
39210,-52.6315789473684,4,2,1,60,0,0
39400,952.380952380952,4,2,1,60,1,0
39400,-41.6666666666667,4,2,1,60,0,0
39638,857.142857142857,4,2,1,65,1,0
39638,-46.5116279069767,4,2,1,65,0,0
40495,869.565217391304,4,2,1,65,1,0
40495,-46.5116279069767,4,2,1,65,0,0
41364,933.125972006221,4,2,1,65,1,0
41364,-42.5531914893617,4,2,1,65,0,0
42763,952.380952380952,4,2,1,65,1,0
42763,-41.6666666666667,4,2,1,65,0,0
43239,1410.10575793184,4,2,1,75,1,0
43239,-28.5714285714286,4,2,1,75,0,0
43591,-28.5714285714286,4,2,1,75,0,0
52730,400,4,2,1,60,1,0
52730,-100,4,2,1,60,0,0
54330,-100,4,2,1,75,0,1
54430,-100,4,2,1,5,0,0
54630,-100,4,2,1,75,0,0
54830,-100,4,2,1,5,0,0
54930,-100,4,2,1,75,0,0
55230,-100,4,2,1,5,0,0
55330,-100,4,2,1,75,0,0
56030,-100,4,2,1,5,0,0
56130,-100,4,2,1,75,0,0
56330,-100,4,2,1,75,0,0
56430,-100,4,2,1,5,0,0
56530,-100,4,2,1,75,0,0
56730,-100,4,2,1,75,0,0
56830,-100,4,2,1,5,0,0
56930,-100,4,2,1,75,0,0
57130,-100,4,2,1,75,0,0
57230,-100,4,2,1,5,0,0
57330,-100,4,2,1,75,0,0
57730,-100,4,2,1,5,0,0
57830,-100,4,2,1,75,0,0
58030,-100,4,2,1,5,0,0
58130,-100,4,2,1,75,0,0
58430,-100,4,2,1,5,0,0
58530,-100,4,2,1,75,0,0
59230,-100,4,2,1,5,0,0
59330,-100,4,2,1,75,0,0
59530,-100,4,2,1,75,0,0
59630,-100,4,2,1,5,0,0
59730,-100,4,2,1,75,0,0
60330,-100,4,2,1,75,0,0
60630,-100,4,2,1,5,0,0
60730,-100,4,2,1,85,0,1
63830,-100,4,2,1,85,0,1
63930,-100,4,2,1,85,0,1
67130,-100,4,2,1,60,0,0
79930,-100,4,2,1,50,0,0
81730,-100,4,2,1,5,0,0
81830,-100,4,2,1,50,0,0
82030,-100,4,2,1,5,0,0
82130,-100,4,2,1,50,0,0
84930,-100,4,2,1,5,0,0
85030,-100,4,2,1,50,0,0
85230,-100,4,2,1,5,0,0
85330,-100,4,2,1,50,0,0
85430,-100,4,2,1,5,0,0
85530,-100,4,2,1,50,0,0
88130,-100,4,2,1,5,0,0
88230,-100,4,2,1,50,0,0
88430,-100,4,2,1,5,0,0
88530,-100,4,2,1,50,0,0
88730,-100,4,2,1,50,0,0
89530,-100,4,2,1,60,0,0
89730,-100,4,2,1,5,0,0
89830,-100,4,2,1,60,0,0
90030,-100,4,2,1,5,0,0
90130,-100,4,2,1,60,0,0
90430,-100,4,2,1,5,0,0
90530,-100,4,2,1,60,0,0
90730,-100,4,2,1,60,0,0
91030,-100,4,2,1,5,0,0
91130,-100,4,2,1,40,0,0
91230,-100,4,2,1,5,0,0
91330,-100,4,2,1,44,0,0
91430,-100,4,2,1,5,0,0
91530,-100,4,2,1,48,0,0
91630,-100,4,2,1,5,0,0
91730,-100,4,2,1,52,0,0
91830,-100,4,2,1,5,0,0
91930,-100,4,2,1,56,0,0
92030,-100,4,2,1,5,0,0
92130,-100,4,2,1,60,0,0
92330,-100,4,2,1,64,0,0
92430,-100,4,2,1,5,0,0
92530,-100,4,2,1,68,0,0
92630,-100,4,2,1,5,0,0
92730,-100,4,2,1,72,0,0
92830,-100,4,2,1,5,0,0
92930,-100,4,2,1,76,0,0
93030,-100,4,2,1,5,0,0
93130,-100,4,2,1,80,0,0
93230,-100,4,2,1,5,0,0
93330,-100,4,2,1,84,0,0
93430,-100,4,2,1,5,0,0
93530,-100,4,2,1,88,0,0
93630,-100,4,2,1,5,0,0
93730,-100,4,2,1,92,0,0
93930,-100,4,2,1,96,0,0
94030,-100,4,2,1,5,0,0
94130,-100,4,2,1,100,0,0
94230,-100,4,2,1,5,0,0
94330,-100,4,2,1,100,0,0
94530,-100,4,2,1,70,0,0
96730,-100,4,2,1,60,0,0
97330,-100,4,2,1,60,0,0
97530,-100,4,2,1,95,0,1
98130,-100,4,2,1,95,0,1
98330,-100,4,2,1,95,0,1
99130,-100,4,2,1,95,0,1
100930,-100,4,2,1,95,0,1
101130,-100,4,2,1,95,0,1
101530,-100,4,2,1,95,0,1
101930,-100,4,2,1,95,0,1
102330,-100,4,2,1,95,0,1
103130,-100,4,2,1,95,0,1
103230,-100,4,2,1,5,0,1
103330,-100,4,2,1,95,0,1
107130,-100,4,2,1,95,0,0
107430,-100,4,2,1,95,0,0
107730,-100,4,2,1,95,0,1
107930,-100,4,2,1,95,0,0
108230,-100,4,2,1,95,0,0
108530,-100,4,2,1,95,0,1
108730,-100,4,2,1,95,0,0
109330,-100,4,2,1,95,0,0
109930,-100,4,2,1,95,0,0
110130,-100,4,2,1,95,0,0
110230,-100,4,2,1,95,0,0
110330,-100,4,2,1,95,0,1
110930,-100,4,2,1,95,0,1
111930,-100,4,2,1,95,0,1
113530,-100,4,2,1,95,0,1
113930,-100,4,2,1,95,0,1
114330,-100,4,2,1,95,0,1
114730,-100,4,2,1,95,0,1
115130,-100,4,2,1,95,0,1
116130,-100,4,2,1,95,0,1
116230,-100,4,2,1,5,0,1
116330,-100,4,2,1,95,0,1
119130,-100,4,2,1,95,0,1
119930,-100,4,2,1,70,0,0
121530,-100,4,2,1,70,0,0
122430,-100,4,2,1,5,0,0
122530,-100,4,2,1,70,0,0
124430,-100,4,2,1,5,0,0
124530,-100,4,2,1,70,0,0
124730,-100,4,2,1,95,0,1
126330,-100,4,2,1,70,0,0
127130,-100,4,2,1,70,0,0
127430,-100,4,2,1,5,0,0
127530,-100,4,2,1,70,0,0
127930,-100,4,2,1,75,0,1
128030,-100,4,2,1,5,0,0
128230,-100,4,2,1,75,0,0
128430,-100,4,2,1,5,0,0
128530,-100,4,2,1,75,0,0
128830,-100,4,2,1,5,0,0
128930,-100,4,2,1,75,0,0
129630,-100,4,2,1,5,0,0
129730,-100,4,2,1,75,0,0
129930,-100,4,2,1,75,0,0
130030,-100,4,2,1,5,0,0
130130,-100,4,2,1,75,0,0
130330,-100,4,2,1,75,0,0
130430,-100,4,2,1,5,0,0
130530,-100,4,2,1,75,0,0
130830,-100,4,2,1,5,0,0
130930,-100,4,2,1,75,0,0
131330,-100,4,2,1,5,0,0
131430,-100,4,2,1,75,0,0
131630,-100,4,2,1,5,0,0
131730,-100,4,2,1,75,0,0
132030,-100,4,2,1,5,0,0
132130,-100,4,2,1,75,0,0
132830,-100,4,2,1,5,0,0
132930,-100,4,2,1,75,0,0
133230,-100,4,2,1,5,0,0
133330,-100,4,2,1,75,0,0
133530,-100,4,2,1,75,0,0
133930,-100,4,2,1,75,0,0
134230,-100,4,2,1,5,0,0
134330,-100,4,2,1,85,0,1
137430,-100,4,2,1,85,0,0
137530,-100,4,2,1,85,0,1
139130,-100,4,2,1,85,0,1
139796,-100,4,2,1,85,0,1
140196,-100,4,2,1,85,0,1
140530,-100,4,2,1,100,0,0
140930,-100,4,2,1,5,0,0
141030,-100,4,2,1,15,0,0

[Colours]
Combo1 : 170,240,233
Combo2 : 64,224,208
Combo3 : 162,168,249
Combo4 : 92,99,240

[HitObjects]
471,48,15461,6,0,P|459:144|427:227,1,184.999999294281,2|2,0:0|0:0,0:0:0:0:
352,307,16961,1,2,0:0:0:0:
254,253,17711,1,2,0:0:0:0:
209,151,18461,2,0,B|241:99|241:99|367:77,2,184.999999294281,2|2|2,0:0|0:0|0:0,0:0:0:0:
267,245,20711,1,2,0:0:0:0:
183,317,21461,6,0,P|105:292|45:210,1,184.999999294281,2|2,0:0|0:0,0:0:0:0:
61,158,22586,1,2,0:0:0:0:
61,158,22961,2,0,P|150:145|228:88,1,184.999999294281,2|2,0:0|0:0,0:0:0:0:
304,12,24461,1,2,0:0:0:0:
404,59,25211,1,2,0:0:0:0:
459,155,25961,2,0,B|474:255|474:255|434:332,1,184.999999294281,2|2,0:0|0:0,0:0:0:0:
391,363,27086,1,2,0:0:0:0:
391,363,27461,6,0,P|304:329|195:296,1,184.999999294281,2|2,0:0|0:0,0:0:0:0:
147,215,28961,2,0,P|181:128|214:19,1,184.999999294281,2|2,0:0|0:0,0:0:0:0:
254,86,30086,1,2,0:0:0:0:
254,86,30461,2,0,P|334:118|423:74,1,184.999999294281,2|2,0:0|0:0,0:0:0:0:
334,6,31961,1,2,0:0:0:0:
248,76,32711,1,2,0:0:0:0:
143,39,33461,5,2,0:0:0:0:
110,55,34961,1,2,0:0:0:0:
87,84,36461,6,0,P|64:172|54:272,1,184.999999294281,2|2,0:0|0:0,0:0:0:0:
141,345,37990,1,2,0:0:0:0:
249,304,38800,1,2,0:0:0:0:
367,348,39638,6,0,P|426:290|472:168,1,215.00000328064,2|2,0:0|0:0,0:0:0:0:
400,58,41364,1,2,0:0:0:0:
301,157,42297,2,0,P|248:134|203:93,1,117.499998207092,2|2,0:0|0:0,0:0:0:0:
166,22,43239,5,2,0:0:0:0:
256,192,43591,12,2,48879,0:0:0:0:
48,219,52730,5,4,0:1:0:0:
114,293,53130,1,4,0:1:0:0:
207,328,53530,1,4,0:1:0:0:
255,339,53730,1,4,0:1:0:0:
301,321,53930,1,4,0:1:0:0:
383,265,54330,6,0,P|420:267|464:287,2,75,6|10|10,1:2|0:0|0:0,0:0:0:0:
330,181,55330,1,8,0:3:0:0:
330,181,55530,1,8,0:0:0:0:
244,233,55930,2,0,P|228:280|220:330,1,100,10|10,0:0|0:0,0:0:0:0:
126,363,56730,2,0,P|98:321|77:275,1,100,10|10,0:0|0:0,0:0:0:0:
95,177,57530,6,0,P|58:175|21:163,2,75,14|10|10,0:0|0:0|0:0,0:0:0:0:
164,105,58530,2,0,L|157:53,2,50,8|8|0,0:0|0:0|1:2,0:0:0:0:
200,139,59130,1,10,0:0:0:0:
290,95,59530,1,10,0:0:0:0:
370,153,59930,2,0,L|420:144,2,50,10|0|10,0:0|1:2|0:0,0:0:0:0:
305,229,60730,6,0,P|314:282|333:333,1,100,6|2,1:2|1:2,0:0:0:0:
292,358,61330,1,8,0:0:0:0:
292,358,61530,2,0,P|209:356|142:329,1,150,2|10,1:2|0:0,0:0:0:0:
79,257,62530,2,0,L|88:199,1,50,10|2,0:0|1:2,0:0:0:0:
73,165,62930,1,8,0:0:0:0:
73,165,63130,2,0,P|151:155|223:121,1,150,2|8,1:2|0:0,0:0:0:0:
270,41,64130,6,0,L|332:54,1,50,10|2,0:0|1:2,0:0:0:0:
344,102,64530,1,8,0:0:0:0:
344,102,64730,2,0,P|380:97|418:86,2,75,2|2|10,1:2|0:0|0:0,0:0:0:0:
275,175,65730,2,0,L|268:228,1,50,10|2,0:0|1:2,0:0:0:0:
302,270,66130,1,8,0:0:0:0:
302,270,66330,2,0,P|337:248|378:230,2,75,2|8|10,1:2|0:0|0:0,0:0:0:0:
277,313,67130,5,6,1:2:0:0:
189,362,67530,1,2,1:2:0:0:
109,301,67930,2,0,L|54:289,2,50,0|8|0,1:2|0:0|1:2,0:0:0:0:
172,223,68730,2,0,P|159:173|138:126,1,100,2|0,1:2|1:2,0:0:0:0:
153,85,69330,1,10,0:0:0:0:
153,85,69530,2,0,P|202:98|254:104,1,100,2|2,1:2|1:2,0:0:0:0:
334,48,70330,5,6,1:2:0:0:
416,105,70730,1,0,1:2:0:0:
430,203,71130,2,0,L|418:254,2,50,2|10|2,1:2|0:0|1:2,0:0:0:0:
330,194,71930,1,2,1:2:0:0:
330,194,72130,2,0,B|301:166|301:166|292:103,1,100,8|10,0:0|0:0,0:0:0:0:
224,33,72930,2,0,L|164:22,2,50,10|10|10,0:0|0:0|0:3,0:0:0:0:
275,15,73530,5,6,1:2:0:0:
340,99,73930,1,2,1:2:0:0:
340,99,74130,2,0,B|373:113|373:113|440:94,1,100,10|8,0:0|0:0,0:0:0:0:
496,181,74930,1,10,0:0:0:0:
496,181,75130,2,0,L|476:284,1,100,2|0,1:2|1:2,0:0:0:0:
393,334,75930,2,0,L|402:395,2,50,10|8|8,0:0|0:0|0:0,0:0:0:0:
325,259,76730,5,6,1:2:0:0:
325,259,77530,2,0,P|314:219|312:176,2,75,10|8|10,0:0|0:0|0:0,0:0:0:0:
296,300,78330,2,0,P|260:306|222:318,1,75,6|8,1:2|0:0,0:0:0:0:
149,368,78930,1,8,0:0:0:0:
149,368,79130,2,0,P|103:353|56:323,1,100,0|8,1:2|0:3,0:0:0:0:
25,288,79730,1,10,0:3:0:0:
47,243,79930,6,0,P|63:197|67:138,1,100,6|2,1:2|0:0,0:0:0:0:
73,46,80730,1,10,0:0:0:0:
166,11,81130,1,2,1:2:0:0:
234,83,81530,2,0,P|268:102|304:117,2,75,2|0|2,1:2|1:2|1:2,0:0:0:0:
193,112,82330,2,0,B|166:156|166:156|176:210,1,100,8|8,0:0|0:3,0:0:0:0:
230,287,83130,6,0,P|271:264|324:243,1,100,6|2,1:2|0:0,0:0:0:0:
407,293,83930,1,10,0:0:0:0:
448,201,84330,1,2,1:2:0:0:
359,154,84730,2,0,P|345:117|339:70,2,75,2|2|2,1:2|1:2|1:2,0:0:0:0:
332,196,85530,2,0,B|285:213|285:213|233:198,1,100,8|8,0:0|0:0,0:0:0:0:
138,216,86330,6,0,P|107:255|96:310,1,100,6|2,1:2|0:0,0:0:0:0:
163,377,87130,1,10,0:0:0:0:
253,334,87530,1,2,1:2:0:0:
302,247,87930,2,0,P|336:235|380:233,2,75,2|0|2,1:2|1:2|1:2,0:0:0:0:
259,220,88730,1,8,0:0:0:0:
215,129,89130,1,8,0:3:0:0:
270,45,89530,6,0,B|366:77|366:77|417:57,1,150,6|2,1:2|1:2,0:0:0:0:
446,23,90330,2,0,L|507:13,2,50,10|8|10,0:0|0:3|0:0,0:0:0:0:
485,115,91130,5,10,0:0:0:0:
427,192,91530,1,10,0:0:0:0:
385,282,91930,2,0,P|376:328|375:374,2,75,10|10|10,0:0|0:0|0:0,0:0:0:0:
303,223,92930,1,10,0:0:0:0:
303,223,93130,1,10,0:0:0:0:
230,291,93530,2,0,P|196:306|154:320,2,75,10|10|10,0:0|0:0|0:0,0:0:0:0:
211,192,94530,6,0,P|186:181|163:166,2,50,2|2|2,1:2|1:2|1:2,0:0:0:0:
265,192,95130,1,2,1:2:0:0:
265,192,95330,2,0,P|288:151|305:101,1,100,2|2,1:2|1:2,0:0:0:0:
393,54,96130,2,0,P|389:24|382:-5,2,50,10|10|0,0:3|0:3|1:2,0:0:0:0:
430,87,96730,1,10,0:0:0:0:
424,286,97530,6,0,P|378:317|323:328,1,100,6|0,1:2|1:2,0:0:0:0:
291,303,98130,1,10,0:0:0:0:
291,303,98330,2,0,P|286:260|270:221,2,75,2|2|10,1:2|0:0|0:0,0:0:0:0:
260,342,99130,1,6,1:2:0:0:
167,380,99530,1,0,1:2:0:0:
91,314,99930,2,0,P|77:265|80:214,1,100,2|0,1:2|1:2,0:0:0:0:
41,183,100530,1,10,0:0:0:0:
41,183,100730,6,0,P|82:176|136:151,1,100,6|2,1:2|1:2,0:0:0:0:
223,104,101530,2,0,P|264:111|318:136,1,100,6|2,1:2|1:2,0:0:0:0:
349,180,102130,1,8,0:0:0:0:
349,180,102330,2,0,L|361:237,1,50,6|8,1:2|0:0,0:0:0:0:
451,290,102930,1,10,0:0:0:0:
451,290,103130,2,0,L|474:188,1,100,6|8,1:2|0:3,0:0:0:0:
444,157,103730,1,8,0:3:0:0:
444,157,103930,6,0,P|368:135|318:75,1,150,6|10,1:2|0:0,0:0:0:0:
299,39,104730,1,2,1:2:0:0:
216,95,105130,1,2,1:2:0:0:
119,68,105530,1,2,1:2:0:0:
119,68,105730,2,0,P|90:109|77:160,1,100,8|10,0:0|0:0,0:0:0:0:
55,202,106330,2,0,L|0:216,2,50,2|10|2,1:2|0:0|1:2,0:0:0:0:
105,288,107130,6,0,P|138:307|189:321,1,75,6|6,1:2|1:2,0:0:0:0:
263,296,107730,1,6,1:2:0:0:
263,296,107930,2,0,P|280:331|293:371,2,75,10|10|10,1:2|1:2|1:2,0:0:0:0:
286,251,108730,1,6,1:2:0:0:
372,300,109130,1,8,0:0:0:0:
467,270,109530,1,10,0:0:0:0:
502,176,109930,2,0,L|488:119,1,50,8|10,0:0|0:0,0:0:0:0:
498,78,110330,6,0,P|456:96|400:101,1,100,6|0,1:2|1:2,0:0:0:0:
360,128,110930,1,10,0:0:0:0:
360,128,111130,2,0,P|348:162|343:213,2,75,2|2|10,1:2|0:0|0:0,0:0:0:0:
320,96,111930,1,6,1:2:0:0:
260,15,112330,1,0,1:2:0:0:
197,98,112730,2,0,P|146:92|92:69,1,100,2|0,1:2|1:2,0:0:0:0:
60,103,113330,1,10,0:0:0:0:
60,103,113530,6,0,P|31:144|16:201,1,100,6|2,1:2|1:2,0:0:0:0:
22,291,114330,2,0,P|44:336|84:376,1,100,6|2,1:2|1:2,0:0:0:0:
133,369,114930,1,8,0:0:0:0:
133,369,115130,2,0,L|185:341,1,50,6|8,1:2|0:0,0:0:0:0:
198,247,115730,1,8,0:0:0:0:
198,247,115930,2,0,P|245:257|301:280,1,100,6|0,1:2|1:2,0:0:0:0:
342,303,116530,1,8,0:0:0:0:
342,303,116730,6,0,P|350:268|368:226,2,75,6|2|10,1:2|0:0|0:0,0:0:0:0:
341,352,117530,1,2,1:2:0:0:
244,378,117930,1,2,1:2:0:0:
159,325,118330,2,0,B|121:317|121:317|80:331,2,75,2|2|10,1:2|0:0|0:0,0:0:0:0:
193,289,119130,1,10,0:0:0:0:
147,199,119530,1,8,0:3:0:0:
196,112,119930,6,0,B|305:70|281:142|400:103,1,200,6|10,1:2|0:0,0:0:0:0:
362,303,121530,2,0,P|394:322|445:333,2,75,6|2|2,1:2|1:2|1:2,0:0:0:0:
327,266,122330,1,10,0:0:0:0:
248,328,122730,1,10,0:0:0:0:
157,286,123130,6,0,B|105:282|105:282|76:299,2,75,6|6|6,1:2|1:2|1:2,0:0:0:0:
181,242,123930,2,0,B|158:194|158:194|129:178,2,75,10|8|8,0:0|0:0|0:0,0:0:0:0:
235,235,124730,1,6,1:2:0:0:
235,235,124930,2,0,P|259:191|272:140,1,100,8|8,0:0|0:0,0:0:0:0:
219,57,125730,2,0,P|168:57|118:72,1,100,8|2,0:0|1:2,0:0:0:0:
89,110,126330,6,0,B|112:237|112:237|59:288,1,200,6|10,1:2|0:0,0:0:0:0:
249,353,127930,6,0,P|285:346|325:329,2,75,6|10|10,1:2|0:0|0:0,0:0:0:0:
142,207,129130,1,8,0:0:0:0:
127,107,129530,2,0,B|129:56|129:56|164:9,1,100,10|10,0:0|0:0,0:0:0:0:
251,52,130330,2,0,B|249:103|249:103|214:150,1,100,10|10,0:0|0:0,0:0:0:0:
142,207,131130,6,0,P|129:241|122:286,2,75,14|10|10,0:0|0:0|0:0,0:0:0:0:
69,138,132130,1,8,0:0:0:0:
69,138,132330,2,0,P|59:105|58:71,1,50,8|0,0:0|1:2,0:0:0:0:
75,42,132730,1,10,0:0:0:0:
169,9,133130,1,10,0:0:0:0:
256,57,133530,2,0,P|282:48|305:37,2,50,10|0|10,0:0|1:2|0:0,0:0:0:0:
292,150,134330,6,0,P|336:166|393:178,1,100,6|2,1:2|1:2,0:0:0:0:
416,225,134930,1,8,0:0:0:0:
416,225,135130,2,0,P|337:255|265:290,1,150,2|10,1:2|0:0,0:0:0:0:
200,346,136130,2,0,L|153:328,1,50,10|2,0:0|1:2,0:0:0:0:
107,307,136530,1,8,0:0:0:0:
107,307,136730,2,0,P|97:258|76:205,1,100,2|0,1:2|1:2,0:0:0:0:
9,139,137530,5,4,1:2:0:0:
58,52,137930,1,2,1:2:0:0:
154,78,138330,2,0,P|187:66|221:41,2,75,2|2|10,1:2|0:0|0:0,0:0:0:0:
144,126,139130,1,8,0:0:0:0:
235,165,139530,1,10,0:0:0:0:
307,234,139930,2,0,P|320:271|324:317,1,75,10|2,0:2|0:0,0:0:0:0:
260,371,140530,5,6,1:2:0:0:
