osu file format v14

[General]
AudioFilename: FIRE BIRD (TV Size).mp3
AudioLeadIn: 0
PreviewTime: 83619
Countdown: 0
SampleSet: Soft
StackLeniency: 0.7
Mode: 3
LetterboxInBreaks: 0
SpecialStyle: 0
WidescreenStoryboard: 1

[Editor]
Bookmarks: 2406
DistanceSpacing: 1.5
BeatDivisor: 4
GridSize: 4
TimelineZoom: 1.4

[Metadata]
Title:FIRE BIRD (TV Edit)
TitleUnicode:FIRE BIRD (TV Edit)
Artist:Roselia
ArtistUnicode:Roselia
Creator:bima fajar
Version:hs
Source:BanG Dream! 2nd Season
Tags:バンドリ! ガールズバンドパーティ! bang dream! bandori! girls band party! 9th single album ringing bloom game Japanese anime
BeatmapID:2268391
BeatmapSetID:1074419

[Difficulty]
HPDrainRate:7.5
CircleSize:5
OverallDifficulty:7.5
ApproachRate:5
SliderMultiplier:1.4
SliderTickRate:1

[Events]
//Background and Video events
0,0,"firebird.jpg",0,0
//Break Periods
2,29703,33943
//Storyboard Layer 0 (Background)
//Storyboard Layer 1 (Fail)
//Storyboard Layer 2 (Pass)
//Storyboard Layer 3 (Foreground)
//Storyboard Layer 4 (Overlay)
//Storyboard Sound Samples

[TimingPoints]
1723,750,4,2,1,30,1,0
23473,779.220779220779,4,2,1,30,1,0
24252,810.810810810811,4,2,1,30,1,0
25062,821.917808219178,4,2,1,30,1,0
25472,761.421319796954,4,2,1,30,1,0
25662,952.380952380952,4,2,1,30,1,0
25900,857.142857142857,4,2,1,30,1,0
26757,869.565217391304,4,2,1,30,1,0
27626,933.125972006221,4,2,1,30,1,0
29025,952.380952380952,4,2,1,30,1,0
29503,705.052878965922,4,2,1,30,1,0
38994,400,4,2,2,50,1,0
83794,-100,4,2,2,50,0,1
96494,-100,4,2,2,50,0,0
96594,-100,4,2,2,50,0,1
107794,-100,4,2,2,50,0,0
114194,-100,4,2,2,50,0,1
126994,-100,4,2,2,50,0,0

[HitObjects]
51,192,1723,5,2,0:0:0:0:
51,192,2473,1,2,0:0:0:0:
51,192,3223,1,2,0:0:0:0:
51,192,3973,1,2,0:0:0:0:
51,192,4723,1,2,0:0:0:0:
256,192,4723,1,0,0:0:0:0:
51,192,5473,1,2,0:0:0:0:
51,192,6223,1,2,0:0:0:0:
51,192,6973,1,2,0:0:0:0:
51,192,7723,1,2,0:0:0:0:
256,192,7723,1,0,0:0:0:0:
51,192,8473,1,2,0:0:0:0:
153,192,9223,1,2,0:0:0:0:
256,192,9223,1,0,0:0:0:0:
51,192,9973,1,2,0:0:0:0:
51,192,10723,1,2,0:0:0:0:
256,192,10723,1,0,0:0:0:0:
51,192,11473,1,2,0:0:0:0:
51,192,12223,1,2,0:0:0:0:
51,192,12973,1,2,0:0:0:0:
460,192,12973,1,0,0:0:0:0:
51,192,13348,1,2,0:0:0:0:
358,192,13348,1,0,0:0:0:0:
51,192,13723,1,2,0:0:0:0:
256,192,13723,1,0,0:0:0:0:
51,192,14473,1,2,0:0:0:0:
51,192,15223,1,2,0:0:0:0:
51,192,15973,1,2,0:0:0:0:
51,192,16348,1,2,0:0:0:0:
358,192,16348,1,0,0:0:0:0:
51,192,16723,1,2,0:0:0:0:
256,192,16723,1,0,0:0:0:0:
51,192,17473,1,2,0:0:0:0:
51,192,18223,1,2,0:0:0:0:
51,192,18973,1,2,0:0:0:0:
51,192,19723,1,2,0:0:0:0:
51,192,21223,1,2,0:0:0:0:
51,192,22723,1,2,0:0:0:0:
51,192,23473,1,2,0:0:0:0:
51,192,24252,1,2,0:0:0:0:
51,192,25062,1,2,0:0:0:0:
51,192,25900,1,2,0:0:0:0:
256,192,25900,1,0,0:0:0:0:
153,192,26328,1,2,0:0:0:0:
256,192,26328,1,0,0:0:0:0:
51,192,26757,1,2,0:0:0:0:
51,192,27626,1,2,0:0:0:0:
51,192,28559,1,2,0:0:0:0:
51,192,29025,1,2,0:0:0:0:
51,192,29503,1,2,0:0:0:0:
256,192,29503,1,0,0:0:0:0:
51,192,35143,5,2,0:0:0:0:
51,192,38994,1,4,0:0:0:0:
51,192,39394,1,4,0:0:0:0:
51,192,39794,1,4,0:0:0:0:
51,192,39994,1,4,0:0:0:0:
51,192,40194,1,4,0:0:0:0:
153,192,40394,1,4,3:0:0:0:
153,192,40494,1,4,3:0:0:0:
256,192,40594,1,0,1:0:0:0:
256,192,40894,1,0,1:0:0:0:
256,192,41194,1,0,1:0:0:0:
256,192,41594,1,0,1:0:0:0:
256,192,41794,1,0,3:0:0:0:
51,192,41794,1,0,3:0:0:0:
153,192,41894,1,0,3:0:0:0:
256,192,41994,1,0,3:0:0:0:
358,192,42094,1,0,3:0:0:0:
51,192,42194,1,4,0:0:0:0:
51,192,42394,1,0,3:0:0:0:
51,192,42494,1,0,3:0:0:0:
51,192,42594,1,4,0:0:0:0:
51,192,42794,1,0,3:0:0:0:
51,192,42994,1,4,0:0:0:0:
51,192,43194,1,0,3:0:0:0:
51,192,43294,1,0,3:0:0:0:
51,192,43394,1,4,0:0:0:0:
51,192,43594,1,0,3:0:0:0:
153,192,43794,1,0,1:0:0:0:
153,192,44094,1,0,1:0:0:0:
153,192,44394,1,0,1:0:0:0:
153,192,44794,1,0,1:0:0:0:
51,192,44994,1,0,3:0:0:0:
51,192,45094,1,0,3:0:0:0:
51,192,45194,1,0,3:0:0:0:
51,192,45294,1,0,3:0:0:0:
51,192,45394,1,4,0:0:0:0:
51,192,45594,1,0,3:0:0:0:
51,192,45694,1,0,3:0:0:0:
51,192,45794,1,4,0:0:0:0:
51,192,45994,1,0,3:0:0:0:
51,192,46194,1,4,3:0:0:0:
51,192,46294,1,4,3:0:0:0:
51,192,46394,1,4,3:0:0:0:
51,192,46494,1,4,3:0:0:0:
51,192,46594,1,0,1:0:0:0:
51,192,46994,1,4,0:0:0:0:
460,192,46994,1,6,0:0:0:0:
51,192,47194,1,0,1:0:0:0:
51,192,47594,1,0,1:0:0:0:
51,192,47994,1,0,1:0:0:0:
51,192,48394,1,0,1:0:0:0:
51,192,48794,1,0,1:0:0:0:
51,192,49194,1,0,1:0:0:0:
51,192,49594,1,0,1:0:0:0:
51,192,49994,1,0,1:0:0:0:
51,192,50394,1,0,1:0:0:0:
51,192,50794,1,0,1:0:0:0:
51,192,51194,1,0,1:0:0:0:
51,192,51594,1,0,1:0:0:0:
51,192,51994,1,0,1:0:0:0:
51,192,52394,1,0,1:0:0:0:
153,192,52794,1,0,3:0:0:0:
153,192,52894,1,0,3:0:0:0:
153,192,52994,1,0,3:0:0:0:
153,192,53094,1,0,3:0:0:0:
153,192,53194,1,0,3:0:0:0:
153,192,53294,1,0,3:0:0:0:
153,192,53394,1,0,1:0:0:0:
51,192,53594,1,0,1:0:0:0:
51,192,53994,1,0,1:0:0:0:
51,192,54394,1,0,1:0:0:0:
51,192,54794,1,0,1:0:0:0:
51,192,55194,1,0,1:0:0:0:
51,192,55594,1,0,1:0:0:0:
51,192,55994,1,0,1:0:0:0:
51,192,56394,1,0,1:0:0:0:
51,192,56794,1,0,1:0:0:0:
51,192,57194,1,0,1:0:0:0:
51,192,57594,1,0,1:0:0:0:
51,192,57994,1,0,1:0:0:0:
51,192,58394,1,0,1:0:0:0:
51,192,58794,1,0,1:0:0:0:
51,192,59194,1,0,1:0:0:0:
51,192,59394,1,4,3:0:0:0:
51,192,59494,1,4,3:0:0:0:
51,192,59594,1,4,3:0:0:0:
51,192,59694,1,4,3:0:0:0:
51,192,59794,1,0,1:0:0:0:
51,192,59994,1,0,1:0:0:0:
51,192,60394,1,0,1:0:0:0:
51,192,60794,1,0,1:0:0:0:
51,192,61194,1,0,1:0:0:0:
51,192,61594,1,0,1:0:0:0:
51,192,61994,1,0,1:0:0:0:
153,192,62194,1,4,3:0:0:0:
153,192,62294,1,4,3:0:0:0:
153,192,62394,1,4,3:0:0:0:
153,192,62494,1,4,3:0:0:0:
153,192,62594,1,4,3:0:0:0:
153,192,62694,1,4,3:0:0:0:
153,192,62794,1,4,3:0:0:0:
153,192,62894,1,4,3:0:0:0:
153,192,62994,1,12,3:0:0:0:
51,192,63794,1,12,3:0:0:0:
256,192,63794,1,12,3:0:0:0:
51,192,64094,1,12,3:0:0:0:
256,192,64094,1,12,3:0:0:0:
51,192,64394,1,12,3:0:0:0:
256,192,64394,1,12,3:0:0:0:
51,192,64594,1,4,3:0:0:0:
256,192,64594,1,0,0:0:0:0:
153,192,64594,1,0,1:0:0:0:
51,192,64794,1,4,3:0:0:0:
51,192,64894,1,4,3:0:0:0:
153,192,64894,1,0,1:0:0:0:
51,192,65094,1,4,3:0:0:0:
51,192,65194,1,4,3:0:0:0:
153,192,65194,1,0,1:0:0:0:
51,192,65594,1,0,3:0:0:0:
153,192,65594,1,0,1:0:0:0:
51,192,65694,1,0,3:0:0:0:
51,192,65794,1,0,3:0:0:0:
51,192,65894,1,0,3:0:0:0:
51,192,65994,1,0,3:0:0:0:
51,192,66094,1,0,3:0:0:0:
51,192,66194,1,0,3:0:0:0:
153,192,66194,1,0,1:0:0:0:
51,192,66594,1,0,3:0:0:0:
51,192,66794,1,4,3:0:0:0:
51,192,66894,1,4,3:0:0:0:
51,192,66994,1,4,3:0:0:0:
153,192,66994,1,0,1:0:0:0:
51,192,67394,1,0,3:0:0:0:
51,192,67594,1,4,3:0:0:0:
51,192,67794,1,8,3:0:0:0:
51,192,68094,1,8,3:0:0:0:
51,192,68394,1,8,3:0:0:0:
51,192,68494,1,8,3:0:0:0:
51,192,68594,1,0,1:0:0:0:
153,192,68794,1,8,3:0:0:0:
51,192,68994,1,8,3:0:0:0:
51,192,69394,1,0,1:0:0:0:
256,192,69394,1,0,0:0:0:0:
51,192,70194,1,0,1:0:0:0:
51,192,70994,1,4,3:0:0:0:
51,192,71294,1,4,3:0:0:0:
51,192,71594,1,4,3:0:0:0:
51,192,71794,1,0,1:0:0:0:
153,192,71794,1,0,0:0:0:0:
51,192,72194,1,0,1:0:0:0:
153,192,72194,1,0,0:0:0:0:
51,192,72594,1,0,1:0:0:0:
256,192,72594,1,0,0:0:0:0:
51,192,73194,1,4,3:0:0:0:
51,192,73294,1,4,3:0:0:0:
51,192,73394,1,0,1:0:0:0:
51,192,73794,1,0,3:0:0:0:
51,192,74194,1,4,3:0:0:0:
51,192,74494,1,4,3:0:0:0:
51,192,74794,1,4,3:0:0:0:
51,192,74994,1,0,1:0:0:0:
153,192,74994,1,0,0:0:0:0:
51,192,75194,1,0,3:0:0:0:
51,192,75394,1,4,3:0:0:0:
51,192,75494,1,4,3:0:0:0:
51,192,75594,1,4,3:0:0:0:
51,192,75694,1,4,3:0:0:0:
51,192,75794,1,0,1:0:0:0:
153,192,75794,1,0,0:0:0:0:
51,192,76094,1,0,1:0:0:0:
153,192,76094,1,0,0:0:0:0:
51,192,76394,1,0,1:0:0:0:
153,192,76394,1,0,0:0:0:0:
51,192,76594,1,0,1:0:0:0:
153,192,76594,1,0,0:0:0:0:
51,192,76694,1,4,3:0:0:0:
51,192,76794,1,4,3:0:0:0:
51,192,76894,1,4,3:0:0:0:
51,192,76994,1,4,3:0:0:0:
256,192,76994,1,0,0:0:0:0:
51,192,77394,1,0,1:0:0:0:
460,192,77394,1,0,0:0:0:0:
51,192,77594,1,8,3:0:0:0:
51,192,77794,1,8,3:0:0:0:
51,192,77994,1,8,3:0:0:0:
51,192,78194,1,8,3:0:0:0:
51,192,78394,1,8,3:0:0:0:
51,192,78594,1,8,3:0:0:0:
51,192,78794,1,8,3:0:0:0:
51,192,78994,1,8,3:0:0:0:
51,192,79194,1,8,3:0:0:0:
51,192,79394,1,8,3:0:0:0:
51,192,79594,1,8,3:0:0:0:
51,192,79794,1,8,3:0:0:0:
51,192,79994,1,8,3:0:0:0:
51,192,80194,1,8,3:0:0:0:
51,192,80394,1,8,3:0:0:0:
51,192,80594,1,8,3:0:0:0:
358,192,80594,1,0,1:0:0:0:
51,192,80794,1,4,3:0:0:0:
51,192,80894,1,4,3:0:0:0:
51,192,80994,1,4,3:0:0:0:
51,192,81094,1,4,3:0:0:0:
51,192,81194,1,4,3:0:0:0:
51,192,81294,1,4,3:0:0:0:
51,192,81394,1,4,3:0:0:0:
51,192,81494,1,4,3:0:0:0:
51,192,81594,1,4,3:0:0:0:
51,192,81694,1,4,3:0:0:0:
51,192,81794,1,4,3:0:0:0:
51,192,81894,1,4,3:0:0:0:
51,192,81994,1,4,3:0:0:0:
51,192,82094,1,4,3:0:0:0:
51,192,82194,1,4,3:0:0:0:
153,192,82294,1,0,3:0:0:0:
153,192,82394,1,0,3:0:0:0:
153,192,82494,1,0,3:0:0:0:
153,192,82594,1,0,3:0:0:0:
153,192,82694,1,0,3:0:0:0:
153,192,82794,1,0,3:0:0:0:
153,192,82894,1,0,3:0:0:0:
256,192,82994,1,0,1:0:0:0:
51,192,82994,1,12,3:0:0:0:
51,192,83794,1,0,0:0:0:0:
460,192,83794,1,2,0:0:0:0:
51,192,83994,1,0,1:0:0:0:
51,192,84394,1,0,1:0:0:0:
51,192,84794,1,0,1:0:0:0:
51,192,85194,1,0,1:0:0:0:
51,192,85594,1,0,1:0:0:0:
51,192,85994,1,0,1:0:0:0:
51,192,86394,1,0,1:0:0:0:
51,192,86794,1,0,1:0:0:0:
51,192,87194,1,0,1:0:0:0:
51,192,87594,1,0,1:0:0:0:
51,192,87994,1,0,1:0:0:0:
51,192,88394,1,0,1:0:0:0:
51,192,88794,1,0,1:0:0:0:
51,192,89194,1,0,1:0:0:0:
51,192,89594,1,0,1:0:0:0:
51,192,89794,1,4,3:0:0:0:
51,192,89894,1,4,3:0:0:0:
51,192,89994,1,4,3:0:0:0:
51,192,90094,1,4,3:0:0:0:
51,192,90194,1,0,1:0:0:0:
256,192,90194,1,0,0:0:0:0:
51,192,90394,1,0,1:0:0:0:
51,192,90794,1,0,1:0:0:0:
51,192,91194,1,0,1:0:0:0:
51,192,91594,1,0,1:0:0:0:
51,192,91994,1,0,1:0:0:0:
51,192,92394,1,0,1:0:0:0:
51,192,92794,1,0,1:0:0:0:
51,192,93194,1,0,1:0:0:0:
51,192,93394,1,12,3:0:0:0:
51,192,93694,1,12,3:0:0:0:
51,192,93994,1,12,3:0:0:0:
51,192,94194,1,12,3:0:0:0:
358,192,94194,1,0,1:0:0:0:
358,192,94494,1,0,1:0:0:0:
51,192,94494,1,12,3:0:0:0:
358,192,94794,1,0,1:0:0:0:
51,192,94794,1,12,3:0:0:0:
51,192,94994,1,12,3:0:0:0:
358,192,94994,1,0,1:0:0:0:
51,192,95194,1,4,3:0:0:0:
51,192,95294,1,4,3:0:0:0:
51,192,95394,1,4,3:0:0:0:
51,192,95494,1,4,3:0:0:0:
51,192,95594,1,4,3:0:0:0:
51,192,95694,1,4,3:0:0:0:
358,192,95794,1,4,3:0:0:0:
358,192,95894,1,4,3:0:0:0:
358,192,95994,1,4,3:0:0:0:
358,192,96094,1,4,3:0:0:0:
358,192,96194,1,4,3:0:0:0:
358,192,96294,1,4,3:0:0:0:
358,192,96394,1,4,3:0:0:0:
358,192,96494,1,4,3:0:0:0:
358,192,96594,1,0,1:0:0:0:
51,192,96594,1,2,0:0:0:0:
51,192,96794,1,0,1:0:0:0:
51,192,97194,1,0,1:0:0:0:
51,192,97594,1,0,1:0:0:0:
51,192,97994,1,0,1:0:0:0:
51,192,98394,1,0,1:0:0:0:
51,192,98794,1,0,1:0:0:0:
51,192,99194,1,0,1:0:0:0:
51,192,99594,1,0,1:0:0:0:
51,192,99994,1,0,1:0:0:0:
51,192,100394,1,0,1:0:0:0:
51,192,100794,1,0,1:0:0:0:
51,192,101194,1,0,1:0:0:0:
51,192,101594,1,0,1:0:0:0:
51,192,101994,1,0,1:0:0:0:
51,192,102394,1,0,1:0:0:0:
51,192,102794,1,4,3:0:0:0:
51,192,102894,1,4,3:0:0:0:
51,192,102994,1,0,1:0:0:0:
51,192,103194,1,0,1:0:0:0:
51,192,103594,1,0,1:0:0:0:
51,192,103994,1,0,1:0:0:0:
51,192,104394,1,0,1:0:0:0:
51,192,104794,1,0,1:0:0:0:
51,192,105194,1,0,1:0:0:0:
51,192,105394,1,4,3:0:0:0:
51,192,105494,1,4,3:0:0:0:
51,192,105594,1,4,3:0:0:0:
51,192,105694,1,4,3:0:0:0:
460,192,105794,1,4,3:0:0:0:
460,192,105894,1,4,3:0:0:0:
460,192,105994,1,4,3:0:0:0:
460,192,106094,1,4,3:0:0:0:
460,192,106194,1,4,3:0:0:0:
51,192,106194,1,0,1:0:0:0:
51,192,106994,1,0,1:0:0:0:
358,192,106994,1,0,0:0:0:0:
51,192,107394,1,0,1:0:0:0:
256,192,107394,1,0,0:0:0:0:
51,192,107794,1,0,1:0:0:0:
153,192,107794,1,0,0:0:0:0:
256,192,108094,1,8,3:0:0:0:
256,192,108394,1,8,3:0:0:0:
51,192,108594,1,0,1:0:0:0:
460,192,108594,1,0,0:0:0:0:
51,192,108794,1,4,3:0:0:0:
51,192,108894,1,4,3:0:0:0:
51,192,108994,1,0,1:0:0:0:
256,192,108994,1,0,0:0:0:0:
51,192,109394,1,8,3:0:0:0:
256,192,109394,1,0,1:0:0:0:
51,192,109694,1,8,3:0:0:0:
460,192,109694,1,0,1:0:0:0:
358,192,109994,1,0,1:0:0:0:
51,192,109994,1,8,3:0:0:0:
256,192,110194,1,0,0:0:0:0:
153,192,110194,1,0,1:0:0:0:
51,192,110194,1,8,3:0:0:0:
51,192,110494,1,8,3:0:0:0:
153,192,110494,1,0,1:0:0:0:
51,192,110794,1,8,3:0:0:0:
460,192,110794,1,0,1:0:0:0:
51,192,110994,1,8,3:0:0:0:
358,192,110994,1,0,1:0:0:0:
51,192,111194,1,0,1:0:0:0:
51,192,111594,1,0,1:0:0:0:
51,192,111994,1,0,1:0:0:0:
51,192,112194,1,4,3:0:0:0:
51,192,112294,1,4,3:0:0:0:
153,192,112394,1,4,3:0:0:0:
153,192,112494,1,4,3:0:0:0:
153,192,112594,1,0,0:0:0:0:
51,192,112594,1,0,1:0:0:0:
51,192,113194,1,4,3:0:0:0:
51,192,113294,1,4,3:0:0:0:
51,192,113394,1,0,0:0:0:0:
358,192,113394,1,0,1:0:0:0:
448,192,113394,1,0,0:0:0:0:
51,192,113994,1,4,3:0:0:0:
51,192,114094,1,4,3:0:0:0:
51,192,114194,1,0,1:0:0:0:
51,192,114494,1,0,1:0:0:0:
51,192,114794,1,0,1:0:0:0:
51,192,115194,1,0,1:0:0:0:
51,192,115394,1,4,3:0:0:0:
51,192,115494,1,4,3:0:0:0:
51,192,115594,1,4,3:0:0:0:
153,192,115794,1,0,1:0:0:0:
358,192,115794,1,0,0:0:0:0:
256,192,115994,1,4,3:0:0:0:
256,192,116094,1,4,3:0:0:0:
358,192,116194,1,0,0:0:0:0:
153,192,116194,1,0,1:0:0:0:
256,192,116394,1,4,3:0:0:0:
358,192,116594,1,0,0:0:0:0:
153,192,116594,1,0,1:0:0:0:
256,192,116794,1,4,3:0:0:0:
256,192,116894,1,4,3:0:0:0:
153,192,116994,1,0,1:0:0:0:
358,192,116994,1,0,0:0:0:0:
256,192,117194,1,4,3:0:0:0:
460,192,117394,1,0,1:0:0:0:
460,192,117694,1,0,1:0:0:0:
460,192,117994,1,0,1:0:0:0:
256,192,118394,1,4,3:0:0:0:
51,192,118394,1,0,1:0:0:0:
256,192,118494,1,4,3:0:0:0:
256,192,118594,1,4,3:0:0:0:
256,192,118694,1,4,3:0:0:0:
51,192,118994,1,0,1:0:0:0:
460,192,118994,1,0,0:0:0:0:
256,192,119194,1,4,3:0:0:0:
256,192,119294,1,4,3:0:0:0:
51,192,119394,1,0,1:0:0:0:
460,192,119394,1,0,0:0:0:0:
256,192,119594,1,4,3:0:0:0:
256,192,119694,1,4,3:0:0:0:
153,192,119794,1,4,3:0:0:0:
460,192,119794,1,0,1:0:0:0:
153,192,119894,1,4,3:0:0:0:
153,192,119994,1,4,3:0:0:0:
153,192,120094,1,4,3:0:0:0:
51,192,120194,1,0,0:0:0:0:
358,192,120194,1,0,1:0:0:0:
51,192,120594,1,0,1:0:0:0:
153,192,120594,1,0,0:0:0:0:
460,192,120594,1,0,0:0:0:0:
51,192,120794,1,0,1:0:0:0:
51,192,121194,1,0,1:0:0:0:
51,192,121594,1,0,1:0:0:0:
51,192,121994,1,0,1:0:0:0:
51,192,122394,1,0,1:0:0:0:
51,192,122794,1,0,1:0:0:0:
51,192,123194,1,0,1:0:0:0:
51,192,123594,1,0,1:0:0:0:
51,192,123994,1,0,1:0:0:0:
51,192,124394,1,0,1:0:0:0:
51,192,124794,1,0,1:0:0:0:
51,192,125194,1,0,1:0:0:0:
51,192,125394,1,0,1:0:0:0:
51,192,125594,1,4,3:0:0:0:
51,192,125694,1,4,3:0:0:0:
51,192,125794,1,4,3:0:0:0:
153,192,125894,1,4,3:0:0:0:
153,192,125994,1,4,3:0:0:0:
153,192,126094,1,4,3:0:0:0:
153,192,126194,1,4,3:0:0:0:
256,192,126294,1,4,3:0:0:0:
256,192,126394,1,4,3:0:0:0:
256,192,126494,1,4,3:0:0:0:
256,192,126594,1,0,3:0:0:0:
51,192,126594,1,0,1:0:0:0:
358,192,126694,1,4,3:0:0:0:
358,192,126794,1,4,3:0:0:0:
358,192,126894,1,4,3:0:0:0:
460,192,126994,1,0,0:0:0:0:
51,192,126994,1,0,1:0:0:0:
256,192,127094,1,12,3:0:0:0:
51,192,127194,1,0,1:0:0:0:
256,192,127194,1,12,3:0:0:0:
256,192,127294,1,12,3:0:0:0:
153,192,127394,1,0,1:0:0:0:
256,192,127394,1,12,3:0:0:0:
460,192,127494,1,12,3:0:0:0:
460,192,127594,1,12,3:0:0:0:
460,192,127694,1,12,3:0:0:0:
460,192,127794,1,12,3:0:0:0:
460,192,127894,1,12,3:0:0:0:
460,192,127994,1,12,3:0:0:0:
460,192,128094,1,12,3:0:0:0:
460,192,128194,1,0,1:0:0:0:
192,192,128194,1,0,1:0:0:0:
256,192,128194,1,0,0:0:0:0:
51,192,128394,1,0,1:0:0:0:
153,192,128394,1,0,1:0:0:0:
358,192,128394,1,0,1:0:0:0:
460,192,128394,1,0,1:0:0:0:
