osu file format v14

[General]
AudioFilename: FIRE BIRD (TV Size).mp3
AudioLeadIn: 0
PreviewTime: 83619
Countdown: 0
SampleSet: Soft
StackLeniency: 0.7
Mode: 3
LetterboxInBreaks: 0
SpecialStyle: 0
WidescreenStoryboard: 1

[Editor]
Bookmarks: 2406,115694
DistanceSpacing: 1.5
BeatDivisor: 4
GridSize: 4
TimelineZoom: 1.8

[Metadata]
Title:FIRE BIRD (TV Edit)
TitleUnicode:FIRE BIRD (TV Edit)
Artist:Roselia
ArtistUnicode:Roselia
Creator:bima fajar
Version:Hard
Source:BanG Dream! 2nd Season
Tags:バンドリ! ガールズバンドパーティ! bang dream! bandori! girls band party! 9th single album ringing bloom game Japanese anime
BeatmapID:2248429
BeatmapSetID:1074419

[Difficulty]
HPDrainRate:7.5
CircleSize:4
OverallDifficulty:7.5
ApproachRate:5
SliderMultiplier:1.4
SliderTickRate:1

[Events]
//Background and Video events
0,0,"firebird.jpg",0,0
//Break Periods
//Storyboard Layer 0 (Background)
//Storyboard Layer 1 (Fail)
//Storyboard Layer 2 (Pass)
//Storyboard Layer 3 (Foreground)
//Storyboard Layer 4 (Overlay)
//Storyboard Sound Samples

[TimingPoints]
1723,750,4,2,1,30,1,0
23473,779.220779220779,4,2,1,30,1,0
23473,-96.1538461538461,4,2,1,30,0,0
24252,810.810810810811,4,2,1,30,1,0
24252,-92.5925925925926,4,2,1,30,0,0
25062,821.917808219178,4,2,1,30,1,0
25062,-91.743119266055,4,2,1,30,0,0
25472,761.421319796954,4,2,1,30,1,0
25472,-98.0392156862745,4,2,1,30,0,0
25662,952.380952380952,4,2,1,30,1,0
25662,-81.9672131147541,4,2,1,30,0,0
25900,857.142857142857,4,2,1,30,1,0
25900,-88.4955752212389,4,2,1,30,0,0
26757,869.565217391304,4,2,1,30,1,0
26757,-87.719298245614,4,2,1,30,0,0
27626,933.125972006221,4,2,1,30,1,0
27626,-90.9090909090909,4,2,1,30,0,0
29025,952.380952380952,4,2,1,30,1,0
29025,-81.9672131147541,4,2,1,30,0,0
29503,705.052878965922,4,2,1,30,1,0
38994,400,4,2,2,50,1,0
83794,-100,4,2,2,50,0,1
96494,-100,4,2,2,50,0,0
96594,-100,4,2,2,50,0,1
107794,-100,4,2,2,50,0,0
114194,-100,4,2,2,50,0,1
126994,-100,4,2,2,50,0,0

[HitObjects]
448,192,1348,5,0,0:0:0:0:
320,192,1535,1,0,0:0:0:0:
64,192,1723,1,2,0:0:0:0:
192,192,1723,128,0,2473:0:0:0:0:
64,192,2473,1,2,0:0:0:0:
320,192,2473,128,0,2848:0:0:0:0:
448,192,2848,1,0,0:0:0:0:
320,192,3035,128,0,3973:0:0:0:0:
64,192,3223,1,2,0:0:0:0:
64,192,3973,1,2,0:0:0:0:
320,192,4348,128,0,4723:0:0:0:0:
448,192,4723,1,2,0:0:0:0:
64,192,4723,128,0,5848:0:0:0:0:
448,192,5473,1,2,0:0:0:0:
320,192,5848,1,0,0:0:0:0:
192,192,6035,1,0,0:0:0:0:
320,192,6223,1,2,0:0:0:0:
64,192,6223,128,0,6973:0:0:0:0:
320,192,6973,1,2,0:0:0:0:
448,192,7348,1,0,0:0:0:0:
320,192,7535,1,0,0:0:0:0:
64,192,7723,1,2,0:0:0:0:
448,192,7723,128,0,8473:0:0:0:0:
64,192,8473,1,2,0:0:0:0:
448,192,8848,1,0,0:0:0:0:
320,192,9035,1,0,0:0:0:0:
64,192,9223,1,2,0:0:0:0:
192,192,9223,128,0,9598:0:0:0:0:
320,192,9598,128,0,9973:0:0:0:0:
64,192,9973,1,2,0:0:0:0:
448,192,9973,128,0,10348:0:0:0:0:
320,192,10348,1,0,0:0:0:0:
192,192,10535,128,0,12223:0:0:0:0:
320,192,10723,1,2,0:0:0:0:
320,192,11473,1,2,0:0:0:0:
320,192,12223,1,2,0:0:0:0:
320,192,12973,1,2,0:0:0:0:
448,192,13348,1,2,0:0:0:0:
64,192,13348,1,0,0:0:0:0:
192,192,13535,1,0,0:0:0:0:
448,192,13723,1,2,0:0:0:0:
320,192,13723,128,0,14473:0:0:0:0:
448,192,14473,1,2,0:0:0:0:
192,192,14473,128,0,14848:0:0:0:0:
64,192,14848,1,0,0:0:0:0:
192,192,15035,128,0,15973:0:0:0:0:
448,192,15223,1,2,0:0:0:0:
448,192,15973,1,2,0:0:0:0:
192,192,16348,1,2,0:0:0:0:
448,192,16348,128,0,16723:0:0:0:0:
320,192,16723,1,2,0:0:0:0:
64,192,16723,128,0,17848:0:0:0:0:
320,192,17473,1,2,0:0:0:0:
448,192,17848,1,0,0:0:0:0:
320,192,18035,1,0,0:0:0:0:
64,192,18223,1,2,0:0:0:0:
192,192,18223,128,0,18785:0:0:0:0:
64,192,18973,1,2,0:0:0:0:
320,192,19348,1,0,0:0:0:0:
192,192,19535,1,0,0:0:0:0:
64,192,19723,1,2,0:0:0:0:
448,192,19723,128,0,20285:0:0:0:0:
192,192,20848,1,0,0:0:0:0:
320,192,21035,1,0,0:0:0:0:
448,192,21223,1,2,0:0:0:0:
64,192,21223,128,0,21598:0:0:0:0:
192,192,21598,128,0,21973:0:0:0:0:
320,192,21973,128,0,22348:0:0:0:0:
448,192,22348,1,0,0:0:0:0:
64,192,22535,128,0,24252:0:0:0:0:
448,192,22723,1,2,0:0:0:0:
448,192,23473,1,2,0:0:0:0:
448,192,24252,1,2,0:0:0:0:
64,192,25062,1,2,0:0:0:0:
448,192,25062,128,0,25472:0:0:0:0:
320,192,25472,1,0,0:0:0:0:
192,192,25662,1,0,0:0:0:0:
64,192,25900,128,2,27859:0:0:0:0:
448,192,25900,1,0,0:0:0:0:
448,192,26328,1,2,0:0:0:0:
192,192,26328,1,0,0:0:0:0:
448,192,26757,1,2,0:0:0:0:
448,192,27626,1,2,0:0:0:0:
320,192,28559,128,2,29025:0:0:0:0:
192,192,29025,128,2,29503:0:0:0:0:
320,192,29501,1,0,0:0:0:0:
64,192,29503,128,2,35143:0:0:0:0:
320,192,35143,1,2,0:0:0:0:
192,192,38994,1,4,0:0:0:0:
192,192,39394,1,4,0:0:0:0:
192,192,39794,1,4,0:0:0:0:
192,192,39994,1,4,0:0:0:0:
192,192,40194,1,4,0:0:0:0:
320,192,40394,1,4,3:0:0:0:
192,192,40494,1,4,3:0:0:0:
64,192,40594,128,0,40894:1:0:0:0:
320,192,40594,128,0,40894:0:0:0:0:
448,192,40894,128,0,41194:1:0:0:0:
192,192,40894,128,0,41194:0:0:0:0:
64,192,41194,128,0,41594:1:0:0:0:
320,192,41194,128,0,41594:0:0:0:0:
192,192,41594,1,0,1:0:0:0:
64,192,41794,1,0,3:0:0:0:
448,192,41794,1,0,3:0:0:0:
320,192,41894,1,0,3:0:0:0:
192,192,41994,1,0,3:0:0:0:
64,192,42094,1,0,3:0:0:0:
192,192,42194,1,4,0:0:0:0:
448,192,42194,1,0,0:0:0:0:
320,192,42394,1,0,3:0:0:0:
192,192,42494,1,0,3:0:0:0:
64,192,42594,1,4,0:0:0:0:
320,192,42594,1,0,0:0:0:0:
192,192,42794,1,0,3:0:0:0:
64,192,42994,1,4,0:0:0:0:
448,192,42994,1,0,0:0:0:0:
320,192,43194,1,0,3:0:0:0:
192,192,43294,1,0,3:0:0:0:
64,192,43394,1,4,0:0:0:0:
320,192,43394,1,0,0:0:0:0:
192,192,43594,1,0,3:0:0:0:
64,192,43794,128,0,44094:1:0:0:0:
320,192,43794,128,0,44094:0:0:0:0:
448,192,44094,128,0,44394:1:0:0:0:
192,192,44094,128,0,44394:0:0:0:0:
64,192,44394,128,0,44794:1:0:0:0:
320,192,44394,128,0,44794:0:0:0:0:
192,192,44794,1,0,1:0:0:0:
64,192,44994,1,0,3:0:0:0:
448,192,44994,1,0,0:0:0:0:
192,192,45094,1,0,3:0:0:0:
320,192,45194,1,0,3:0:0:0:
192,192,45294,1,0,3:0:0:0:
64,192,45394,1,4,0:0:0:0:
320,192,45394,1,0,0:0:0:0:
192,192,45594,1,0,3:0:0:0:
320,192,45694,1,0,3:0:0:0:
192,192,45794,1,4,0:0:0:0:
448,192,45794,1,0,0:0:0:0:
320,192,45994,1,0,3:0:0:0:
64,192,46194,1,4,3:0:0:0:
448,192,46194,1,0,0:0:0:0:
192,192,46294,1,4,3:0:0:0:
320,192,46394,1,4,3:0:0:0:
448,192,46494,1,4,3:0:0:0:
64,192,46594,1,0,1:0:0:0:
320,192,46594,1,0,0:0:0:0:
64,192,46994,1,6,0:0:0:0:
192,192,46994,1,6,0:0:0:0:
448,192,46994,1,0,0:0:0:0:
320,192,47094,1,0,0:0:0:0:
192,192,47194,1,0,1:0:0:0:
448,192,47194,1,0,0:0:0:0:
320,192,47294,1,0,0:0:0:0:
64,192,47394,1,0,0:0:0:0:
192,192,47494,1,0,0:0:0:0:
320,192,47594,1,0,1:0:0:0:
448,192,47594,1,0,0:0:0:0:
192,192,47694,1,0,0:0:0:0:
320,192,47794,1,0,0:0:0:0:
64,192,47894,1,0,0:0:0:0:
320,192,47994,1,0,1:0:0:0:
448,192,47994,1,0,0:0:0:0:
192,192,48094,1,0,0:0:0:0:
64,192,48194,1,0,0:0:0:0:
448,192,48294,1,0,0:0:0:0:
64,192,48394,1,0,1:0:0:0:
192,192,48394,1,0,0:0:0:0:
320,192,48494,1,0,0:0:0:0:
64,192,48594,1,0,0:0:0:0:
192,192,48694,1,0,0:0:0:0:
320,192,48794,1,0,1:0:0:0:
448,192,48794,1,0,0:0:0:0:
192,192,48894,1,0,0:0:0:0:
320,192,48994,1,0,0:0:0:0:
64,192,49094,1,0,0:0:0:0:
192,192,49194,1,0,1:0:0:0:
448,192,49194,1,0,0:0:0:0:
320,192,49294,1,0,0:0:0:0:
192,192,49394,1,0,0:0:0:0:
448,192,49494,1,0,0:0:0:0:
64,192,49594,1,0,1:0:0:0:
320,192,49594,1,0,0:0:0:0:
192,192,49694,1,0,0:0:0:0:
320,192,49794,1,0,0:0:0:0:
64,192,49894,1,0,0:0:0:0:
192,192,49994,1,0,1:0:0:0:
320,192,49994,1,0,0:0:0:0:
448,192,50094,1,0,0:0:0:0:
64,192,50194,1,0,0:0:0:0:
192,192,50294,1,0,0:0:0:0:
64,192,50394,1,0,1:0:0:0:
448,192,50394,1,0,0:0:0:0:
320,192,50494,1,0,0:0:0:0:
192,192,50594,1,0,0:0:0:0:
64,192,50694,1,0,0:0:0:0:
192,192,50794,1,0,1:0:0:0:
448,192,50794,1,0,0:0:0:0:
320,192,50894,1,0,0:0:0:0:
192,192,50994,1,0,0:0:0:0:
448,192,51094,1,0,0:0:0:0:
192,192,51194,1,0,1:0:0:0:
320,192,51194,1,0,0:0:0:0:
64,192,51294,1,0,0:0:0:0:
448,192,51394,1,0,0:0:0:0:
320,192,51494,1,0,0:0:0:0:
64,192,51594,1,0,1:0:0:0:
192,192,51594,1,0,0:0:0:0:
448,192,51694,1,0,0:0:0:0:
64,192,51794,1,0,0:0:0:0:
192,192,51894,1,0,0:0:0:0:
320,192,51994,1,0,1:0:0:0:
448,192,51994,1,0,0:0:0:0:
192,192,52094,1,0,0:0:0:0:
320,192,52194,1,0,0:0:0:0:
64,192,52294,1,0,0:0:0:0:
192,192,52394,1,0,1:0:0:0:
320,192,52394,1,0,0:0:0:0:
448,192,52494,1,0,0:0:0:0:
64,192,52594,1,0,0:0:0:0:
192,192,52694,1,0,0:0:0:0:
320,192,52794,1,0,3:0:0:0:
192,192,52894,1,0,3:0:0:0:
320,192,52994,1,0,3:0:0:0:
192,192,53094,1,0,3:0:0:0:
320,192,53194,1,0,3:0:0:0:
192,192,53294,1,0,3:0:0:0:
320,192,53394,1,0,1:0:0:0:
448,192,53394,1,0,0:0:0:0:
64,192,53494,1,0,0:0:0:0:
192,192,53594,1,0,1:0:0:0:
448,192,53594,1,0,0:0:0:0:
320,192,53694,1,0,0:0:0:0:
192,192,53794,1,0,0:0:0:0:
64,192,53894,1,0,0:0:0:0:
320,192,53994,1,0,1:0:0:0:
448,192,53994,1,0,0:0:0:0:
192,192,54094,1,0,0:0:0:0:
448,192,54194,1,0,0:0:0:0:
320,192,54294,1,0,0:0:0:0:
64,192,54394,1,0,1:0:0:0:
192,192,54394,1,0,0:0:0:0:
448,192,54494,1,0,0:0:0:0:
64,192,54594,1,0,0:0:0:0:
192,192,54694,1,0,0:0:0:0:
64,192,54794,1,0,1:0:0:0:
448,192,54794,1,0,0:0:0:0:
320,192,54894,1,0,0:0:0:0:
64,192,54994,1,0,0:0:0:0:
320,192,55094,1,0,0:0:0:0:
64,192,55194,1,0,1:0:0:0:
192,192,55194,1,0,0:0:0:0:
448,192,55294,1,0,0:0:0:0:
320,192,55394,1,0,0:0:0:0:
64,192,55494,1,0,0:0:0:0:
320,192,55594,1,0,1:0:0:0:
448,192,55594,1,0,0:0:0:0:
64,192,55694,1,0,0:0:0:0:
192,192,55794,1,0,0:0:0:0:
320,192,55894,1,0,0:0:0:0:
192,192,55994,1,0,1:0:0:0:
448,192,55994,1,0,0:0:0:0:
64,192,56094,1,0,0:0:0:0:
448,192,56194,1,0,0:0:0:0:
192,192,56294,1,0,0:0:0:0:
320,192,56394,1,0,1:0:0:0:
448,192,56394,1,0,0:0:0:0:
64,192,56494,1,0,0:0:0:0:
448,192,56594,1,0,0:0:0:0:
320,192,56694,1,0,0:0:0:0:
64,192,56794,1,0,1:0:0:0:
192,192,56794,1,0,0:0:0:0:
320,192,56894,1,0,0:0:0:0:
448,192,56994,1,0,0:0:0:0:
64,192,57094,1,0,0:0:0:0:
320,192,57194,1,0,1:0:0:0:
448,192,57194,1,0,0:0:0:0:
192,192,57294,1,0,0:0:0:0:
448,192,57394,1,0,0:0:0:0:
320,192,57494,1,0,0:0:0:0:
64,192,57594,1,0,1:0:0:0:
448,192,57594,1,0,0:0:0:0:
192,192,57694,1,0,0:0:0:0:
448,192,57794,1,0,0:0:0:0:
64,192,57894,1,0,0:0:0:0:
320,192,57994,1,0,1:0:0:0:
448,192,57994,1,0,0:0:0:0:
192,192,58094,1,0,0:0:0:0:
320,192,58194,1,0,0:0:0:0:
64,192,58294,1,0,0:0:0:0:
192,192,58394,1,0,1:0:0:0:
448,192,58394,1,0,0:0:0:0:
320,192,58494,1,0,0:0:0:0:
192,192,58594,1,0,0:0:0:0:
64,192,58694,1,0,0:0:0:0:
192,192,58794,1,0,1:0:0:0:
448,192,58794,1,0,0:0:0:0:
320,192,58894,1,0,0:0:0:0:
448,192,58994,1,0,0:0:0:0:
192,192,59094,1,0,0:0:0:0:
320,192,59194,1,0,1:0:0:0:
448,192,59194,1,0,0:0:0:0:
64,192,59294,1,0,0:0:0:0:
320,192,59394,1,4,3:0:0:0:
192,192,59494,1,4,3:0:0:0:
320,192,59594,1,4,3:0:0:0:
192,192,59694,1,4,3:0:0:0:
64,192,59794,1,0,1:0:0:0:
448,192,59794,1,0,0:0:0:0:
192,192,59894,1,0,0:0:0:0:
320,192,59994,1,0,1:0:0:0:
448,192,59994,1,0,0:0:0:0:
192,192,60094,1,0,0:0:0:0:
448,192,60194,1,0,0:0:0:0:
64,192,60294,1,0,0:0:0:0:
192,192,60394,1,0,1:0:0:0:
448,192,60394,1,0,0:0:0:0:
320,192,60494,1,0,0:0:0:0:
192,192,60594,1,0,0:0:0:0:
448,192,60694,1,0,0:0:0:0:
64,192,60794,1,0,1:0:0:0:
320,192,60794,1,0,0:0:0:0:
192,192,60894,1,0,0:0:0:0:
320,192,60994,1,0,0:0:0:0:
64,192,61094,1,0,0:0:0:0:
192,192,61194,1,0,1:0:0:0:
448,192,61194,1,0,0:0:0:0:
320,192,61294,1,0,0:0:0:0:
192,192,61394,1,0,0:0:0:0:
64,192,61494,1,0,0:0:0:0:
320,192,61594,1,0,1:0:0:0:
448,192,61594,1,0,0:0:0:0:
192,192,61694,1,0,0:0:0:0:
448,192,61794,1,0,0:0:0:0:
320,192,61894,1,0,0:0:0:0:
64,192,61994,1,0,1:0:0:0:
448,192,61994,1,0,0:0:0:0:
192,192,62094,1,0,0:0:0:0:
448,192,62194,1,4,3:0:0:0:
320,192,62294,1,4,3:0:0:0:
192,192,62394,1,4,3:0:0:0:
320,192,62494,1,4,3:0:0:0:
192,192,62594,1,4,3:0:0:0:
320,192,62694,1,4,3:0:0:0:
192,192,62794,1,4,3:0:0:0:
320,192,62894,1,4,3:0:0:0:
64,192,62994,1,12,3:0:0:0:
192,192,62994,1,0,0:0:0:0:
448,192,62994,1,0,0:0:0:0:
64,192,63594,1,0,0:0:0:0:
192,192,63694,1,0,0:0:0:0:
320,192,63794,1,12,3:0:0:0:
448,192,63794,1,12,3:0:0:0:
192,192,63994,1,0,0:0:0:0:
320,192,64094,1,12,3:0:0:0:
64,192,64094,1,12,3:0:0:0:
192,192,64194,1,0,0:0:0:0:
320,192,64394,1,12,3:0:0:0:
64,192,64594,1,4,3:0:0:0:
192,192,64594,1,0,1:0:0:0:
448,192,64594,1,0,0:0:0:0:
320,192,64794,1,4,3:0:0:0:
64,192,64894,1,4,3:0:0:0:
448,192,64894,1,0,1:0:0:0:
192,192,65094,1,4,3:0:0:0:
320,192,65194,1,4,3:0:0:0:
448,192,65194,1,0,1:0:0:0:
320,192,65394,1,0,0:0:0:0:
64,192,65594,1,0,1:0:0:0:
192,192,65594,1,0,3:0:0:0:
448,192,65694,1,0,3:0:0:0:
320,192,65794,1,0,3:0:0:0:
64,192,65894,1,0,3:0:0:0:
192,192,65994,1,0,3:0:0:0:
448,192,66094,1,0,3:0:0:0:
64,192,66194,1,0,1:0:0:0:
320,192,66194,1,0,3:0:0:0:
320,192,66594,1,0,3:0:0:0:
64,192,66794,1,4,3:0:0:0:
192,192,66894,1,4,3:0:0:0:
320,192,66994,1,4,3:0:0:0:
448,192,66994,1,0,1:0:0:0:
320,192,67394,1,0,3:0:0:0:
192,192,67794,128,8,68194:3:0:0:0:
448,192,67794,128,0,68194:0:0:0:0:
64,192,68194,128,8,68394:3:0:0:0:
320,192,68194,128,0,68394:0:0:0:0:
192,192,68394,1,8,3:0:0:0:
448,192,68394,1,0,0:0:0:0:
64,192,68594,1,0,1:0:0:0:
192,192,68594,128,0,69194:0:0:0:0:
448,192,68594,128,0,69194:0:0:0:0:
64,192,69194,1,0,0:0:0:0:
320,192,69194,1,0,0:0:0:0:
320,192,69394,1,0,0:0:0:0:
448,192,69394,1,0,1:0:0:0:
192,192,69794,1,0,0:0:0:0:
64,192,70194,1,0,1:0:0:0:
320,192,70194,1,0,0:0:0:0:
448,192,70594,1,0,0:0:0:0:
192,192,70994,1,4,3:0:0:0:
320,192,70994,1,0,0:0:0:0:
64,192,71294,1,4,3:0:0:0:
192,192,71294,1,0,0:0:0:0:
320,192,71594,128,4,72194:3:0:0:0:
448,192,71594,128,0,72194:0:0:0:0:
64,192,71794,1,0,0:0:0:0:
192,192,71794,1,0,1:0:0:0:
64,192,72194,1,0,0:0:0:0:
192,192,72194,1,0,1:0:0:0:
192,192,72394,1,0,0:0:0:0:
320,192,72494,1,0,0:0:0:0:
192,192,72594,1,0,0:0:0:0:
448,192,72594,1,0,1:0:0:0:
192,192,72994,1,0,0:0:0:0:
448,192,73294,1,4,3:0:0:0:
64,192,73394,1,0,1:0:0:0:
320,192,73394,1,0,0:0:0:0:
192,192,73794,1,0,3:0:0:0:
320,192,73794,1,0,0:0:0:0:
64,192,74194,128,4,74594:3:0:0:0:
320,192,74194,128,0,74594:0:0:0:0:
192,192,74594,128,4,74794:3:0:0:0:
448,192,74594,128,0,74794:0:0:0:0:
64,192,74794,1,4,3:0:0:0:
320,192,74794,1,0,0:0:0:0:
64,192,74994,1,0,0:0:0:0:
320,192,74994,128,0,75594:1:0:0:0:
448,192,74994,128,0,75594:0:0:0:0:
64,192,75594,1,4,3:0:0:0:
192,192,75594,1,0,0:0:0:0:
192,192,75794,1,0,0:0:0:0:
320,192,75794,1,0,1:0:0:0:
64,192,76094,1,0,0:0:0:0:
448,192,76094,1,0,1:0:0:0:
192,192,76394,1,0,0:0:0:0:
320,192,76394,1,0,1:0:0:0:
64,192,76594,1,0,0:0:0:0:
448,192,76594,1,0,1:0:0:0:
320,192,76694,1,4,3:0:0:0:
192,192,76794,1,4,3:0:0:0:
64,192,76894,1,4,3:0:0:0:
192,192,76994,1,4,3:0:0:0:
320,192,76994,1,0,0:0:0:0:
64,192,77394,1,0,0:0:0:0:
320,192,77394,1,0,1:0:0:0:
448,192,77394,1,0,0:0:0:0:
192,192,77594,1,8,3:0:0:0:
192,192,77794,1,8,3:0:0:0:
192,192,77994,1,8,3:0:0:0:
192,192,78194,1,8,3:0:0:0:
192,192,78394,1,8,3:0:0:0:
192,192,78594,1,8,3:0:0:0:
192,192,78794,1,8,3:0:0:0:
192,192,78994,1,8,3:0:0:0:
448,192,78994,1,0,0:0:0:0:
448,192,79194,1,8,3:0:0:0:
448,192,79394,1,8,3:0:0:0:
448,192,79594,1,8,3:0:0:0:
448,192,79794,1,8,3:0:0:0:
448,192,79994,1,8,3:0:0:0:
448,192,80194,1,8,3:0:0:0:
448,192,80394,1,8,3:0:0:0:
64,192,80594,1,8,3:0:0:0:
192,192,80594,1,0,1:0:0:0:
448,192,80594,1,0,0:0:0:0:
320,192,80794,1,4,3:0:0:0:
192,192,80894,1,4,3:0:0:0:
320,192,80994,1,4,3:0:0:0:
192,192,81094,1,4,3:0:0:0:
320,192,81194,1,4,3:0:0:0:
192,192,81294,1,4,3:0:0:0:
320,192,81394,1,4,3:0:0:0:
64,192,81494,1,4,3:0:0:0:
448,192,81594,1,4,3:0:0:0:
64,192,81694,1,4,3:0:0:0:
448,192,81794,1,4,3:0:0:0:
64,192,81894,1,4,3:0:0:0:
448,192,81994,1,4,3:0:0:0:
64,192,82094,1,4,3:0:0:0:
192,192,82194,1,4,3:0:0:0:
448,192,82194,1,0,0:0:0:0:
320,192,82294,1,0,3:0:0:0:
192,192,82394,1,0,3:0:0:0:
320,192,82494,1,0,3:0:0:0:
64,192,82594,1,0,3:0:0:0:
320,192,82694,1,0,3:0:0:0:
192,192,82794,1,0,3:0:0:0:
448,192,82894,1,0,3:0:0:0:
64,192,82994,1,4,3:0:0:0:
192,192,82994,1,0,1:0:0:0:
320,192,82994,1,8,3:0:0:0:
448,192,83194,1,0,0:0:0:0:
320,192,83294,1,0,0:0:0:0:
192,192,83394,1,0,0:0:0:0:
64,192,83494,1,0,0:0:0:0:
192,192,83594,1,0,0:0:0:0:
448,192,83594,1,0,0:0:0:0:
320,192,83694,1,0,0:0:0:0:
64,192,83794,1,0,1:0:0:0:
192,192,83794,1,2,0:0:0:0:
448,192,83794,1,0,0:0:0:0:
320,192,83894,1,0,0:0:0:0:
192,192,83994,1,0,1:0:0:0:
448,192,84094,1,0,0:0:0:0:
64,192,84194,1,0,0:0:0:0:
192,192,84294,1,0,0:0:0:0:
320,192,84394,1,0,1:0:0:0:
448,192,84394,1,0,0:0:0:0:
192,192,84494,1,0,0:0:0:0:
320,192,84594,1,0,0:0:0:0:
64,192,84694,1,0,0:0:0:0:
192,192,84794,1,0,1:0:0:0:
448,192,84794,1,0,0:0:0:0:
320,192,84894,1,0,0:0:0:0:
192,192,84994,1,0,0:0:0:0:
448,192,85094,1,0,0:0:0:0:
192,192,85194,1,0,1:0:0:0:
320,192,85194,1,0,0:0:0:0:
64,192,85294,1,0,0:0:0:0:
448,192,85394,1,0,0:0:0:0:
192,192,85494,1,0,0:0:0:0:
64,192,85594,1,0,1:0:0:0:
320,192,85594,1,0,0:0:0:0:
448,192,85694,1,0,0:0:0:0:
64,192,85794,1,0,0:0:0:0:
192,192,85894,1,0,0:0:0:0:
320,192,85994,1,0,1:0:0:0:
448,192,85994,1,0,0:0:0:0:
192,192,86094,1,0,0:0:0:0:
320,192,86194,1,0,0:0:0:0:
64,192,86294,1,0,0:0:0:0:
192,192,86394,1,0,1:0:0:0:
448,192,86394,1,0,0:0:0:0:
320,192,86494,1,0,0:0:0:0:
192,192,86594,1,0,0:0:0:0:
448,192,86694,1,0,0:0:0:0:
192,192,86794,1,0,1:0:0:0:
320,192,86794,1,0,0:0:0:0:
64,192,86894,1,0,0:0:0:0:
448,192,86994,1,0,0:0:0:0:
192,192,87094,1,0,0:0:0:0:
320,192,87194,1,0,1:0:0:0:
448,192,87194,1,0,0:0:0:0:
64,192,87294,1,0,0:0:0:0:
192,192,87394,1,0,0:0:0:0:
448,192,87494,1,0,0:0:0:0:
64,192,87594,1,0,1:0:0:0:
320,192,87594,1,0,0:0:0:0:
192,192,87694,1,0,0:0:0:0:
448,192,87794,1,0,0:0:0:0:
192,192,87894,1,0,0:0:0:0:
320,192,87994,1,0,1:0:0:0:
448,192,87994,1,0,0:0:0:0:
64,192,88094,1,0,0:0:0:0:
192,192,88194,1,0,0:0:0:0:
448,192,88294,1,0,0:0:0:0:
64,192,88394,1,0,1:0:0:0:
320,192,88394,1,0,0:0:0:0:
192,192,88494,1,0,0:0:0:0:
320,192,88594,1,0,0:0:0:0:
64,192,88694,1,0,0:0:0:0:
192,192,88794,1,0,1:0:0:0:
320,192,88794,1,0,0:0:0:0:
448,192,88894,1,0,0:0:0:0:
320,192,88994,1,0,0:0:0:0:
192,192,89094,1,0,0:0:0:0:
320,192,89194,1,0,1:0:0:0:
448,192,89194,1,0,0:0:0:0:
64,192,89294,1,0,0:0:0:0:
448,192,89394,1,0,0:0:0:0:
320,192,89494,1,0,0:0:0:0:
64,192,89594,1,0,1:0:0:0:
192,192,89594,1,0,0:0:0:0:
320,192,89694,1,0,0:0:0:0:
192,192,89794,1,4,3:0:0:0:
448,192,89794,1,0,0:0:0:0:
320,192,89894,1,4,3:0:0:0:
64,192,89994,1,4,3:0:0:0:
448,192,89994,1,0,0:0:0:0:
192,192,90094,1,4,3:0:0:0:
64,192,90194,1,0,0:0:0:0:
320,192,90194,1,0,1:0:0:0:
448,192,90294,1,0,0:0:0:0:
192,192,90394,1,0,1:0:0:0:
320,192,90394,1,0,0:0:0:0:
64,192,90494,1,0,0:0:0:0:
192,192,90594,1,0,0:0:0:0:
448,192,90694,1,0,0:0:0:0:
64,192,90794,1,0,1:0:0:0:
192,192,90794,1,0,0:0:0:0:
320,192,90894,1,0,0:0:0:0:
64,192,90994,1,0,0:0:0:0:
448,192,91094,1,0,0:0:0:0:
192,192,91194,1,0,1:0:0:0:
320,192,91194,1,0,0:0:0:0:
64,192,91294,1,0,0:0:0:0:
192,192,91394,1,0,0:0:0:0:
448,192,91494,1,0,0:0:0:0:
64,192,91594,1,0,1:0:0:0:
320,192,91594,1,0,0:0:0:0:
192,192,91694,1,0,0:0:0:0:
320,192,91794,1,0,0:0:0:0:
64,192,91894,1,0,0:0:0:0:
192,192,91994,1,0,1:0:0:0:
448,192,91994,1,0,0:0:0:0:
320,192,92094,1,0,0:0:0:0:
192,192,92194,1,0,0:0:0:0:
64,192,92294,1,0,0:0:0:0:
192,192,92394,1,0,1:0:0:0:
320,192,92394,1,0,0:0:0:0:
448,192,92494,1,0,0:0:0:0:
320,192,92594,1,0,0:0:0:0:
64,192,92694,1,0,0:0:0:0:
192,192,92794,1,0,1:0:0:0:
448,192,92794,1,0,0:0:0:0:
320,192,92894,1,0,0:0:0:0:
192,192,92994,1,0,0:0:0:0:
448,192,93094,1,0,0:0:0:0:
64,192,93194,1,0,1:0:0:0:
192,192,93194,1,0,0:0:0:0:
320,192,93294,1,0,0:0:0:0:
192,192,93394,128,12,93694:3:0:0:0:
448,192,93394,128,0,93694:0:0:0:0:
64,192,93694,128,12,93994:3:0:0:0:
320,192,93694,128,0,93994:0:0:0:0:
192,192,93994,128,12,94194:3:0:0:0:
448,192,93994,128,0,94194:0:0:0:0:
64,192,94194,1,12,3:0:0:0:
320,192,94194,1,0,1:0:0:0:
192,192,94494,1,12,3:0:0:0:
320,192,94494,1,0,1:0:0:0:
320,192,94794,1,12,3:0:0:0:
448,192,94794,1,0,1:0:0:0:
64,192,94994,1,12,3:0:0:0:
192,192,94994,1,0,1:0:0:0:
320,192,95194,1,4,3:0:0:0:
192,192,95294,1,4,3:0:0:0:
320,192,95394,1,4,3:0:0:0:
192,192,95494,1,4,3:0:0:0:
320,192,95594,1,4,3:0:0:0:
192,192,95694,1,4,3:0:0:0:
448,192,95794,1,4,3:0:0:0:
64,192,95894,1,4,3:0:0:0:
448,192,95994,1,4,3:0:0:0:
64,192,96094,1,4,3:0:0:0:
448,192,96194,1,4,3:0:0:0:
64,192,96294,1,4,3:0:0:0:
448,192,96394,1,4,3:0:0:0:
64,192,96494,1,4,3:0:0:0:
192,192,96594,1,2,0:0:0:0:
448,192,96594,1,0,1:0:0:0:
320,192,96694,1,0,0:0:0:0:
64,192,96794,1,0,1:0:0:0:
448,192,96794,1,0,0:0:0:0:
192,192,96894,1,0,0:0:0:0:
448,192,96994,1,0,0:0:0:0:
320,192,97094,1,0,0:0:0:0:
64,192,97194,1,0,1:0:0:0:
192,192,97194,1,0,0:0:0:0:
448,192,97294,1,0,0:0:0:0:
192,192,97394,1,0,0:0:0:0:
320,192,97494,1,0,0:0:0:0:
64,192,97594,1,0,1:0:0:0:
192,192,97594,1,0,0:0:0:0:
448,192,97694,1,0,0:0:0:0:
320,192,97794,1,0,0:0:0:0:
64,192,97894,1,0,0:0:0:0:
320,192,97994,1,0,1:0:0:0:
448,192,97994,1,0,0:0:0:0:
192,192,98094,1,0,0:0:0:0:
64,192,98194,1,0,0:0:0:0:
192,192,98294,1,0,0:0:0:0:
64,192,98394,1,0,1:0:0:0:
320,192,98394,1,0,0:0:0:0:
448,192,98494,1,0,0:0:0:0:
64,192,98594,1,0,0:0:0:0:
192,192,98694,1,0,0:0:0:0:
320,192,98794,1,0,1:0:0:0:
448,192,98794,1,0,0:0:0:0:
64,192,98894,1,0,0:0:0:0:
448,192,98994,1,0,0:0:0:0:
192,192,99094,1,0,0:0:0:0:
320,192,99194,1,0,1:0:0:0:
448,192,99194,1,0,0:0:0:0:
64,192,99294,1,0,0:0:0:0:
448,192,99394,1,0,0:0:0:0:
320,192,99494,1,0,0:0:0:0:
64,192,99594,1,0,1:0:0:0:
192,192,99594,1,0,0:0:0:0:
448,192,99694,1,0,0:0:0:0:
192,192,99794,1,0,0:0:0:0:
320,192,99894,1,0,0:0:0:0:
64,192,99994,1,0,1:0:0:0:
448,192,99994,1,0,0:0:0:0:
192,192,100094,1,0,0:0:0:0:
448,192,100194,1,0,0:0:0:0:
320,192,100294,1,0,0:0:0:0:
64,192,100394,1,0,1:0:0:0:
192,192,100394,1,0,0:0:0:0:
448,192,100494,1,0,0:0:0:0:
192,192,100594,1,0,0:0:0:0:
320,192,100694,1,0,0:0:0:0:
64,192,100794,1,0,1:0:0:0:
448,192,100794,1,0,0:0:0:0:
320,192,100894,1,0,0:0:0:0:
64,192,100994,1,0,0:0:0:0:
192,192,101094,1,0,0:0:0:0:
320,192,101194,1,0,1:0:0:0:
448,192,101194,1,0,0:0:0:0:
192,192,101294,1,0,0:0:0:0:
320,192,101394,1,0,0:0:0:0:
64,192,101494,1,0,0:0:0:0:
320,192,101594,1,0,1:0:0:0:
448,192,101594,1,0,0:0:0:0:
192,192,101694,1,0,0:0:0:0:
64,192,101794,1,0,0:0:0:0:
448,192,101894,1,0,0:0:0:0:
64,192,101994,1,0,1:0:0:0:
192,192,101994,1,0,0:0:0:0:
320,192,102094,1,0,0:0:0:0:
448,192,102194,1,0,0:0:0:0:
64,192,102294,1,0,0:0:0:0:
320,192,102394,1,0,1:0:0:0:
448,192,102394,1,0,0:0:0:0:
192,192,102494,1,0,0:0:0:0:
448,192,102594,1,0,0:0:0:0:
320,192,102694,1,0,0:0:0:0:
64,192,102794,1,4,3:0:0:0:
192,192,102894,1,4,3:0:0:0:
320,192,102994,1,0,1:0:0:0:
448,192,102994,1,0,0:0:0:0:
64,192,103094,1,0,0:0:0:0:
192,192,103194,1,0,1:0:0:0:
320,192,103194,1,0,0:0:0:0:
448,192,103294,1,0,0:0:0:0:
320,192,103394,1,0,0:0:0:0:
64,192,103494,1,0,0:0:0:0:
192,192,103594,1,0,1:0:0:0:
448,192,103594,1,0,0:0:0:0:
320,192,103694,1,0,0:0:0:0:
64,192,103794,1,0,0:0:0:0:
448,192,103894,1,0,0:0:0:0:
192,192,103994,1,0,1:0:0:0:
320,192,103994,1,0,0:0:0:0:
64,192,104094,1,0,0:0:0:0:
320,192,104194,1,0,0:0:0:0:
448,192,104294,1,0,0:0:0:0:
64,192,104394,1,0,1:0:0:0:
192,192,104394,1,0,0:0:0:0:
320,192,104494,1,0,0:0:0:0:
192,192,104594,1,0,0:0:0:0:
448,192,104694,1,0,0:0:0:0:
64,192,104794,1,0,1:0:0:0:
320,192,104794,1,0,0:0:0:0:
192,192,104894,1,0,0:0:0:0:
320,192,104994,1,0,0:0:0:0:
448,192,105094,1,0,0:0:0:0:
64,192,105194,1,0,1:0:0:0:
192,192,105194,1,0,0:0:0:0:
320,192,105294,1,0,0:0:0:0:
448,192,105394,1,4,3:0:0:0:
64,192,105394,1,0,0:0:0:0:
320,192,105494,1,4,3:0:0:0:
192,192,105594,1,4,3:0:0:0:
64,192,105694,1,4,3:0:0:0:
192,192,105794,1,4,3:0:0:0:
320,192,105894,1,4,3:0:0:0:
64,192,105994,1,4,3:0:0:0:
448,192,105994,1,0,0:0:0:0:
320,192,106094,1,4,3:0:0:0:
64,192,106194,128,4,106994:3:0:0:0:
192,192,106194,1,0,1:0:0:0:
448,192,106194,1,0,0:0:0:0:
448,192,106494,1,0,0:0:0:0:
320,192,106794,1,0,0:0:0:0:
192,192,106994,1,0,0:0:0:0:
448,192,106994,1,0,1:0:0:0:
320,192,107394,1,0,0:0:0:0:
448,192,107394,1,0,1:0:0:0:
64,192,107794,1,0,0:0:0:0:
448,192,107794,1,0,1:0:0:0:
192,192,108094,1,8,3:0:0:0:
192,192,108394,1,8,3:0:0:0:
64,192,108594,1,0,0:0:0:0:
448,192,108594,1,0,1:0:0:0:
192,192,108794,1,4,3:0:0:0:
320,192,108894,1,4,3:0:0:0:
192,192,108994,1,0,0:0:0:0:
448,192,108994,1,0,1:0:0:0:
64,192,109194,1,0,0:0:0:0:
192,192,109294,1,0,0:0:0:0:
320,192,109394,1,8,3:0:0:0:
448,192,109394,1,0,1:0:0:0:
64,192,109694,1,8,3:0:0:0:
320,192,109694,1,0,1:0:0:0:
192,192,109994,1,8,3:0:0:0:
448,192,109994,1,0,1:0:0:0:
192,192,110194,1,8,3:0:0:0:
320,192,110194,1,0,1:0:0:0:
448,192,110194,1,0,0:0:0:0:
192,192,110494,1,8,3:0:0:0:
320,192,110494,1,0,1:0:0:0:
192,192,110794,1,8,3:0:0:0:
320,192,110794,1,0,1:0:0:0:
64,192,110994,1,8,3:0:0:0:
448,192,110994,1,0,1:0:0:0:
192,192,111094,1,0,0:0:0:0:
64,192,111194,1,0,1:0:0:0:
448,192,111194,1,0,0:0:0:0:
320,192,111294,1,0,0:0:0:0:
64,192,111394,1,0,0:0:0:0:
320,192,111494,1,0,0:0:0:0:
448,192,111594,1,0,1:0:0:0:
192,192,111594,1,0,0:0:0:0:
320,192,111694,1,0,0:0:0:0:
64,192,111794,1,0,0:0:0:0:
192,192,111894,1,0,0:0:0:0:
320,192,111994,1,0,1:0:0:0:
448,192,111994,1,0,0:0:0:0:
192,192,112094,1,0,0:0:0:0:
64,192,112194,1,4,3:0:0:0:
192,192,112294,1,4,3:0:0:0:
320,192,112394,1,4,3:0:0:0:
192,192,112494,1,4,3:0:0:0:
64,192,112594,1,0,1:0:0:0:
448,192,112594,1,0,0:0:0:0:
320,192,112894,1,0,0:0:0:0:
192,192,113194,1,4,3:0:0:0:
64,192,113394,1,0,0:0:0:0:
320,192,113394,1,0,0:0:0:0:
448,192,113394,1,0,0:0:0:0:
192,192,113794,128,0,114194:0:0:0:0:
64,192,114194,128,0,114494:1:0:0:0:
320,192,114194,128,0,114494:0:0:0:0:
192,192,114494,128,0,114794:1:0:0:0:
448,192,114494,128,0,114794:0:0:0:0:
64,192,114794,128,0,115194:1:0:0:0:
320,192,114794,128,0,115194:0:0:0:0:
192,192,115194,1,0,1:0:0:0:
448,192,115394,1,4,3:0:0:0:
320,192,115494,1,4,3:0:0:0:
192,192,115594,1,4,3:0:0:0:
320,192,115694,1,4,3:0:0:0:
64,192,115794,1,0,0:0:0:0:
192,192,115794,1,0,1:0:0:0:
448,192,115794,1,0,0:0:0:0:
320,192,115994,1,4,3:0:0:0:
192,192,116094,1,4,3:0:0:0:
64,192,116194,1,0,1:0:0:0:
320,192,116194,1,0,0:0:0:0:
192,192,116394,1,4,3:0:0:0:
64,192,116594,1,0,1:0:0:0:
448,192,116594,1,0,0:0:0:0:
320,192,116794,1,4,3:0:0:0:
192,192,116894,1,4,3:0:0:0:
64,192,116994,1,0,0:0:0:0:
320,192,116994,1,0,1:0:0:0:
192,192,117194,1,4,3:0:0:0:
64,192,117394,128,0,117694:1:0:0:0:
448,192,117394,128,0,117694:0:0:0:0:
192,192,117694,128,0,117994:1:0:0:0:
320,192,117694,128,0,117994:0:0:0:0:
64,192,117994,128,0,118394:1:0:0:0:
448,192,117994,128,0,118394:0:0:0:0:
320,192,118394,1,4,3:0:0:0:
192,192,118594,1,4,3:0:0:0:
320,192,118694,1,4,3:0:0:0:
448,192,118794,1,4,3:0:0:0:
320,192,118894,1,4,3:0:0:0:
64,192,118994,1,0,0:0:0:0:
192,192,118994,1,0,1:0:0:0:
448,192,118994,1,0,0:0:0:0:
320,192,119194,1,4,3:0:0:0:
192,192,119294,1,4,3:0:0:0:
64,192,119394,1,0,0:0:0:0:
320,192,119394,1,0,1:0:0:0:
192,192,119594,1,4,3:0:0:0:
320,192,119694,1,4,3:0:0:0:
64,192,119794,1,4,3:0:0:0:
448,192,119794,1,0,1:0:0:0:
320,192,119894,1,4,3:0:0:0:
192,192,119994,1,4,3:0:0:0:
448,192,120094,1,4,3:0:0:0:
192,192,120194,1,0,1:0:0:0:
320,192,120194,1,0,0:0:0:0:
64,192,120594,1,0,0:0:0:0:
192,192,120594,1,0,1:0:0:0:
448,192,120594,1,0,0:0:0:0:
320,192,120694,1,0,0:0:0:0:
64,192,120794,1,0,1:0:0:0:
448,192,120794,1,0,0:0:0:0:
192,192,120894,1,0,0:0:0:0:
448,192,120994,1,0,0:0:0:0:
320,192,121094,1,0,0:0:0:0:
64,192,121194,1,0,1:0:0:0:
192,192,121194,1,0,0:0:0:0:
320,192,121294,1,0,0:0:0:0:
192,192,121394,1,0,0:0:0:0:
448,192,121494,1,0,0:0:0:0:
64,192,121594,1,0,1:0:0:0:
320,192,121594,1,0,0:0:0:0:
192,192,121694,1,0,0:0:0:0:
320,192,121794,1,0,0:0:0:0:
64,192,121894,1,0,0:0:0:0:
192,192,121994,1,0,1:0:0:0:
320,192,121994,1,0,0:0:0:0:
448,192,122094,1,0,0:0:0:0:
64,192,122194,1,0,0:0:0:0:
320,192,122294,1,0,0:0:0:0:
192,192,122394,1,0,1:0:0:0:
448,192,122394,1,0,0:0:0:0:
64,192,122494,1,0,0:0:0:0:
448,192,122594,1,0,0:0:0:0:
192,192,122694,1,0,0:0:0:0:
320,192,122794,1,0,1:0:0:0:
448,192,122794,1,0,0:0:0:0:
64,192,122894,1,0,0:0:0:0:
191,192,122994,1,0,0:0:0:0:
320,192,123094,1,0,0:0:0:0:
192,192,123194,1,0,1:0:0:0:
448,192,123194,1,0,0:0:0:0:
64,192,123294,1,0,0:0:0:0:
192,192,123394,1,0,0:0:0:0:
448,192,123494,1,0,0:0:0:0:
64,192,123594,1,0,1:0:0:0:
320,192,123594,1,0,0:0:0:0:
192,192,123694,1,0,0:0:0:0:
320,192,123794,1,0,0:0:0:0:
448,192,123794,1,0,0:0:0:0:
64,192,123894,1,0,0:0:0:0:
192,192,123994,1,0,1:0:0:0:
448,192,123994,1,0,0:0:0:0:
320,192,124094,1,0,0:0:0:0:
192,192,124194,1,0,0:0:0:0:
448,192,124294,1,0,0:0:0:0:
192,192,124394,1,0,1:0:0:0:
320,192,124394,1,0,0:0:0:0:
64,192,124494,1,0,0:0:0:0:
448,192,124594,1,0,0:0:0:0:
192,192,124694,1,0,0:0:0:0:
320,192,124794,1,0,1:0:0:0:
448,192,124794,1,0,0:0:0:0:
64,192,124894,1,0,0:0:0:0:
192,192,124994,1,0,0:0:0:0:
448,192,125094,1,0,0:0:0:0:
192,192,125194,1,0,1:0:0:0:
320,192,125194,1,0,0:0:0:0:
64,192,125294,1,0,0:0:0:0:
192,192,125394,1,0,1:0:0:0:
448,192,125394,1,0,0:0:0:0:
320,192,125494,1,0,0:0:0:0:
448,192,125594,1,4,3:0:0:0:
64,192,125694,1,4,3:0:0:0:
192,192,125794,1,4,3:0:0:0:
320,192,125894,1,4,3:0:0:0:
448,192,125994,1,4,3:0:0:0:
320,192,126094,1,4,3:0:0:0:
64,192,126194,1,4,3:0:0:0:
192,192,126294,1,4,3:0:0:0:
320,192,126394,1,4,3:0:0:0:
448,192,126494,1,4,3:0:0:0:
320,192,126594,1,0,1:0:0:0:
64,192,126594,1,0,3:0:0:0:
192,192,126694,1,4,3:0:0:0:
64,192,126794,1,4,3:0:0:0:
192,192,126894,1,4,3:0:0:0:
320,192,126994,1,0,1:0:0:0:
448,192,126994,1,0,0:0:0:0:
192,192,127094,1,12,3:0:0:0:
320,192,127194,1,12,3:0:0:0:
448,192,127194,1,0,1:0:0:0:
192,192,127294,1,12,3:0:0:0:
320,192,127394,1,12,3:0:0:0:
448,192,127394,1,0,1:0:0:0:
64,192,127494,1,12,3:0:0:0:
192,192,127594,1,12,3:0:0:0:
320,192,127694,1,12,3:0:0:0:
448,192,127794,1,12,3:0:0:0:
320,192,127894,1,12,3:0:0:0:
192,192,127994,1,12,3:0:0:0:
64,192,128094,1,12,3:0:0:0:
192,192,128194,1,0,0:0:0:0:
320,192,128194,1,0,1:0:0:0:
448,192,128194,1,0,1:0:0:0:
64,192,128394,128,0,131794:1:0:0:0:
192,192,128394,128,0,131894:1:0:0:0:
320,192,128394,128,0,131994:1:0:0:0:
448,192,128394,128,0,132094:0:0:0:0:
