osu file format v14

[General]
AudioFilename: audio.mp3
AudioLeadIn: 0
PreviewTime: 264258
Countdown: 0
SampleSet: Soft
StackLeniency: 0.8
Mode: 0
LetterboxInBreaks: 0
WidescreenStoryboard: 1

[Editor]
Bookmarks: 1689,35107,35283,35459,35636,35812,35988,36165,36341,36517,36693,36870,37046,37222,37398,37575,37751,37927,38103,38280,38456,38632,38808,38958,53358,66158,83758,114158,126958,157358,187758,200558,219758,259758,259858,259958,260058,260158,260258,260358,260458,260558,260658,260758,260858,260958,261058,261158,261258,261358,261458,261558,261658,261758,261858,261958,262058,262158,262258,262358,262458,262558,262658,262758,262858,262958,263058,263158,263258,263358,263458,263558,263658,263758,263858,263958,264058,264158,264258,264358,264458,264558,294958,315558
DistanceSpacing: 0.5
BeatDivisor: 4
GridSize: 8
TimelineZoom: 2.2

[Metadata]
Title:FIRE BIRD
TitleUnicode:FIRE BIRD
Artist:Roselia
ArtistUnicode:Roselia
Creator:Kowari
Version:INSANE
Source:BanG Dream! 2nd Season
Tags:Toshino Kyouko Atalanta Talulah Shizuku- Kazato Asa Shikibe Mayu Corinn Akitoshi -Laura- バンドリ! ガールズバンドパーティ! Bandori! Girls Band Party! ガルパ Garupa insert original song 9th single Ringing Bloom album Bandori project Girl Party Garupa! ロゼリア Rozeria 湊友希那 Minato Yukina 氷川紗夜 Hikawa Sayo 今井リサ Imai Lisa 宇田川あこ Udagawa Ako 白金燐子 Shirokane Rinko 相羽あいな Aiba Aina Aiai 工藤晴香 Kudō Haruka Kudo Kudou Kudoharu Kdhr 遠藤ゆりか Endō Yurika Endo Endou Yurishii 桜川めぐ Sakuragawa Megu Meguchii 明坂聡美 Akesaka Satomi Akeko 中島由貴 Nakashima Yuki Shimayuki 志崎樺音 Shizaki Kanon Nonchan Non-chan Anime Video Game Japanese Rock JRock J-Rock Videogame
BeatmapID:3583514
BeatmapSetID:1451503

[Difficulty]
HPDrainRate:6
CircleSize:4
OverallDifficulty:8
ApproachRate:8.3
SliderMultiplier:1.8
SliderTickRate:1

[Events]
//Background and Video events
0,0,"FIREBIRD.jpg",0,0
//Break Periods
2,127158,135854
2,219958,231854
2,259958,263654
//Storyboard Layer 0 (Background)
//Storyboard Layer 1 (Fail)
//Storyboard Layer 2 (Pass)
//Storyboard Layer 3 (Foreground)
//Storyboard Layer 4 (Overlay)
//Storyboard Sound Samples

[TimingPoints]
-1311,750,4,2,1,50,1,0
1689,-100,4,2,1,50,0,0
23439,779.220779220779,4,2,1,50,1,0
23439,-100,4,2,1,50,0,0
24218,810.810810810811,4,2,1,50,1,0
24218,-100,4,2,1,50,0,0
25028,821.917808219178,4,2,1,50,1,0
25028,-100,4,2,1,50,0,0
25438,761.421319796954,4,2,1,50,1,0
25438,-100,4,2,1,50,0,0
25628,952.380952380952,4,2,1,50,1,0
25628,-100,4,2,1,50,0,0
25866,857.142857142857,4,2,1,50,1,0
25866,-100,4,2,1,50,0,0
26723,869.565217391304,4,2,1,50,1,0
26723,-100,4,2,1,50,0,0
27592,933.125972006221,4,2,1,50,1,0
27592,-100,4,2,1,50,0,0
28991,952.380952380952,4,2,1,50,1,0
28991,-100,4,2,1,50,0,0
29467,1410.10575793184,4,2,1,50,1,0
29467,-100,4,2,1,50,0,0
38958,400,4,2,1,50,1,0
38958,-100,4,2,1,50,0,0
40358,-100,4,2,1,70,0,0
46558,-100,4,2,1,70,0,0
46958,-100,4,2,1,80,0,0
53358,-100,4,2,1,65,0,0
62158,-100,4,2,1,70,0,0
63758,-100,4,2,1,70,0,0
66158,-100,4,2,1,60,0,0
75758,-100,4,2,1,70,0,0
77358,-100,4,2,1,50,0,0
78158,-100,4,2,1,60,0,0
78958,-100,4,2,1,70,0,0
79758,-100,4,2,1,80,0,0
80558,-100,4,2,1,50,0,0
80958,-100,4,2,1,60,0,0
81358,-100,4,2,1,70,0,0
81758,-100,4,2,1,80,0,0
82158,-100,4,2,1,60,0,0
82558,-100,4,2,1,70,0,0
82958,-100,4,2,1,80,0,0
82983,-100,4,2,1,50,0,0
83458,-100,4,2,1,80,0,0
83758,-83.3333333333333,4,2,1,80,0,1
93358,-66.6666666666667,4,2,1,80,0,1
95158,-83.3333333333333,4,2,1,80,0,1
106158,-100,4,2,1,80,0,1
109358,-83.3333333333333,4,2,1,80,0,1
110958,-100,4,2,1,80,0,1
112558,-100,4,2,1,80,0,1
113358,-100,4,2,1,70,0,0
114758,-100,4,2,1,70,0,0
115758,-100,4,2,1,70,0,0
116158,-100,4,2,1,70,0,0
116558,-100,4,2,1,70,0,0
116958,-100,4,2,1,70,0,0
117358,-100,4,2,1,70,0,0
117958,-100,4,2,1,70,0,0
118958,-100,4,2,1,70,0,0
119358,-100,4,2,1,70,0,0
119758,-100,4,2,1,70,0,0
120158,-100,4,2,1,70,0,0
120558,-100,4,2,1,80,0,0
126958,-100,4,2,1,50,0,0
128558,-100,4,2,1,50,0,0
136558,-100,4,2,1,70,0,0
137358,-100,4,2,1,70,0,0
139758,-100,4,2,1,60,0,0
149358,-83.3333333333333,4,2,1,70,0,0
150958,-83.3333333333333,4,2,1,60,0,0
154158,-66.6666666666667,4,2,1,70,0,0
155758,-66.6666666666667,4,2,1,80,0,0
156558,-55.5555555555556,4,2,1,80,0,0
157358,-83.3333333333333,4,2,1,80,0,1
166958,-66.6666666666667,4,2,1,80,0,1
169358,-83.3333333333333,4,2,1,80,0,1
179758,-100,4,2,1,80,0,1
182958,-83.3333333333333,4,2,1,80,0,1
184558,-100,4,2,1,80,0,1
186158,-100,4,2,1,80,0,1
186958,-100,4,2,1,80,0,0
187758,-100,4,2,1,60,0,0
198958,-100,4,2,1,70,0,0
199758,-71.4285714285714,4,2,1,80,0,0
200558,-100,4,2,1,70,0,0
206258,-100,4,2,1,80,0,0
206358,-100,4,2,1,80,0,0
206958,-83.3333333333333,4,2,1,80,0,0
215758,-100,4,2,1,80,0,0
217158,-100,4,2,1,70,0,0
217758,-100,4,2,1,60,0,0
218358,-100,4,2,1,80,0,0
218958,-66.6666666666667,4,2,1,90,0,0
232558,-100,4,2,1,50,0,0
245358,-100,4,2,1,60,0,0
254958,-100,4,2,1,50,0,0
255758,-100,4,2,1,60,0,0
256158,-100,4,2,1,60,0,0
256558,-100,4,2,1,70,0,0
257358,-100,4,2,1,80,0,0
258358,-100,4,2,1,60,0,0
258558,-100,4,2,1,70,0,0
258958,-100,4,2,1,90,0,0
259358,-100,4,2,1,80,0,0
264558,-200,4,2,1,80,0,1
264758,-200,4,2,1,70,0,0
265658,-100,4,2,1,5,0,0
265758,-100,4,2,1,70,0,0
266108,-100,4,2,1,5,0,0
266158,-100,4,2,1,80,0,1
266358,-100,4,2,1,80,0,0
267758,-100,4,2,1,80,0,1
267958,-100,4,2,1,80,0,0
268458,-100,4,2,1,5,0,0
268558,-100,4,2,1,80,0,1
268758,-100,4,2,1,80,0,0
269358,-100,4,2,1,80,0,1
269558,-100,4,2,1,80,0,0
270058,-100,4,2,1,5,0,0
270158,-100,4,2,1,80,0,1
270358,-100,4,2,1,80,0,0
270508,-100,4,2,1,5,0,0
270558,-100,4,2,1,80,0,0
270858,-100,4,2,1,5,0,0
270958,-100,4,2,1,60,0,1
271158,-100,4,2,1,80,0,0
274158,-66.6666666666667,4,2,1,80,0,1
275758,-83.3333333333333,4,2,1,80,0,0
276958,-100,4,2,1,80,0,0
277308,-100,4,2,1,5,0,0
277358,-83.3333333333333,4,2,1,80,0,1
286958,-100,4,2,1,80,0,1
290158,-83.3333333333333,4,2,1,80,0,1
291758,-100,4,2,1,80,0,1
293358,-100,4,2,1,80,0,1
294158,-100,4,2,1,80,0,0
294958,-100,4,2,1,70,0,0
300558,-71.4285714285714,4,2,1,70,0,0
300958,-100,4,2,1,60,0,0
301358,-100,4,2,1,80,0,0
307758,-83.3333333333333,4,2,1,80,0,0
312558,-62.5,4,2,1,80,0,0
314558,-52.6315789473684,4,2,1,80,0,0

[Colours]
Combo1 : 255,255,119
Combo2 : 128,128,128
Combo3 : 192,192,192
Combo4 : 255,128,192
Combo5 : 148,40,255
Combo6 : 255,128,0
Combo7 : 255,0,0
Combo8 : 170,85,0

[HitObjects]
87,128,38958,21,2,3:2:0:0:
87,128,39358,1,2,3:2:0:0:
120,211,39758,101,2,3:2:0:0:
120,211,39958,1,2,3:2:0:0:
120,211,40158,1,2,3:2:0:0:
154,297,40358,5,0,1:0:0:0:
154,297,40458,1,0,1:0:0:0:
154,297,40558,22,0,P|208:288|260:290,1,90,14|0,0:0|0:0,0:0:0:0:
293,355,40858,2,0,P|341:355|383:363,1,90,14|0,0:0|0:0,0:0:0:0:
382,362,41158,2,0,P|409:285|380:182,1,180,14|8,1:2|0:3,0:0:0:0:
287,57,41758,21,8,0:0:0:0:
287,57,41858,1,8,0:0:0:0:
287,57,41958,1,8,0:3:0:0:
287,57,42058,1,4,0:3:0:0:
287,57,42158,2,0,P|361:50|389:43,1,90,12|0,1:2|1:0,0:0:0:0:
155,187,42558,2,0,P|112:189|62:198,1,90,12|0,1:2|1:0,0:0:0:0:
282,333,42958,85,12,1:2:0:0:
310,192,43158,1,0,1:0:0:0:
310,192,43258,1,0,1:0:0:0:
310,192,43358,1,12,0:0:0:0:
169,235,43558,1,8,1:3:0:0:
332,301,43758,22,0,L|427:306,1,90,14|0,0:2|0:0,0:0:0:0:
325,208,44058,2,0,L|230:203,1,90,14|0,0:2|0:0,0:0:0:0:
333,112,44358,2,0,P|430:114|530:125,1,180,14|8,1:2|0:0,0:0:0:0:
339,328,44958,85,8,0:0:0:0:
339,328,45058,1,8,0:0:0:0:
339,328,45158,1,8,0:3:0:0:
339,328,45258,1,4,0:3:0:0:
339,328,45358,2,0,P|289:322|237:309,1,90,12|0,1:2|1:0,0:0:0:0:
65,176,45758,2,0,P|108:166|153:161,1,90,12|0,1:2|1:0,0:0:0:0:
286,155,46158,1,8,0:0:0:0:
309,116,46258,1,8,0:0:0:0:
313,72,46358,1,8,0:3:0:0:
297,30,46458,1,4,0:3:0:0:
264,0,46558,1,10,1:2:0:0:
27,123,46958,101,4,1:2:0:0:
182,195,47158,1,10,0:0:0:0:
96,296,47358,2,0,P|32:289|-6:284,1,90,2|8,1:0|0:0,0:0:0:0:
91,198,47758,5,2,1:0:0:0:
157,368,47958,1,8,0:0:0:0:
157,368,48058,1,2,1:0:0:0:
256,244,48258,1,0,1:0:0:0:
256,244,48358,1,10,0:0:0:0:
324,307,48558,102,0,P|399:311|440:317,1,90,0|10,1:0|0:0,0:0:0:0:
494,204,48958,1,2,1:0:0:0:
494,204,49058,1,0,1:0:0:0:
494,204,49158,1,8,0:0:0:0:
349,148,49358,2,0,P|340:77|332:42,1,90,2|8,1:0|0:0,0:0:0:0:
413,3,49658,2,0,P|422:74|430:109,1,90,2|0,1:0|1:0,0:0:0:0:
425,91,49958,1,10,0:0:0:0:
252,114,50158,6,0,P|187:104|144:92,1,90,0|8,1:0|0:0,0:0:0:0:
36,17,50558,1,2,1:0:0:0:
13,55,50658,1,0,1:0:0:0:
14,99,50758,1,8,0:0:0:0:
38,136,50858,1,0,1:0:0:0:
78,155,50958,1,2,1:0:0:0:
197,189,51158,101,8,0:0:0:0:
197,189,51258,2,0,P|191:228|190:240,1,45,2|0,1:0|0:0,0:0:0:0:
99,318,51458,1,0,1:0:0:0:
99,318,51558,2,0,P|105:279|106:267,1,45,10|0,0:0|0:0,0:0:0:0:
249,287,51758,5,0,1:0:0:0:
44,213,51958,1,10,0:0:0:0:
190,152,52158,1,2,1:0:0:0:
190,152,52258,1,0,1:0:0:0:
190,152,52358,1,12,0:0:0:0:
121,344,52558,1,6,0:3:0:0:
249,287,52758,1,8,0:0:0:0:
275,273,52858,1,10,0:0:0:0:
304,266,52958,1,8,0:0:0:0:
334,264,53058,1,8,0:0:0:0:
364,269,53158,1,10,0:3:0:0:
392,279,53258,1,6,0:3:0:0:
418,295,53358,102,0,P|470:292|514:284,1,90,6|8,1:2|0:0,0:0:0:0:
363,162,53758,2,0,P|318:164|273:171,1,90,2|10,1:0|0:0,0:0:0:0:
273,171,54058,1,2,0:0:0:0:
273,171,54158,1,2,0:0:0:0:
321,34,54358,1,8,0:0:0:0:
464,122,54558,1,0,1:0:0:0:
477,164,54658,1,0,1:0:0:0:
468,207,54758,1,10,0:0:0:0:
439,241,54858,1,0,1:0:0:0:
397,256,54958,70,0,B|309:265|317:226|208:245,1,180,2|0,1:0|1:0,0:0:0:0:
112,329,55558,1,10,0:0:0:0:
112,329,55658,1,2,0:0:0:0:
112,329,55758,1,2,1:0:0:0:
11,215,55958,1,8,0:0:0:0:
19,171,56058,1,0,1:0:0:0:
49,138,56158,1,0,1:0:0:0:
91,125,56258,1,0,1:0:0:0:
134,135,56358,1,10,0:0:0:0:
68,12,56558,38,0,P|166:31|264:34,1,180,2|0,1:0|1:0,0:0:0:0:
385,11,57158,1,10,0:0:0:0:
385,11,57258,1,2,0:0:0:0:
385,11,57358,1,2,1:0:0:0:
351,144,57558,1,10,0:0:0:0:
257,61,57758,69,2,1:0:0:0:
257,61,57858,2,0,P|262:101|258:133,1,45,0|10,1:0|0:0,0:0:0:0:
397,221,58058,1,2,0:0:0:0:
397,221,58158,2,0,P|396:159|403:120,1,90,0|8,1:0|0:0,0:0:0:0:
400,131,58458,1,0,1:0:0:0:
441,128,58558,1,0,1:0:0:0:
479,149,58658,1,0,1:0:0:0:
503,187,58758,1,8,0:0:0:0:
501,230,58858,1,0,1:0:0:0:
492,283,58958,2,0,P|416:266|342:261,1,135,2|2,1:2|0:0,0:0:0:0:
359,261,59358,1,0,1:0:0:0:
359,261,59458,1,8,0:2:0:0:
359,261,59558,1,10,0:3:0:0:
359,261,59658,1,6,0:3:0:0:
359,261,59758,38,0,P|347:316|353:361,1,90,6|8,1:2|0:0,0:0:0:0:
220,212,60158,2,0,P|231:156|225:111,1,90,2|10,1:0|0:0,0:0:0:0:
228,123,60458,2,0,P|167:110|86:154,1,135,2|8,0:0|0:0,0:0:0:0:
48,250,60958,1,0,1:0:0:0:
48,250,61058,1,0,1:0:0:0:
48,250,61158,1,10,0:0:0:0:
171,339,61358,69,2,1:0:0:0:
259,243,61558,2,0,B|345:228|354:257|451:237,1,180,8|10,0:0|0:0,0:0:0:0:
494,141,62158,1,10,1:2:0:0:
496,96,62258,1,8,0:0:0:0:
478,56,62358,1,8,0:0:0:0:
442,29,62458,1,8,0:0:0:0:
398,22,62558,1,8,1:2:0:0:
398,22,62658,1,8,0:0:0:0:
398,22,62758,2,0,L|330:30,1,45,8|8,0:0|0:0,0:0:0:0:
245,39,62958,37,4,1:2:0:0:
129,327,63558,2,0,L|173:332,1,45,2|2,3:3|0:0,0:0:0:0:
284,350,63758,38,0,P|293:298|297:257,1,90,8|0,1:2|0:0,0:0:0:0:
214,210,64058,2,0,P|205:262|201:303,1,90,8|0,1:2|0:0,0:0:0:0:
385,292,64358,2,0,P|381:253|379:236,1,45,8|0,1:2|0:0,0:0:0:0:
357,155,64558,5,12,0:0:0:0:
121,235,64758,1,0,1:0:0:0:
121,235,64858,1,12,0:0:0:0:
210,95,65058,101,0,1:0:0:0:
210,95,65158,1,12,0:0:0:0:
275,297,65358,1,4,1:1:0:0:
344,153,65558,1,8,0:0:0:0:
385,135,65658,1,8,0:0:0:0:
429,130,65758,1,8,1:3:0:0:
473,138,65858,1,8,0:3:0:0:
512,160,65958,1,4,1:3:0:0:
512,160,66058,1,4,0:3:0:0:
512,160,66158,86,0,P|508:213|511:254,1,90,6|0,1:1|0:0,0:0:0:0:
366,368,66558,2,0,P|369:323|367:278,1,90,2|0,0:0|1:0,0:0:0:0:
367,278,66858,1,0,1:0:0:0:
367,278,66958,2,0,P|296:270|268:264,1,90,10|0,0:0|0:0,0:0:0:0:
167,191,67358,1,2,1:0:0:0:
164,339,67558,1,0,0:0:0:0:
42,264,67758,69,2,1:0:0:0:
170,207,68058,1,0,1:0:0:0:
173,357,68358,1,2,1:0:0:0:
173,357,68458,1,2,1:0:0:0:
173,357,68558,37,8,0:0:0:0:
26,260,68758,1,0,1:0:0:0:
167,191,68958,1,8,0:3:0:0:
83,106,69158,69,2,1:0:0:0:
83,106,69258,1,2,1:0:0:0:
83,106,69358,2,0,P|79:49|83:6,1,90,6|0,1:2|0:0,0:0:0:0:
237,73,69758,2,0,P|239:117|235:162,1,90,2|0,0:0|1:0,0:0:0:0:
340,75,70158,38,0,L|439:67,1,90,10|0,0:0|0:0,0:0:0:0:
146,128,70558,2,0,L|47:136,1,90,2|0,1:0|0:0,0:0:0:0:
265,285,70958,69,2,1:0:0:0:
297,164,71258,1,2,1:0:0:0:
163,206,71558,1,2,1:0:0:0:
293,309,71758,37,8,0:0:0:0:
321,147,71958,1,0,1:0:0:0:
321,147,72058,1,0,1:0:0:0:
321,147,72158,1,12,0:0:0:0:
140,209,72358,1,2,1:0:0:0:
140,209,72458,1,2,1:0:0:0:
140,209,72558,70,0,P|91:204|50:194,1,90,6|0,1:2|0:0,0:0:0:0:
185,356,72958,2,0,P|234:361|275:371,1,90,2|0,0:0|1:0,0:0:0:0:
273,370,73258,1,0,1:0:0:0:
273,370,73358,2,0,P|302:313|290:192,1,180,14|2,0:0|1:0,0:0:0:0:
217,124,73958,1,0,0:0:0:0:
351,75,74158,38,0,P|410:72|456:72,1,90,2|0,1:0|0:0,0:0:0:0:
495,155,74458,2,0,P|436:158|390:158,1,90,0|0,1:0|0:0,0:0:0:0:
405,158,74758,1,2,1:0:0:0:
292,256,74958,69,8,0:0:0:0:
474,296,75158,1,0,1:0:0:0:
373,377,75358,1,8,0:3:0:0:
373,377,75458,1,8,0:3:0:0:
373,377,75558,1,6,0:3:0:0:
392,191,75758,38,0,P|401:136|414:92,1,90,6|0,1:2|0:0,0:0:0:0:
304,146,76058,2,0,P|295:201|282:245,1,90,6|0,1:2|0:0,0:0:0:0:
476,165,76358,2,0,L|530:157,1,45,6|0,1:2|0:0,0:0:0:0:
212,181,76558,1,14,0:0:0:0:
331,9,76758,70,0,L|338:54,2,30,8|8|4,0:3|0:3|0:3,0:0:0:0:
340,74,76958,1,10,0:0:0:0:
384,270,77358,37,6,1:3:0:0:
384,270,77558,1,4,1:3:0:0:
99,222,77758,1,4,1:3:0:0:
99,222,77958,1,4,1:3:0:0:
265,148,78158,101,8,1:2:0:0:
229,337,78358,1,8,1:2:0:0:
265,148,78558,1,8,1:2:0:0:
229,337,78758,1,8,1:2:0:0:
203,70,78958,53,8,1:2:0:0:
203,70,79158,1,8,0:0:0:0:
309,384,79358,1,8,1:2:0:0:
309,384,79558,1,8,0:0:0:0:
106,250,79758,85,8,1:2:0:0:
376,202,79958,1,8,0:0:0:0:
106,250,80158,1,8,1:2:0:0:
376,202,80358,1,8,0:0:0:0:
238,89,80558,6,0,P|169:80|95:71,1,135,12|8,0:0|0:3,0:0:0:0:
40,0,80958,101,8,0:0:0:0:
22,28,81058,1,8,0:0:0:0:
13,61,81158,1,8,0:0:0:0:
13,94,81258,1,8,0:0:0:0:
22,127,81358,1,8,0:0:0:0:
50,161,81458,1,8,0:0:0:0:
91,181,81558,1,8,0:0:0:0:
135,181,81658,1,8,0:0:0:0:
176,163,81758,1,8,0:0:0:0:
214,140,81858,1,8,0:0:0:0:
258,133,81958,1,8,0:0:0:0:
302,144,82058,1,8,0:0:0:0:
337,171,82158,5,8,1:3:0:0:
326,197,82258,1,4,0:3:0:0:
299,211,82358,1,8,1:3:0:0:
272,209,82458,1,8,1:3:0:0:
250,195,82558,1,8,0:3:0:0:
234,170,82658,1,8,0:3:0:0:
241,128,82758,1,4,0:3:0:0:
281,93,82858,1,4,0:3:0:0:
340,97,82958,38,0,P|359:173|372:286,1,180,8|0,3:2|3:0,0:0:0:0:
467,188,83558,5,0,1:0:0:0:
467,188,83658,1,0,1:0:0:0:
467,188,83758,1,6,1:2:0:0:
278,212,83958,2,0,P|215:209|151:197,1,107.999996704102,8|0,0:0|1:0,0:0:0:0:
170,201,84258,1,0,1:0:0:0:
170,201,84358,1,10,0:0:0:0:
336,20,84558,54,0,P|346:58|360:132,1,107.999996704102,2|8,1:0|0:0,0:0:0:0:
278,212,84858,2,0,P|268:174|254:100,1,107.999996704102,2|0,0:0|1:0,0:0:0:0:
450,99,85158,2,0,P|449:142|441:180,1,53.9999983520508,10|0,0:0|0:0,0:0:0:0:
323,316,85358,101,2,1:0:0:0:
451,245,85558,1,8,0:0:0:0:
451,245,85658,1,2,0:0:0:0:
476,384,85858,1,0,1:0:0:0:
476,384,85958,1,10,0:0:0:0:
342,216,86158,5,2,1:0:0:0:
254,359,86358,1,8,0:0:0:0:
214,363,86458,1,0,1:0:0:0:
176,350,86558,1,0,1:0:0:0:
147,322,86658,1,0,1:0:0:0:
134,284,86758,1,10,0:0:0:0:
12,195,86958,102,0,P|79:189|139:180,1,107.999996704102,2|8,1:0|0:0,0:0:0:0:
260,107,87358,1,2,1:0:0:0:
260,107,87458,1,0,1:0:0:0:
260,107,87558,1,8,0:0:0:0:
80,28,87758,1,2,1:0:0:0:
123,211,87958,1,8,0:0:0:0:
250,0,88158,5,2,1:0:0:0:
250,0,88258,1,0,1:0:0:0:
250,0,88358,1,8,0:0:0:0:
288,209,88558,1,2,1:0:0:0:
359,92,88758,1,8,0:0:0:0:
396,76,88858,1,0,1:0:0:0:
436,71,88958,1,0,1:0:0:0:
475,77,89058,1,0,1:0:0:0:
512,94,89158,1,10,0:0:0:0:
315,216,89358,101,2,1:0:0:0:
511,288,89558,1,8,0:0:0:0:
391,376,89758,1,8,0:3:0:0:
391,376,89858,1,8,0:3:0:0:
391,376,89958,1,4,0:3:0:0:
391,376,90058,1,4,0:3:0:0:
391,376,90158,2,0,P|405:290|424:155,1,215.999993408203,6|0,1:2|1:0,0:0:0:0:
191,111,90758,5,10,0:0:0:0:
191,111,90858,1,0,1:0:0:0:
191,111,90958,1,2,1:0:0:0:
295,287,91158,1,10,0:0:0:0:
328,100,91358,1,2,1:0:0:0:
170,229,91558,1,10,0:0:0:0:
397,210,91758,2,0,P|450:218|509:237,1,107.999996704102,2|8,1:0|0:0,0:0:0:0:
323,84,92158,101,0,1:0:0:0:
323,84,92258,1,0,1:0:0:0:
323,84,92358,2,0,L|315:162,1,53.9999983520508,10|2,0:0|0:0,0:0:0:0:
297,312,92558,1,2,1:0:0:0:
177,96,92758,1,10,0:0:0:0:
400,226,92958,1,2,1:0:0:0:
145,249,93158,1,10,0:0:0:0:
145,249,93258,1,8,0:0:0:0:
145,249,93358,6,0,P|76:255|4:268,1,135.000005149842,4|0,1:2|0:0,0:0:0:0:
171,159,93658,2,0,P|238:153|304:141,1,135.000005149842,4|0,1:2|0:0,0:0:0:0:
111,86,93958,2,0,P|65:89|24:96,1,67.5000025749208,4|0,1:2|0:0,0:0:0:0:
224,285,94158,102,0,P|242:206|238:144,1,135.000005149842,12|0,1:2|0:0,0:0:0:0:
145,31,94458,2,0,P|127:110|131:172,1,135.000005149842,12|0,1:2|0:0,0:0:0:0:
341,174,94758,2,0,P|334:129|324:81,1,67.5000025749208,12|0,0:0|0:0,0:0:0:0:
36,181,94958,5,4,1:2:0:0:
117,287,95158,1,8,0:0:0:0:
156,290,95258,1,8,0:0:0:0:
193,274,95358,1,8,0:0:0:0:
219,243,95458,1,8,0:0:0:0:
227,204,95558,1,8,0:3:0:0:
150,62,95758,102,0,P|147:98|142:126,1,53.9999983520508,10|8,0:0|0:0,0:0:0:0:
354,218,95958,1,8,0:3:0:0:
354,218,96058,2,0,P|359:164|363:137,1,53.9999983520508,6|8,0:3|0:0,0:0:0:0:
270,18,96258,5,8,0:0:0:0:
263,71,96358,1,10,0:0:0:0:
257,125,96458,1,8,0:0:0:0:
251,178,96558,1,6,1:2:0:0:
230,359,96758,1,8,0:0:0:0:
123,251,96958,1,0,1:0:0:0:
358,290,97158,101,10,0:0:0:0:
358,290,97258,1,2,0:0:0:0:
358,290,97358,2,0,P|427:300|485:303,1,107.999996704102,2|8,1:0|0:0,0:0:0:0:
353,191,97658,2,0,B|292:181|241:178,1,107.999996704102,2|0,0:0|1:0,0:0:0:0:
259,323,97958,2,0,P|270:273|273:254,1,53.9999983520508,10|0,0:0|0:0,0:0:0:0:
277,87,98158,5,2,1:0:0:0:
174,251,98358,1,8,0:0:0:0:
174,251,98458,1,2,0:0:0:0:
81,73,98658,1,0,1:0:0:0:
81,73,98758,1,10,0:0:0:0:
283,188,98958,101,2,1:0:0:0:
66,185,99158,1,8,0:0:0:0:
47,220,99258,1,0,1:0:0:0:
42,260,99358,1,0,1:0:0:0:
50,300,99458,1,0,1:0:0:0:
72,334,99558,1,10,0:0:0:0:
199,258,99758,6,0,P|265:260|315:271,1,107.999996704102,2|8,1:0|0:0,0:0:0:0:
431,384,100158,1,2,1:0:0:0:
431,384,100258,1,0,1:0:0:0:
431,384,100358,1,8,0:0:0:0:
395,193,100558,1,2,1:0:0:0:
313,313,100758,1,8,0:0:0:0:
512,287,100958,1,2,1:0:0:0:
512,287,101058,1,0,1:0:0:0:
512,287,101158,1,8,0:0:0:0:
272,184,101358,101,2,1:0:0:0:
503,132,101558,1,8,0:0:0:0:
503,132,101658,1,0,1:0:0:0:
503,132,101758,1,0,1:0:0:0:
415,292,101958,1,10,0:0:0:0:
347,35,102158,1,2,1:0:0:0:
263,207,102358,5,8,0:0:0:0:
233,227,102458,1,8,0:0:0:0:
200,240,102558,1,8,1:3:0:0:
164,243,102658,1,0,1:0:0:0:
129,236,102758,1,8,0:0:0:0:
96,221,102858,1,8,0:0:0:0:
69,197,102958,102,0,P|70:128|64:79,1,107.999996704102,6|8,1:2|0:0,0:0:0:0:
65,89,103258,2,0,P|18:83|-8:73,1,53.9999983520508,2|0,1:2|0:0,0:0:0:0:
171,156,103458,1,0,1:0:0:0:
171,156,103558,2,0,P|207:159|250:170,1,53.9999983520508,10|0,0:0|0:0,0:0:0:0:
147,313,103758,2,0,P|79:335|-14:280,1,161.999995056153,2|0,1:0|0:0,0:0:0:0:
0,299,104158,1,2,1:0:0:0:
154,47,104358,5,10,0:0:0:0:
154,47,104458,1,0,1:0:0:0:
154,47,104558,2,0,P|165:103|168:165,1,107.999996704102,2|8,1:0|0:0,0:0:0:0:
279,200,104858,2,0,P|268:147|264:93,1,107.999996704102,2|0,0:0|1:0,0:0:0:0:
80,111,105158,2,0,P|79:144|73:185,1,53.9999983520508,10|0,0:0|0:0,0:0:0:0:
258,295,105358,1,10,0:0:0:0:
298,298,105458,1,8,0:0:0:0:
336,286,105558,1,8,1:3:0:0:
366,259,105658,1,8,1:3:0:0:
382,222,105758,1,8,0:3:0:0:
382,222,105858,1,8,0:3:0:0:
382,222,105958,1,6,0:3:0:0:
382,222,106058,1,4,0:3:0:0:
382,222,106158,38,0,P|396:297|410:361,2,135,6|2|2,1:2|0:0|1:2,0:0:0:0:
371,87,106958,1,14,0:0:0:0:
141,297,107358,69,2,1:0:0:0:
129,161,107758,2,0,P|116:87|102:23,2,135,6|0|0,1:2|1:0|1:0,0:0:0:0:
391,191,108558,37,8,0:0:0:0:
134,188,108758,2,0,L|104:185,2,30,0|0|0,1:0|1:0|1:0,0:0:0:0:
66,184,108958,1,8,0:0:0:0:
299,120,109158,69,2,1:0:0:0:
299,120,109258,1,2,1:0:0:0:
299,120,109358,2,0,P|296:182|300:243,1,107.999996704102,4|0,1:2|0:0,0:0:0:0:
208,280,109658,2,0,P|211:218|207:157,1,107.999996704102,4|0,1:2|0:0,0:0:0:0:
208,172,109958,1,0,1:2:0:0:
370,347,110158,37,14,1:2:0:0:
111,215,110458,1,12,1:2:0:0:
382,84,110758,1,12,1:2:0:0:
434,175,110958,69,6,1:2:0:0:
284,94,111158,1,8,0:0:0:0:
431,7,111358,1,0,1:0:0:0:
431,7,111458,1,0,1:0:0:0:
431,7,111558,2,0,L|438:69,1,45,8|0,0:0|0:0,0:0:0:0:
504,157,111758,2,0,P|445:157|406:169,1,90,0|8,1:0|0:0,0:0:0:0:
346,326,112158,101,8,0:2:0:0:
346,326,112258,1,8,0:0:0:0:
346,326,112358,1,8,0:3:0:0:
346,326,112458,1,4,0:3:0:0:
346,326,112558,2,0,P|299:260|346:89,1,270,4|8,1:2|1:3,0:0:0:0:
339,81,113224,2,0,L|379:89,2,30,8|4|8,0:3|0:3|1:2,0:0:0:0:
110,17,113958,101,4,1:3:0:0:
110,17,114058,1,4,1:3:0:0:
110,17,114158,2,0,P|56:26|4:24,1,90,14|0,0:2|0:0,0:0:0:0:
153,117,114458,2,0,P|105:117|63:125,1,90,14|0,0:0|0:0,0:0:0:0:
223,29,114758,2,0,P|196:106|225:209,1,180,14|10,1:2|0:3,0:0:0:0:
56,342,115358,21,8,0:0:0:0:
56,342,115458,1,8,0:0:0:0:
56,342,115558,1,0,1:0:0:0:
56,342,115658,1,0,1:0:0:0:
56,342,115758,2,0,P|49:268|42:240,1,90,12|0,1:2|1:0,0:0:0:0:
280,121,116158,2,0,P|282:164|291:214,1,90,12|0,0:0|1:0,0:0:0:0:
166,384,116558,85,12,0:0:0:0:
222,267,116758,1,0,1:0:0:0:
222,267,116858,1,0,1:0:0:0:
222,267,116958,1,12,0:0:0:0:
91,292,117158,1,0,1:0:0:0:
383,383,117358,22,0,L|388:288,1,90,14|0,0:0|0:0,0:0:0:0:
306,216,117658,2,0,L|301:311,1,90,14|0,0:0|0:0,0:0:0:0:
465,344,117958,2,0,P|463:254|454:164,1,180,14|8,1:2|0:2,0:0:0:0:
483,1,118558,85,8,0:0:0:0:
483,1,118658,1,8,0:0:0:0:
483,1,118758,1,8,0:3:0:0:
483,1,118858,1,4,0:3:0:0:
483,1,118958,2,0,P|434:-2|376:3,1,90,12|0,1:2|1:0,0:0:0:0:
165,119,119358,2,0,P|209:123|253:134,1,90,12|0,0:0|1:3,0:0:0:0:
333,275,119758,22,0,L|338:321,5,30,8|8|8|4|4|4,0:3|0:3|0:3|0:3|0:3|0:3,0:0:0:0:
308,324,120158,2,0,P|244:352|162:343,1,135,4|0,1:2|0:0,0:0:0:0:
99,350,120558,69,4,1:2:0:0:
0,221,120758,1,10,0:0:0:0:
163,202,120958,2,0,P|170:138|175:100,1,90,2|8,1:0|0:0,0:0:0:0:
52,140,121358,5,2,1:0:0:0:
283,185,121558,1,8,0:0:0:0:
283,185,121658,1,2,1:0:0:0:
201,17,121858,1,0,1:0:0:0:
201,17,121958,1,10,0:0:0:0:
384,101,122158,102,0,P|459:97|500:91,1,90,0|10,1:0|0:0,0:0:0:0:
312,210,122558,1,2,1:0:0:0:
312,210,122658,1,0,1:0:0:0:
312,210,122758,1,8,0:0:0:0:
433,345,122958,2,0,P|424:274|416:239,1,90,2|8,1:0|0:0,0:0:0:0:
312,210,123258,2,0,P|321:281|329:316,1,90,2|0,0:0|1:0,0:0:0:0:
324,298,123558,1,10,0:0:0:0:
492,137,123758,6,0,P|427:147|384:159,1,90,4|10,1:2|0:0,0:0:0:0:
245,287,124158,1,2,1:0:0:0:
207,310,124258,1,0,1:0:0:0:
163,309,124358,1,8,0:0:0:0:
126,285,124458,1,0,1:0:0:0:
107,245,124558,1,2,1:0:0:0:
237,88,124758,101,8,0:0:0:0:
273,258,124958,1,0,1:0:0:0:
273,258,125058,1,0,1:0:0:0:
273,258,125158,1,10,0:0:0:0:
374,163,125358,5,6,1:3:0:0:
134,202,125558,2,0,L|85:206,2,30,8|8|8,0:0|0:0|0:0,0:0:0:0:
41,256,125758,2,0,L|5:261,4,36,8|8|8|4|4,0:3|0:3|0:3|0:3|0:3,0:0:0:0:
69,334,126158,101,8,0:3:0:0:
99,320,126258,1,8,0:3:0:0:
132,311,126358,1,8,0:3:0:0:
165,308,126458,1,8,0:3:0:0:
206,330,126558,5,4,0:3:0:0:
205,330,126658,1,4,0:3:0:0:
205,330,126758,1,4,0:3:0:0:
205,330,126858,1,4,0:3:0:0:
205,330,126958,1,2,0:0:0:0:
205,330,136558,85,4,1:3:0:0:
310,53,137158,101,0,1:0:0:0:
310,53,137258,1,0,1:0:0:0:
310,53,137358,1,12,1:2:0:0:
136,165,137558,1,0,1:0:0:0:
136,165,137658,1,12,1:2:0:0:
342,252,137858,1,0,1:0:0:0:
342,252,137958,1,12,1:2:0:0:
225,276,138158,21,4,1:2:0:0:
197,45,138358,1,8,0:3:0:0:
197,45,138458,1,4,1:2:0:0:
225,276,138658,1,4,0:3:0:0:
225,276,138758,1,8,0:0:0:0:
350,149,138958,69,8,0:0:0:0:
380,135,139058,1,8,0:0:0:0:
413,129,139158,1,8,0:0:0:0:
447,132,139258,1,8,0:0:0:0:
478,144,139358,1,8,0:3:0:0:
448,158,139458,1,8,0:3:0:0:
415,164,139558,1,4,0:3:0:0:
381,161,139658,1,4,0:3:0:0:
350,149,139758,6,0,P|284:131|200:151,1,135,4|0,1:2|0:0,0:0:0:0:
159,204,140158,2,0,P|92:214|28:196,1,135,0|0,1:0|0:0,0:0:0:0:
92,132,140558,38,0,P|105:243|108:280,1,135,8|0,0:2|0:0,0:0:0:0:
201,317,140958,2,0,P|188:206|185:169,1,135,0|0,1:0|0:0,0:0:0:0:
92,132,141358,70,0,B|185:116|186:159|281:131,1,180,8|0,0:3|1:0,0:0:0:0:
381,49,141958,1,0,1:0:0:0:
381,49,142058,1,0,1:0:0:0:
381,49,142158,1,8,0:0:0:0:
429,172,142358,1,8,1:3:0:0:
429,216,142458,1,8,1:3:0:0:
432,261,142558,1,8,0:3:0:0:
439,306,142658,1,8,0:3:0:0:
446,354,142758,1,4,0:3:0:0:
446,354,142858,1,4,0:3:0:0:
446,354,142958,38,0,P|380:344|304:334,1,135,4|0,1:2|0:0,0:0:0:0:
259,233,143358,2,0,P|325:243|401:253,1,135,0|0,1:0|0:0,0:0:0:0:
317,143,143758,70,0,B|236:108|167:170,1,135,8|0,0:0|0:0,0:0:0:0:
130,243,144158,2,0,B|211:278|280:216,1,135,0|0,1:0|0:0,0:0:0:0:
317,143,144558,38,0,P|304:82|297:34,1,90,8|0,0:3|0:0,0:0:0:0:
200,16,144858,1,0,1:0:0:0:
200,16,144958,2,0,P|213:77|222:129,1,90,0|0,1:0|0:0,0:0:0:0:
392,78,145358,69,8,0:0:0:0:
121,70,145558,1,0,1:0:0:0:
121,70,145658,1,8,0:0:0:0:
121,70,145758,1,8,0:0:0:0:
274,212,145958,37,8,0:0:0:0:
274,212,146058,1,8,0:0:0:0:
274,212,146158,2,0,P|268:282|267:361,1,135,4|0,1:2|0:0,0:0:0:0:
178,161,146558,2,0,P|176:228|170:295,1,135,0|0,1:0|0:0,0:0:0:0:
266,122,146958,70,0,B|343:105|403:152,1,135,8|0,0:0|0:0,0:0:0:0:
200,181,147358,2,0,B|123:198|63:151,1,135,0|0,1:0|0:0,0:0:0:0:
198,47,147758,38,0,P|209:121|215:190,1,135,8|0,0:3|1:0,0:0:0:0:
309,149,148158,2,0,P|299:88|296:43,1,90,0|0,1:0|0:0,0:0:0:0:
125,190,148558,69,8,0:0:0:0:
353,237,148758,1,0,1:0:0:0:
225,371,148958,1,8,0:0:0:0:
225,371,149058,1,8,0:0:0:0:
225,371,149158,1,8,0:3:0:0:
257,153,149358,38,0,P|302:144|375:133,1,107.999996704102,4|0,1:2|0:0,0:0:0:0:
260,243,149658,2,0,P|214:251|142:263,1,107.999996704102,4|0,1:2|0:0,0:0:0:0:
198,84,149958,2,0,P|251:71|275:69,1,53.9999983520508,4|0,1:2|0:0,0:0:0:0:
334,294,150158,1,8,0:0:0:0:
80,171,150358,70,0,L|36:163,2,35.9999989013672,8|8|4,0:3|0:3|0:3,0:0:0:0:
120,178,150558,1,8,0:0:0:0:
457,258,150958,5,4,1:2:0:0:
457,258,151358,1,0,1:0:0:0:
271,308,151558,1,8,0:0:0:0:
338,184,151758,1,0,1:0:0:0:
338,184,151858,1,8,0:3:0:0:
400,384,152058,1,0,1:0:0:0:
400,384,152158,1,4,0:3:0:0:
482,236,152358,101,4,0:3:0:0:
482,236,152458,1,4,0:3:0:0:
482,236,152558,2,0,L|496:188,5,35.9999989013672,8|8|4|4|0|0,0:3|0:3|0:3|0:3|0:0|0:0,0:0:0:0:
472,286,152958,1,8,0:0:0:0:
255,376,153258,1,8,0:3:0:0:
255,376,153358,1,4,0:3:0:0:
27,296,153558,1,8,1:3:0:0:
27,296,153658,1,8,1:3:0:0:
27,296,153758,1,8,0:3:0:0:
27,296,153858,1,8,0:3:0:0:
27,296,153958,1,4,0:3:0:0:
108,121,154158,21,12,0:0:0:0:
156,330,154358,1,0,1:0:0:0:
156,330,154458,2,0,B|167:281|184:250,1,67.5000025749208,8|0,0:3|0:0,0:0:0:0:
236,99,154658,37,0,0:0:0:0:
236,99,154758,1,12,0:0:0:0:
57,300,154958,1,0,1:0:0:0:
57,300,155058,2,0,B|46:349|29:380,1,67.5000025749208,8|0,0:3|0:0,0:0:0:0:
43,73,155258,85,0,1:0:0:0:
43,73,155358,1,12,0:0:0:0:
186,343,155558,1,0,1:0:0:0:
186,343,155658,1,0,1:0:0:0:
186,343,155758,22,0,L|247:336,5,45.0000017166138,8|8|8|8|8|8,0:0|0:0|0:0|1:3|1:3|1:3,0:0:0:0:
323,271,156158,2,0,L|278:276,5,45.0000017166138,8|8|8|4|4|4,0:3|0:3|0:3|0:3|0:3|0:3,0:0:0:0:
201,304,156558,86,0,L|125:294,2,53.9999983520508,8|8|8,0:3|0:3|0:3,0:0:0:0:
299,315,156758,2,0,L|375:325,2,53.9999983520508,4|4|4,0:3|0:3|0:3,0:0:0:0:
243,383,156958,1,12,0:0:0:0:
273,63,157158,5,0,1:0:0:0:
273,63,157258,1,0,1:0:0:0:
273,63,157358,1,6,1:2:0:0:
379,154,157558,2,0,P|442:151|506:139,1,107.999996704102,8|0,0:0|1:0,0:0:0:0:
487,143,157858,1,0,1:0:0:0:
487,143,157958,1,10,0:0:0:0:
248,144,158158,6,0,P|238:197|224:249,1,107.999996704102,2|8,1:0|0:0,0:0:0:0:
289,383,158458,2,0,P|298:329|312:277,1,107.999996704102,2|0,0:0|1:0,0:0:0:0:
135,327,158758,2,0,P|161:334|196:344,1,53.9999983520508,10|0,0:0|0:0,0:0:0:0:
383,345,158958,101,2,1:0:0:0:
226,248,159158,1,8,0:0:0:0:
226,248,159258,1,2,0:0:0:0:
404,173,159458,1,0,1:0:0:0:
404,173,159558,1,10,0:0:0:0:
333,259,159758,5,2,1:0:0:0:
305,95,159958,1,8,0:0:0:0:
292,57,160058,1,0,1:0:0:0:
263,29,160158,1,0,1:0:0:0:
225,16,160258,1,0,1:0:0:0:
185,20,160358,1,10,0:0:0:0:
59,0,160558,102,0,P|53:67|44:127,1,107.999996704102,2|8,1:0|0:0,0:0:0:0:
162,300,160958,1,2,1:0:0:0:
162,300,161058,1,0,1:0:0:0:
162,300,161158,1,8,0:0:0:0:
236,149,161358,1,2,1:0:0:0:
30,218,161558,1,8,0:0:0:0:
278,341,161758,5,2,1:0:0:0:
278,341,161858,1,0,1:0:0:0:
278,341,161958,1,8,0:0:0:0:
65,230,162158,1,2,1:0:0:0:
266,153,162358,1,8,0:0:0:0:
282,116,162458,1,0,1:0:0:0:
287,76,162558,1,0,1:0:0:0:
281,37,162658,1,0,1:0:0:0:
264,0,162758,1,10,0:0:0:0:
178,81,162958,101,2,1:0:0:0:
389,120,163158,1,8,0:0:0:0:
272,173,163358,1,8,0:3:0:0:
272,173,163458,1,8,0:3:0:0:
272,173,163558,1,6,0:3:0:0:
272,173,163658,1,4,0:3:0:0:
272,173,163758,2,0,B|230:291|303:265|261:396,1,215.999993408203,6|0,1:2|1:0,0:0:0:0:
481,227,164358,5,10,0:0:0:0:
481,227,164458,1,2,0:0:0:0:
481,227,164558,1,2,1:0:0:0:
294,301,164758,1,10,0:0:0:0:
441,381,164958,1,2,1:0:0:0:
351,153,165158,1,10,0:0:0:0:
276,318,165358,2,0,P|223:310|164:291,1,107.999996704102,2|8,1:0|0:0,0:0:0:0:
0,170,165758,101,0,1:0:0:0:
0,170,165858,1,0,1:0:0:0:
0,170,165958,2,0,P|31:166|81:155,1,53.9999983520508,10|2,0:0|0:0,0:0:0:0:
249,86,166158,1,2,1:0:0:0:
85,0,166358,1,10,0:0:0:0:
153,268,166558,1,10,0:0:0:0:
269,83,166758,1,10,0:3:0:0:
269,83,166858,1,4,0:3:0:0:
269,83,166958,6,0,P|335:86|408:48,1,135.000005149842,4|0,1:2|0:0,0:0:0:0:
232,177,167258,2,0,P|166:174|93:212,1,135.000005149842,4|0,1:2|0:0,0:0:0:0:
321,290,167558,2,0,P|318:244|311:203,1,67.5000025749208,4|0,1:2|0:0,0:0:0:0:
164,96,167758,102,0,L|178:237,1,135.000005149842,12|0,1:2|0:0,0:0:0:0:
349,311,168058,2,0,L|335:170,1,135.000005149842,12|0,1:2|0:0,0:0:0:0:
243,24,168358,2,0,L|252:123,1,67.5000025749208,12|0,1:2|0:0,0:0:0:0:
260,279,168558,5,4,1:2:0:0:
416,250,168758,2,0,L|467:245,2,45.0000017166138,8|8|8,0:3|0:3|0:3,0:0:0:0:
393,321,168958,2,0,L|341:326,5,45.0000017166138,4|4|4|4|4|4,0:3|0:3|0:3|0:3|0:3|0:3,0:0:0:0:
351,377,169358,102,0,P|315:374|287:369,1,53.9999983520508,14|8,1:2|0:3,0:0:0:0:
147,277,169558,1,4,0:3:0:0:
147,277,169658,2,0,P|201:282|228:286,1,53.9999983520508,14|8,0:0|0:3,0:0:0:0:
287,180,169858,5,4,0:3:0:0:
313,132,169958,1,14,1:2:0:0:
310,78,170058,1,4,0:3:0:0:
289,27,170158,1,6,1:2:0:0:
170,168,170358,2,0,P|169:218|172:235,1,53.9999983520508,8|0,0:0|0:0,0:0:0:0:
342,321,170558,1,0,1:0:0:0:
494,178,170758,101,10,0:0:0:0:
494,178,170858,1,2,0:0:0:0:
494,178,170958,2,0,P|504:109|507:51,1,107.999996704102,2|8,1:0|0:0,0:0:0:0:
357,155,171258,2,0,B|347:216|344:267,1,107.999996704102,2|0,0:0|1:0,0:0:0:0:
512,265,171558,2,0,P|462:254|443:251,1,53.9999983520508,10|0,0:0|0:0,0:0:0:0:
267,201,171758,5,2,1:0:0:0:
469,138,171958,1,8,0:0:0:0:
469,138,172058,1,2,0:0:0:0:
292,29,172258,1,0,1:0:0:0:
292,29,172358,1,10,0:0:0:0:
360,270,172558,101,2,1:0:0:0:
240,110,172758,1,8,0:0:0:0:
198,106,172858,1,0,1:0:0:0:
156,101,172958,1,0,1:0:0:0:
115,98,173058,1,0,1:0:0:0:
73,94,173158,1,10,0:0:0:0:
141,304,173358,6,0,P|143:238|154:188,1,107.999996704102,2|8,1:0|0:0,0:0:0:0:
43,356,173758,1,2,1:0:0:0:
43,356,173858,1,0,1:0:0:0:
43,356,173958,1,8,0:0:0:0:
284,311,174158,1,2,1:2:0:0:
136,184,174358,1,8,0:0:0:0:
177,384,174558,1,2,1:0:0:0:
177,384,174658,1,0,1:0:0:0:
177,384,174758,1,8,0:0:0:0:
289,158,174958,101,2,1:0:0:0:
377,384,175158,1,8,0:0:0:0:
377,384,175258,1,0,1:0:0:0:
377,384,175358,2,0,P|386:339|397:306,1,53.9999983520508,0|0,1:0|1:0,0:0:0:0:
482,181,175558,1,10,0:0:0:0:
264,323,175758,5,2,1:0:0:0:
251,55,175958,1,8,0:0:0:0:
360,155,176158,1,8,0:0:0:0:
315,185,176258,1,8,0:0:0:0:
263,198,176358,1,8,0:3:0:0:
210,191,176458,1,4,0:3:0:0:
162,166,176558,102,0,P|160:88|164:47,1,107.999996704102,6|8,1:2|0:0,0:0:0:0:
265,26,176858,2,0,P|261:55|257:79,1,53.9999983520508,2|0,0:0|1:0,0:0:0:0:
70,134,177058,1,0,1:0:0:0:
70,134,177158,2,0,P|74:107|76:80,1,53.9999983520508,10|0,0:0|0:0,0:0:0:0:
237,195,177358,2,0,P|259:263|204:356,1,161.999995056153,2|0,1:0|0:0,0:0:0:0:
223,342,177758,1,2,1:0:0:0:
406,204,177958,5,8,0:0:0:0:
406,204,178058,1,0,1:0:0:0:
406,204,178158,2,0,P|462:193|524:190,1,107.999996704102,2|8,1:0|0:0,0:0:0:0:
419,303,178458,2,0,P|366:314|312:318,1,107.999996704102,2|0,0:0|1:0,0:0:0:0:
290,123,178758,2,0,P|323:122|364:116,1,53.9999983520508,10|0,0:0|0:0,0:0:0:0:
511,61,178958,101,10,0:0:0:0:
478,29,179058,1,8,0:0:0:0:
432,18,179158,1,8,1:3:0:0:
389,29,179258,1,8,1:3:0:0:
361,65,179358,5,8,0:3:0:0:
375,93,179458,1,8,0:3:0:0:
383,124,179558,1,6,0:3:0:0:
380,154,179658,1,4,0:3:0:0:
364,189,179758,38,0,B|430:195|438:173|506:183,2,135,6|2|2,1:2|0:0|1:0,0:0:0:0:
267,74,180558,1,14,0:0:0:0:
267,304,180958,69,2,1:0:0:0:
148,189,181358,2,0,B|82:195|74:173|6:183,2,135,6|0|0,1:2|1:0|1:0,0:0:0:0:
148,189,182058,1,0,1:0:0:0:
148,189,182158,1,8,0:0:0:0:
276,111,182358,1,0,1:0:0:0:
264,288,182558,1,8,0:0:0:0:
381,203,182758,37,2,1:0:0:0:
381,203,182858,1,0,0:0:0:0:
381,203,182958,2,0,P|385:139|393:82,1,107.999996704102,4|0,1:2|0:0,0:0:0:0:
304,1,183258,2,0,P|300:65|292:122,1,107.999996704102,4|0,1:3|0:0,0:0:0:0:
455,158,183558,2,0,L|514:147,1,53.9999983520508,4|0,1:3|0:0,0:0:0:0:
214,34,183758,69,8,1:2:0:0:
246,358,184058,1,8,1:2:0:0:
214,34,184358,1,8,1:2:0:0:
127,153,184558,37,0,1:0:0:0:
329,118,184758,1,8,0:0:0:0:
203,20,184958,1,0,1:0:0:0:
203,20,185058,1,0,1:0:0:0:
203,20,185158,2,0,L|213:84,1,45,8|0,0:0|0:0,0:0:0:0:
248,161,185358,2,0,L|260:259,1,90,0|8,1:0|0:0,0:0:0:0:
411,344,185758,53,8,0:0:0:0:
411,344,185858,1,8,0:0:0:0:
411,344,185958,1,8,0:0:0:0:
411,344,186058,1,8,0:0:0:0:
411,344,186158,2,0,B|288:303|285:366|125:323,1,270,4|8,1:2|1:3,0:0:0:0:
126,315,186824,2,0,L|118:355,2,30,8|4|12,0:3|0:3|0:0,0:0:0:0:
443,129,187758,53,4,1:2:0:0:
255,193,188358,1,0,1:0:0:0:
255,193,188458,1,0,1:0:0:0:
255,193,188558,1,8,0:0:0:0:
65,253,188958,1,0,1:0:0:0:
383,252,189358,5,0,1:0:0:0:
266,208,189658,1,0,1:0:0:0:
152,167,189958,1,0,1:0:0:0:
152,167,190058,1,0,1:0:0:0:
152,167,190158,1,8,0:0:0:0:
332,132,190358,101,0,3:0:0:0:
332,132,190458,1,2,0:0:0:0:
276,230,190658,1,0,3:0:0:0:
276,230,190758,1,4,0:3:0:0:
218,326,190958,5,4,1:2:0:0:
175,81,191558,1,0,1:0:0:0:
175,81,191658,1,0,1:0:0:0:
175,81,191758,1,8,0:0:0:0:
425,146,192158,1,0,1:0:0:0:
142,239,192558,101,0,1:0:0:0:
315,90,192858,1,0,1:0:0:0:
376,299,193158,2,0,L|411:324,2,30,0|0|0,1:0|1:0|1:0,0:0:0:0:
342,281,193358,5,12,0:0:0:0:
181,217,193558,1,0,1:0:0:0:
300,118,193758,1,12,0:0:0:0:
342,281,193958,1,4,1:3:0:0:
253,348,194158,101,4,1:2:0:0:
236,37,194758,1,0,1:0:0:0:
236,37,194858,1,0,1:0:0:0:
236,37,194958,1,8,0:0:0:0:
253,348,195358,1,0,1:0:0:0:
125,142,195758,5,0,1:0:0:0:
362,238,196058,1,0,1:0:0:0:
189,236,196358,101,0,1:0:0:0:
189,236,196458,1,0,1:0:0:0:
189,236,196558,1,8,0:0:0:0:
311,159,196858,1,0,3:0:0:0:
311,159,196958,1,0,1:0:0:0:
189,236,197158,1,4,0:3:0:0:
398,258,197358,5,4,1:2:0:0:
77,130,197958,1,0,1:0:0:0:
77,130,198058,1,0,1:0:0:0:
77,130,198158,1,8,0:0:0:0:
265,38,198358,102,0,L|270:-17,2,30,8|8|4,0:3|0:3|0:3,0:0:0:0:
262,88,198558,1,0,1:0:0:0:
245,191,198758,1,0,1:0:0:0:
232,295,198958,6,0,P|224:351|221:393,1,90,8|0,1:2|0:0,0:0:0:0:
331,251,199258,2,0,P|327:295|320:340,1,90,8|0,1:2|0:0,0:0:0:0:
140,281,199558,2,0,B|140:273|146:237,1,45,8|0,1:2|0:0,0:0:0:0:
294,157,199758,102,0,B|355:150|371:152|434:182,1,125.999996154785,8|0,1:2|0:0,0:0:0:0:
219,93,200058,2,0,B|165:113|146:116|86:101,1,125.999996154785,8|0,1:2|0:0,0:0:0:0:
297,0,200358,2,0,L|310:76,1,62.9999980773926,8|0,1:2|0:0,0:0:0:0:
246,235,200558,54,0,P|252:299|258:337,1,90,4|8,1:2|0:0,0:0:0:0:
451,341,200958,1,2,1:0:0:0:
458,297,201058,1,0,1:0:0:0:
444,254,201158,1,10,0:0:0:0:
412,223,201258,1,2,0:0:0:0:
369,211,201358,2,0,P|304:213|227:226,1,135,2|2,1:0|0:0,0:0:0:0:
235,223,201758,2,0,L|232:280,1,45,0|0,1:0|1:0,0:0:0:0:
229,354,201958,1,10,0:0:0:0:
99,204,202158,102,0,P|110:269|111:308,1,90,2|8,1:0|0:0,0:0:0:0:
17,226,202458,2,0,P|6:161|5:122,1,90,2|0,0:0|1:0,0:0:0:0:
0,35,202758,2,0,B|86:104|182:17,1,180,10|8,0:0|0:0,0:0:0:0:
258,162,203358,1,2,1:0:0:0:
258,162,203458,1,2,0:0:0:0:
258,162,203558,1,10,0:0:0:0:
348,57,203758,5,2,1:0:0:0:
418,219,203958,1,8,0:0:0:0:
418,219,204058,1,2,0:0:0:0:
512,84,204258,1,0,1:0:0:0:
512,84,204358,1,10,0:0:0:0:
335,160,204558,101,0,1:0:0:0:
438,13,204758,1,10,0:0:0:0:
438,13,204858,1,0,0:0:0:0:
438,13,204958,1,2,1:0:0:0:
438,13,205058,1,0,1:0:0:0:
438,13,205158,1,10,0:0:0:0:
509,187,205358,6,0,P|511:249|506:284,1,90,2|8,1:0|0:0,0:0:0:0:
422,336,205658,2,0,L|413:277,1,45,2|0,0:0|0:0,0:0:0:0:
337,139,205858,1,0,1:0:0:0:
337,139,205958,2,0,L|323:287,1,135,14|8,0:0|0:0,0:0:0:0:
394,342,206358,101,8,0:0:0:0:
347,367,206458,1,8,0:0:0:0:
292,371,206558,1,8,0:0:0:0:
243,348,206658,1,8,0:0:0:0:
191,319,206758,1,10,0:3:0:0:
142,301,206858,1,4,0:3:0:0:
89,302,206958,6,0,P|30:308|-23:319,1,107.999996704102,6|8,1:2|0:0,0:0:0:0:
99,207,207258,2,0,P|158:201|211:190,1,107.999996704102,2|0,0:0|1:0,0:0:0:0:
71,63,207558,2,0,B|5:143|68:239,1,161.999995056153,10|0,0:0|0:0,0:0:0:0:
53,214,207958,1,10,0:0:0:0:
190,97,208158,1,2,1:0:0:0:
190,97,208258,1,0,1:0:0:0:
190,97,208358,1,10,0:0:0:0:
294,187,208558,102,0,B|357:191|411:201,1,107.999996704102,2|8,1:0|0:0,0:0:0:0:
494,119,208858,2,0,B|431:115|377:105,1,107.999996704102,2|0,0:0|1:0,0:0:0:0:
333,12,209158,2,0,P|375:16|410:21,1,53.9999983520508,10|0,0:0|0:0,0:0:0:0:
488,209,209358,6,0,P|483:272|468:327,1,107.999996704102,2|8,1:0|0:0,0:0:0:0:
373,365,209658,2,0,P|378:302|393:247,1,107.999996704102,2|0,0:0|1:0,0:0:0:0:
511,377,209958,2,0,L|445:363,1,53.9999983520508,10|0,0:0|0:0,0:0:0:0:
281,295,210158,101,6,1:2:0:0:
281,295,210258,2,0,P|276:238|282:212,2,53.9999983520508,2|8|0,0:0|0:0|0:0,0:0:0:0:
165,304,210558,1,2,1:0:0:0:
165,304,210658,2,0,L|156:391,2,53.9999983520508,2|8|0,1:0|0:0|0:0,0:0:0:0:
152,205,210958,1,2,1:0:0:0:
105,229,211058,1,2,1:0:0:0:
53,216,211158,1,10,0:0:0:0:
23,173,211258,1,0,1:0:0:0:
28,121,211358,1,2,1:0:0:0:
67,84,211458,1,0,1:0:0:0:
121,85,211558,1,10,0:0:0:0:
332,197,211758,5,2,1:0:0:0:
243,17,211958,1,10,0:0:0:0:
243,17,212058,1,0,1:0:0:0:
243,17,212158,1,2,1:0:0:0:
157,216,212358,1,10,0:0:0:0:
377,87,212558,101,14,1:2:0:0:
121,85,212758,1,2,1:0:0:0:
121,85,212858,1,0,1:0:0:0:
121,85,212958,2,0,L|42:85,1,53.9999983520508,10|8,0:0|0:0,0:0:0:0:
255,280,213158,1,10,1:3:0:0:
328,108,213358,5,8,0:0:0:0:
377,87,213458,1,8,0:0:0:0:
431,81,213558,1,8,0:0:0:0:
484,91,213658,1,8,0:0:0:0:
192,78,213958,101,8,0:0:0:0:
139,88,214058,1,8,0:0:0:0:
85,82,214158,1,8,0:0:0:0:
36,61,214258,1,8,0:0:0:0:
414,198,214558,5,8,1:2:0:0:
418,245,214658,1,8,0:0:0:0:
422,294,214758,1,8,0:0:0:0:
426,343,214858,1,8,0:0:0:0:
114,384,215158,101,8,1:2:0:0:
118,337,215258,1,8,0:0:0:0:
122,288,215358,1,8,0:0:0:0:
126,239,215458,1,8,0:0:0:0:
251,18,215758,5,12,1:2:0:0:
278,366,216058,1,12,1:2:0:0:
251,18,216358,1,12,1:2:0:0:
147,75,216558,5,8,0:0:0:0:
113,105,216658,1,8,0:0:0:0:
104,143,216758,1,8,0:0:0:0:
108,175,216858,1,8,0:0:0:0:
118,190,216958,1,0,1:0:0:0:
132,199,217058,1,0,1:0:0:0:
145,213,217158,101,8,0:3:0:0:
174,240,217258,1,8,0:3:0:0:
188,271,217358,1,8,0:3:0:0:
188,297,217458,1,8,0:3:0:0:
182,313,217558,1,0,1:0:0:0:
175,320,217658,1,0,1:0:0:0:
157,328,217758,85,4,0:3:0:0:
138,319,217858,1,4,0:3:0:0:
132,306,217958,1,4,0:3:0:0:
139,292,218058,1,4,0:3:0:0:
157,292,218158,1,0,1:0:0:0:
166,310,218258,1,0,1:0:0:0:
203,336,218358,5,8,0:0:0:0:
257,354,218458,1,8,0:0:0:0:
319,341,218558,1,8,0:0:0:0:
372,306,218658,1,8,0:0:0:0:
390,247,218758,1,0,1:0:0:0:
377,186,218858,1,0,1:0:0:0:
331,145,218958,22,0,P|320:78|312:11,1,135.000005149842,12|0,0:0|0:0,0:0:0:0:
179,251,219258,2,0,P|189:318|197:385,1,135.000005149842,12|0,1:2|0:0,0:0:0:0:
403,224,219558,101,12,0:2:0:0:
111,186,219758,1,4,1:2:0:0:
65,304,232558,54,0,P|144:328|244:291,1,180,2|0,0:0|0:0,0:0:0:0:
284,208,233158,1,2,0:0:0:0:
199,162,233358,2,0,P|143:153|94:144,1,90,0|2,0:0|0:0,0:0:0:0:
261,74,233758,2,0,P|317:83|366:92,1,90,2|2,0:0|0:0,0:0:0:0:
349,88,234058,1,2,0:0:0:0:
349,88,234158,6,0,P|374:149|360:264,1,180,2|2,0:0|0:0,0:0:0:0:
288,338,234758,1,0,0:0:0:0:
245,213,234958,2,0,P|388:197|438:190,1,180,2|2,0:0|0:0,0:0:0:0:
500,134,235558,1,2,0:0:0:0:
421,35,235758,102,0,B|333:7|338:56|228:21,1,180,2|0,0:0|0:0,0:0:0:0:
120,0,236358,1,2,0:0:0:0:
195,154,236558,5,2,0:0:0:0:
243,25,236858,1,2,0:0:0:0:
195,154,237158,1,2,0:0:0:0:
99,98,237358,2,0,P|12:262|125:380,1,360,2|2,0:0|0:0,0:0:0:0:
371,317,238758,101,2,0:0:0:0:
371,317,238858,1,2,0:0:0:0:
371,317,238958,2,0,P|422:323|506:347,2,135,2|2|2,0:0|0:0|0:0,0:0:0:0:
290,363,239758,1,2,0:0:0:0:
235,287,239958,1,0,0:0:0:0:
320,238,240158,1,0,0:0:0:0:
272,139,240358,5,0,0:0:0:0:
272,139,240458,1,0,0:0:0:0:
272,139,240558,1,2,0:0:0:0:
291,55,240758,2,0,P|223:41|99:23,1,180,2|0,0:0|0:0,0:0:0:0:
232,217,241358,2,0,P|300:231|424:249,1,180,2|0,0:0|0:0,0:0:0:0:
207,20,242158,102,0,P|205:79|193:123,2,90,2|0|0,0:0|0:0|0:0,0:0:0:0:
316,324,242958,2,0,P|318:265|330:221,2,90,2|0|0,0:0|0:0|0:0,0:0:0:0:
86,229,243758,6,0,P|145:217|182:207,1,90,2|0,0:0|0:0,0:0:0:0:
409,122,244158,2,0,P|350:134|313:144,1,90,0|2,0:0|0:0,0:0:0:0:
252,64,244558,102,0,B|213:200|289:199|247:342,1,270,2|0,0:0|0:0,0:0:0:0:
165,265,245358,21,6,1:2:0:0:
347,248,245558,1,2,0:0:0:0:
231,158,245958,101,2,1:0:0:0:
231,158,246058,1,0,1:0:0:0:
231,158,246158,1,10,0:0:0:0:
262,257,246458,1,2,3:0:0:0:
262,257,246558,1,0,1:0:0:0:
285,354,246758,1,2,0:0:0:0:
408,207,246958,5,2,1:0:0:0:
262,246,247258,1,0,1:0:0:0:
109,288,247558,1,0,1:0:0:0:
36,201,247758,101,8,0:0:0:0:
481,299,248158,1,0,1:0:0:0:
277,21,248558,5,6,1:2:0:0:
242,203,248758,1,2,1:0:0:0:
242,203,249158,1,2,1:0:0:0:
350,147,249358,101,10,0:0:0:0:
173,62,249558,1,0,3:0:0:0:
173,62,249658,1,2,3:0:0:0:
173,62,249758,1,0,1:0:0:0:
350,147,249958,1,2,1:0:0:0:
122,155,250158,5,2,1:0:0:0:
394,58,250458,1,0,1:0:0:0:
122,155,250758,1,0,1:0:0:0:
323,301,250958,101,8,0:0:0:0:
352,119,251158,1,0,1:0:0:0:
170,97,251358,1,8,0:0:0:0:
142,287,251558,1,2,1:0:0:0:
142,287,251658,1,2,1:0:0:0:
142,287,251758,1,6,1:2:0:0:
392,216,252358,5,0,1:0:0:0:
509,207,252558,1,10,0:0:0:0:
117,170,253158,101,2,1:0:0:0:
0,179,253358,1,0,1:0:0:0:
299,291,253958,5,0,1:0:0:0:
210,119,254158,1,10,0:0:0:0:
172,301,254358,1,0,1:0:0:0:
317,167,254558,1,8,0:3:0:0:
124,194,254758,1,0,1:0:0:0:
315,311,254958,69,12,0:0:0:0:
315,311,255158,1,0,1:0:0:0:
206,88,255358,37,0,1:0:0:0:
206,88,255558,1,0,1:0:0:0:
160,331,255758,5,0,1:2:0:0:
160,331,255958,1,0,1:2:0:0:
353,164,256158,37,0,1:0:0:0:
353,164,256358,1,0,1:0:0:0:
100,200,256558,5,4,1:3:0:0:
100,200,256758,1,4,1:3:0:0:
336,331,256958,69,8,1:2:0:0:
204,71,257158,1,8,1:2:0:0:
150,351,257358,1,8,1:2:0:0:
364,156,257558,1,8,1:2:0:0:
78,189,257758,1,8,1:2:0:0:
336,331,257958,1,8,1:2:0:0:
224,207,258158,5,12,0:0:0:0:
77,331,258358,2,0,L|84:381,2,30,8|8|4,0:3|0:3|0:3,0:0:0:0:
38,309,258558,1,8,1:2:0:0:
11,274,258658,1,8,0:0:0:0:
0,231,258758,1,8,0:0:0:0:
7,187,258858,1,8,0:0:0:0:
38,144,258958,101,8,1:2:0:0:
96,148,259058,1,8,0:0:0:0:
150,167,259158,1,8,0:0:0:0:
188,210,259258,1,8,0:0:0:0:
237,268,259358,5,8,1:2:0:0:
309,293,259458,1,8,0:0:0:0:
384,279,259558,1,8,0:0:0:0:
451,243,259658,1,8,0:0:0:0:
480,172,259758,1,12,1:2:0:0:
416,323,264358,101,2,0:0:0:0:
416,323,264458,1,2,0:0:0:0:
416,323,264558,2,0,B|273:293|291:377|138:334,1,270,4|4,1:2|1:3,0:0:0:0:
55,46,266158,54,0,B|194:85|176:1|319:31,1,270,4|8,1:2|0:0,0:0:0:0:
222,249,267158,53,8,0:0:0:0:
206,146,267358,1,8,0:3:0:0:
306,187,267558,1,4,0:3:0:0:
108,224,267758,53,4,1:2:0:0:
300,78,268558,1,4,1:2:0:0:
300,78,269158,1,8,0:3:0:0:
335,323,269358,1,4,1:2:0:0:
134,69,270158,53,4,1:2:0:0:
393,182,270558,1,8,0:3:0:0:
191,355,270958,1,4,1:2:0:0:
147,263,271158,1,0,3:0:0:0:
247,279,271358,1,0,1:0:0:0:
98,348,271558,1,0,3:0:0:0:
98,348,271658,1,0,3:0:0:0:
98,348,271758,2,0,P|45:353|1:353,1,90,0|0,1:0|3:0,0:0:0:0:
215,199,272158,2,0,P|268:194|312:194,1,90,0|0,1:0|3:0,0:0:0:0:
115,106,272558,53,0,1:0:0:0:
147,263,272758,1,0,3:0:0:0:
115,106,272958,1,0,1:0:0:0:
51,198,273158,53,0,3:0:0:0:
51,198,273258,1,0,3:0:0:0:
51,198,273358,1,0,1:0:0:0:
202,162,273558,1,0,3:0:0:0:
176,13,273758,1,0,1:0:0:0:
24,43,273958,1,0,3:0:0:0:
276,103,274158,6,0,P|342:111|419:110,1,135.000005149842,4|0,1:2|0:0,0:0:0:0:
215,196,274458,2,0,P|149:188|72:189,1,135.000005149842,4|0,1:2|0:0,0:0:0:0:
284,290,274758,2,0,P|335:296|375:297,1,67.5000025749208,4|0,1:2|0:0,0:0:0:0:
210,28,274958,102,0,P|184:115|185:180,1,135.000005149842,12|0,1:2|0:0,0:0:0:0:
300,358,275258,2,0,P|322:294|327:227,1,135.000005149842,12|0,1:2|0:0,0:0:0:0:
107,248,275558,2,0,P|158:258|207:255,1,67.5000025749208,12|0,1:2|0:0,0:0:0:0:
409,191,275758,6,0,L|319:182,1,53.9999983520508,4|0,1:2|0:0,0:0:0:0:
232,147,275958,1,8,0:0:0:0:
232,147,276058,1,8,0:0:0:0:
232,147,276158,1,8,0:3:0:0:
179,138,276258,1,8,0:3:0:0:
131,160,276358,1,8,0:3:0:0:
104,206,276458,1,8,0:3:0:0:
108,259,276558,1,4,0:3:0:0:
142,300,276658,1,4,0:3:0:0:
193,315,276758,1,4,0:3:0:0:
299,237,276958,38,0,P|363:231|459:227,1,135,8|0,0:0|0:0,0:0:0:0:
512,213,277358,69,6,1:2:0:0:
433,340,277558,1,8,0:0:0:0:
433,340,277658,1,0,1:0:0:0:
433,340,277758,1,0,1:0:0:0:
300,146,277958,1,10,0:0:0:0:
300,146,278058,1,2,0:0:0:0:
300,146,278158,2,0,P|231:136|173:133,1,107.999996704102,2|8,1:0|0:0,0:0:0:0:
79,243,278458,2,0,B|138:275|208:232,1,107.999996704102,2|0,0:0|1:0,0:0:0:0:
165,60,278758,2,0,P|154:110|151:129,1,53.9999983520508,10|0,0:0|0:0,0:0:0:0:
124,356,278958,101,2,1:0:0:0:
35,144,279158,1,8,0:0:0:0:
35,144,279258,1,2,0:0:0:0:
257,182,279458,1,0,1:0:0:0:
257,182,279558,1,10,0:0:0:0:
0,310,279758,5,2,1:0:0:0:
271,348,279958,1,8,0:0:0:0:
291,306,280058,1,0,1:0:0:0:
297,259,280158,1,0,1:0:0:0:
284,216,280258,1,0,1:0:0:0:
257,182,280358,1,10,0:0:0:0:
158,23,280558,102,0,P|156:89|145:139,1,107.999996704102,2|8,1:0|0:0,0:0:0:0:
288,57,280958,1,2,1:0:0:0:
288,57,281058,1,0,1:0:0:0:
288,57,281158,1,8,0:0:0:0:
34,38,281358,1,2,1:0:0:0:
230,207,281558,1,8,0:0:0:0:
70,218,281758,1,2,1:0:0:0:
70,218,281858,1,0,1:0:0:0:
70,218,281958,1,8,0:0:0:0:
260,48,282158,5,6,1:2:0:0:
158,309,282358,1,8,0:0:0:0:
158,309,282458,1,0,1:0:0:0:
158,309,282558,2,0,P|149:354|145:387,1,53.9999983520508,0|0,1:0|1:0,0:0:0:0:
47,38,282758,1,10,0:0:0:0:
36,192,282958,101,10,0:0:0:0:
86,172,283058,1,8,0:0:0:0:
139,165,283158,1,8,0:0:0:0:
192,173,283258,1,8,0:0:0:0:
239,201,283358,1,8,0:3:0:0:
289,221,283458,1,8,0:3:0:0:
342,227,283558,1,4,0:3:0:0:
395,220,283658,1,4,0:3:0:0:
440,190,283758,6,0,P|443:136|440:82,1,107.999996704102,6|8,1:2|0:0,0:0:0:0:
512,243,284058,2,0,P|508:272|504:296,1,53.9999983520508,2|0,0:0|1:0,0:0:0:0:
331,138,284258,1,0,1:0:0:0:
331,138,284358,2,0,P|356:133|395:130,1,53.9999983520508,10|0,0:0|0:0,0:0:0:0:
481,276,284558,2,0,B|401:271|300:287,1,161.999995056153,2|0,1:0|0:0,0:0:0:0:
256,330,284958,1,2,1:0:0:0:
103,140,285158,101,10,0:0:0:0:
103,140,285258,1,0,1:0:0:0:
103,140,285358,2,0,P|92:196|89:258,1,107.999996704102,0|8,1:0|0:0,0:0:0:0:
214,158,285658,2,0,P|209:104|199:51,1,107.999996704102,2|0,0:0|1:0,0:0:0:0:
0,173,285958,2,0,P|1:206|7:247,1,53.9999983520508,10|0,0:0|0:0,0:0:0:0:
243,247,286158,6,0,L|304:238,5,35.9999989013672,10|8|8|8|8|8,0:0|0:0|0:0|0:3|0:3|0:3,0:0:0:0:
167,234,286558,2,0,L|106:243,5,35.9999989013672,4|4|4|4|4|4,0:3|0:3|0:3|0:3|0:3|0:3,0:0:0:0:
206,169,286958,102,0,P|221:289|224:332,2,135,6|2|2,1:2|0:0|1:0,0:0:0:0:
164,47,287758,1,14,0:0:0:0:
348,337,288158,5,2,1:0:0:0:
306,214,288558,2,0,P|296:148|289:81,2,135,6|0|0,1:2|1:0|1:0,0:0:0:0:
306,214,289258,1,0,1:0:0:0:
306,214,289358,1,8,0:0:0:0:
358,355,289558,1,0,1:0:0:0:
195,299,289758,1,8,0:0:0:0:
366,170,289958,37,0,1:0:0:0:
366,170,290058,1,0,1:0:0:0:
366,170,290158,2,0,P|430:160|494:154,1,107.999996704102,4|0,1:2|0:0,0:0:0:0:
278,124,290458,2,0,P|214:120|157:112,1,107.999996704102,4|0,1:2|0:0,0:0:0:0:
349,1,290758,2,0,L|339:54,1,53.9999983520508,4|0,1:3|0:0,0:0:0:0:
301,363,290958,69,12,1:2:0:0:
229,10,291258,1,12,1:2:0:0:
301,363,291558,1,12,1:2:0:0:
206,224,291758,101,4,1:2:0:0:
107,382,291958,1,8,0:0:0:0:
21,230,292158,1,0,1:0:0:0:
21,230,292258,1,0,1:0:0:0:
21,230,292358,2,0,L|11:166,1,45,8|0,0:0|0:0,0:0:0:0:
102,72,292558,5,0,1:0:0:0:
210,182,292758,1,8,0:0:0:0:
250,200,292858,1,8,0:0:0:0:
295,201,292958,1,8,0:3:0:0:
337,185,293058,1,8,0:3:0:0:
378,169,293158,1,4,0:3:0:0:
425,169,293258,1,4,0:3:0:0:
473,190,293358,101,4,1:2:0:0:
54,198,293958,2,0,L|83:200,2,30,0|0|0,1:0|1:0|1:0,0:0:0:0:
15,198,294158,1,8,0:3:0:0:
285,0,294758,53,0,1:0:0:0:
285,0,294858,1,0,1:0:0:0:
285,0,294958,2,0,P|294:54|300:109,1,90,12|0,0:0|0:0,0:0:0:0:
213,149,295258,2,0,P|204:104|205:59,1,90,12|0,0:0|0:0,0:0:0:0:
372,18,295558,2,0,P|379:102|374:199,1,180,12|4,0:0|0:3,0:0:0:0:
326,363,296158,37,8,0:0:0:0:
326,363,296258,1,8,0:3:0:0:
326,363,296358,1,4,0:3:0:0:
326,363,296458,1,0,1:0:0:0:
326,363,296558,2,0,P|400:356|428:349,1,90,12|0,1:2|1:0,0:0:0:0:
151,316,296958,2,0,P|108:318|58:327,1,90,12|0,1:2|1:2,0:0:0:0:
286,79,297358,21,12,1:2:0:0:
260,283,297558,1,0,1:0:0:0:
260,283,297658,1,0,1:0:0:0:
260,283,297758,1,12,1:2:0:0:
286,79,297958,1,0,0:0:0:0:
321,175,298158,86,0,L|416:180,1,90,12|0,1:2|0:0,0:0:0:0:
233,213,298458,2,0,L|138:208,1,90,12|0,1:2|0:0,0:0:0:0:
276,95,298758,2,0,B|302:186|251:190|281:308,1,180,12|4,1:2|0:3,0:0:0:0:
400,99,299358,21,8,0:3:0:0:
400,99,299458,1,8,0:3:0:0:
400,99,299558,1,0,1:0:0:0:
400,99,299658,1,0,1:0:0:0:
400,99,299758,86,0,L|405:45,5,30,8|0|0|0|0|0,0:0|1:0|1:0|1:0|1:0|1:0,0:0:0:0:
352,172,300158,2,0,L|347:226,5,30,8|0|0|0|0|0,0:0|1:0|1:0|1:0|1:0|1:0,0:0:0:0:
369,80,300558,22,0,L|365:24,2,41.9999987182618,8|0|0,0:0|1:0|1:0,0:0:0:0:
385,185,300758,2,0,L|389:241,2,41.9999987182618,0|0|0,1:0|1:0|1:0,0:0:0:0:
448,124,300958,86,0,P|378:133|286:142,1,135,12|0,1:2|0:0,0:0:0:0:
314,140,301358,1,4,1:2:0:0:
207,34,301558,1,10,0:0:0:0:
185,213,301758,2,0,P|178:277|173:315,1,90,2|8,1:0|0:0,0:0:0:0:
285,318,302158,101,2,1:0:0:0:
80,237,302358,1,8,0:0:0:0:
80,237,302458,1,2,0:0:0:0:
278,147,302658,1,0,1:0:0:0:
278,147,302758,1,10,0:0:0:0:
142,94,302958,6,0,P|146:19|152:-22,1,90,0|10,1:0|0:0,0:0:0:0:
270,60,303358,1,2,1:0:0:0:
270,60,303458,1,0,1:0:0:0:
270,60,303558,1,8,0:0:0:0:
88,193,303758,2,0,P|17:202|-18:210,1,90,2|8,1:0|0:0,0:0:0:0:
109,302,304058,2,0,P|180:293|215:285,1,90,2|4,1:0|1:3,0:0:0:0:
197,289,304358,1,10,0:0:0:0:
322,173,304558,101,0,1:0:0:0:
354,363,304758,1,10,0:0:0:0:
232,287,304958,1,2,1:0:0:0:
232,287,305058,1,0,1:0:0:0:
232,287,305158,1,8,0:0:0:0:
422,258,305358,2,0,P|473:247|516:245,1,90,2|8,1:0|0:0,0:0:0:0:
511,245,305658,1,2,0:0:0:0:
511,245,305758,1,0,1:0:0:0:
311,146,305958,2,0,P|260:157|217:159,1,90,10|0,0:0|1:0,0:0:0:0:
383,38,306358,5,10,0:0:0:0:
378,206,306558,1,2,1:0:0:0:
378,206,306658,1,0,1:0:0:0:
378,206,306758,1,8,0:0:0:0:
371,379,306958,1,6,1:2:0:0:
328,391,307058,1,0,1:0:0:0:
285,378,307158,1,8,0:0:0:0:
257,345,307258,1,10,0:0:0:0:
251,300,307358,1,8,0:0:0:0:
247,255,307458,1,8,1:3:0:0:
223,217,307558,1,10,0:3:0:0:
185,195,307658,1,4,0:3:0:0:
140,194,307758,6,0,P|92:198|6:212,1,107.999996704102,4|8,1:2|0:0,0:0:0:0:
33,206,308058,1,0,1:0:0:0:
33,206,308158,1,0,1:0:0:0:
167,69,308358,2,0,P|197:68|228:72,1,53.9999983520508,8|0,0:0|1:0,0:0:0:0:
119,1,308558,102,0,L|128:62,1,53.9999983520508,0|0,1:0|0:0,0:0:0:0:
257,144,308758,1,8,0:0:0:0:
257,144,308858,2,0,L|248:83,1,53.9999983520508,0|0,1:0|0:0,0:0:0:0:
42,81,309058,1,0,1:0:0:0:
42,81,309158,1,8,0:0:0:0:
320,24,309358,5,0,1:0:0:0:
320,24,309458,1,0,1:0:0:0:
320,24,309558,1,8,0:0:0:0:
159,161,309758,1,0,1:0:0:0:
143,198,309858,1,0,1:0:0:0:
139,238,309958,1,8,0:0:0:0:
149,277,310058,1,0,1:0:0:0:
169,312,310158,2,0,L|240:301,1,53.9999983520508,0|0,1:0|0:0,0:0:0:0:
360,208,310358,1,8,0:0:0:0:
360,208,310458,2,0,L|288:218,1,53.9999983520508,0|0,1:0|1:0,0:0:0:0:
247,378,310658,1,0,1:0:0:0:
293,377,310758,1,8,0:0:0:0:
338,367,310858,1,0,1:0:0:0:
381,346,310958,102,0,P|375:268|360:226,1,107.999996704102,4|8,1:2|0:0,0:0:0:0:
326,202,311258,1,0,1:0:0:0:
296,156,311358,1,0,1:0:0:0:
300,102,311458,1,0,1:0:0:0:
336,62,311558,1,8,0:0:0:0:
388,48,311658,1,0,1:0:0:0:
438,66,311758,5,0,1:0:0:0:
406,86,311858,1,0,1:0:0:0:
368,89,311958,1,8,0:0:0:0:
332,76,312058,1,0,1:0:0:0:
301,53,312158,1,0,1:0:0:0:
269,32,312258,1,0,1:0:0:0:
232,21,312358,1,8,0:0:0:0:
194,26,312458,1,0,1:0:0:0:
162,44,312558,102,0,P|169:93|173:131,1,72,0|0,1:0|1:0,0:0:0:0:
277,236,312758,2,0,P|269:186|266:149,1,72,8|0,0:0|1:0,0:0:0:0:
111,185,312958,5,0,1:0:0:0:
111,185,313058,2,0,P|70:195|30:202,1,72,8|0,0:0|0:0,0:0:0:0:
363,117,313258,1,8,0:3:0:0:
363,117,313358,2,0,P|404:107|444:100,1,72,4|4,1:2|0:3,0:0:0:0:
284,337,313558,1,0,1:0:0:0:
273,302,313658,1,0,1:0:0:0:
264,267,313758,1,8,0:0:0:0:
257,232,313858,1,8,0:0:0:0:
251,196,313958,1,8,1:3:0:0:
269,27,314158,54,0,L|331:12,2,48,4|0|0,1:3|1:0|1:0,0:0:0:0:
204,74,314358,2,0,L|142:89,2,48,4|0|0,1:3|1:0|1:0,0:0:0:0:
289,60,314558,6,0,L|356:69,3,56.9999984779358,8|0|0|0,1:2|1:0|1:0|1:3,0:0:0:0:
183,38,314824,2,0,L|116:29,3,56.9999984779358,4|0|0|0,1:3|1:0|1:3|1:0,0:0:0:0:
227,118,315091,2,0,L|217:190,3,56.9999984779358,4|0|0|0,1:3|1:3|1:0|1:0,0:0:0:0:
214,223,315358,1,12,1:2:0:0:
199,329,315558,1,4,1:2:0:0:
256,192,315624,12,0,319358,3:0:0:0:
