osu file format v14

[General]
AudioFilename: audio.mp3
AudioLeadIn: 0
PreviewTime: 157108
Countdown: 0
SampleSet: Normal
StackLeniency: 0.7
Mode: 1
LetterboxInBreaks: 0
WidescreenStoryboard: 0

[Editor]
Bookmarks: 127344,127444,127544,127644,264744,264844,264944,265044,265144
DistanceSpacing: 0.1
BeatDivisor: 8
GridSize: 32
TimelineZoom: 2.4

[Metadata]
Title:FIRE BIRD
TitleUnicode:FIRE BIRD
Artist:Roselia
ArtistUnicode:Roselia
Creator:Jaltzu
Version:Jaffu's FIRE COLLAB
Source:BanG Dream! 2nd Season
Tags:japanese pop j-pop jpop rock j-rock jrock anime バンドリ! ガールズバンドパーティ! bandori girls band party! ロゼリア rozeria 湊 友希那 minato yukina 氷川 紗夜 hikawa sayo 今井 リサ imai lisa risa 宇田川 あこ udagawa ako 白金 燐子 shirokane rinko insert song naofumi naffu collaboration firebird 第2期 ver. second 2nd season full version wahl ガルパ garupa aiba aina 相羽あいな kudo haruka 工藤晴香 sakuragawa megu 桜川めぐ nakashima yuki 中島由貴 shizaki kanon 志崎樺音
BeatmapID:2540012
BeatmapSetID:1221022

[Difficulty]
HPDrainRate:5
CircleSize:2
OverallDifficulty:6
ApproachRate:10
SliderMultiplier:1.4
SliderTickRate:1

[Events]
//Background and Video events
0,0,"BG1.jpg",0,40
//Break Periods
//Storyboard Layer 0 (Background)
//Storyboard Layer 1 (Fail)
//Storyboard Layer 2 (Pass)
//Storyboard Layer 3 (Foreground)
//Storyboard Layer 4 (Overlay)
//Storyboard Sound Samples

[TimingPoints]
-1311,750,4,1,0,40,1,0
23439,779.220779220779,4,1,0,40,1,8
23439,-96.2463907603465,4,1,0,40,0,0
24218,810.810810810811,4,1,0,40,1,8
24218,-92.5069380203515,4,1,0,40,0,0
25028,821.917808219178,4,1,0,40,1,8
25028,-91.2492015694863,4,1,0,40,0,0
25438,761.421319796954,4,1,0,40,1,8
25438,-102.338433198588,4,1,0,40,0,0
25628,952.380952380952,4,1,0,40,1,8
25628,-83.4445927903872,4,1,0,40,0,0
25866,857.142857142857,4,1,0,40,1,0
25866,-94.5984296660675,4,1,0,40,0,0
26210,-98.5901607019619,4,1,0,40,0,0
26723,869.565217391304,4,1,0,40,1,8
26723,-101.471334348047,4,1,0,40,0,0
27089,-106.157112526539,4,1,0,40,0,0
27592,933.125972006221,4,1,0,40,1,8
27592,-103.71292263016,4,1,0,40,0,0
28408,-114.82374555058,4,1,0,40,0,0
28991,952.380952380952,4,1,0,40,1,8
28991,-118.867902100396,4,1,0,40,0,0
29467,1410.10575793184,4,1,0,40,1,0
29467,-85.099140498681,4,1,0,40,0,0
38808,-85.099140498681,4,1,0,50,0,0
38958,400,4,1,0,50,1,0
40333,-95.2380952380952,4,1,0,50,0,0
40433,-93.0232558139535,4,1,0,50,0,0
40533,-90.9090909090909,4,1,0,70,0,0
40558,-90.9090909090909,4,1,0,70,0,0
41708,-93.7470704040499,4,1,0,70,0,0
41833,-95.2380952380952,4,1,0,70,0,0
41933,-96.7773153972709,4,1,0,70,0,0
42033,-98.3574309039048,4,1,0,70,0,0
42133,-100,4,1,0,70,0,0
43708,-90.9090909090909,4,1,0,70,0,0
44908,-93.7470704040499,4,1,0,70,0,0
45033,-95.2380952380952,4,1,0,70,0,0
45133,-96.7773153972709,4,1,0,70,0,0
45233,-98.3574309039048,4,1,0,70,0,0
45333,-100,4,1,0,70,0,0
46908,-90.9090909090909,4,1,0,70,0,0
53508,-95.2380952380952,4,1,0,70,0,0
53708,-100,4,1,0,70,0,0
66708,-103.896103896104,4,1,0,70,0,0
66833,-104.569695702185,4,1,0,70,0,0
66933,-105.263157894737,4,1,0,70,0,0
67308,-108.108108108108,4,1,0,70,0,0
67708,-111.111111111111,4,1,0,70,0,0
75433,-108.108108108108,4,1,0,70,0,0
75533,-105.263157894737,4,1,0,70,0,0
75633,-102.564102564103,4,1,0,70,0,0
75733,-100,4,1,0,70,0,0
77308,-100,4,1,0,70,0,0
77533,-99.4679459570756,4,1,0,70,0,0
77733,-98.9415235807333,4,1,0,70,0,0
77933,-98.4205470607688,4,1,0,70,0,0
78133,-97.9051240604779,4,1,0,70,0,0
78333,-97.3950714198059,4,1,0,70,0,0
78433,-97.1419856404717,4,1,0,70,0,0
78633,-96.6398330063686,4,1,0,70,0,0
78733,-96.3907449462332,4,1,0,70,0,0
78933,-95.8963092387463,4,1,0,70,0,0
79133,-95.4068290300083,4,1,0,70,0,0
79333,-94.9224104217213,4,1,0,70,0,0
79533,-94.4428861368232,4,1,0,70,0,0
79733,-93.9681823734484,4,1,0,70,0,0
79933,-93.4982268061286,4,1,0,70,0,0
80033,-93.2649638971325,4,1,0,70,0,0
80133,-93.0328619978435,4,1,0,70,0,0
80233,-92.8019985838415,4,1,0,70,0,0
80333,-92.5721924242621,4,1,0,70,0,0
80533,-92.1160625541758,4,1,0,70,0,0
80733,-91.6644056113283,4,1,0,70,0,0
80833,-91.4401921707079,4,1,0,70,0,0
80933,-91.2171561227236,4,1,0,70,0,0
81033,-90.9951226614254,4,1,0,70,0,0
81133,-90.7742498869861,4,1,0,70,0,0
81233,-90.5543647656589,4,1,0,70,0,0
81333,-90.335542338462,4,1,0,70,0,0
81433,-90.1178561322498,4,1,0,70,0,0
81533,-89.9011357210476,4,1,0,70,0,0
81633,-89.6855356065029,4,1,0,70,0,0
81733,-89.4708870680569,4,1,0,70,0,0
81833,-89.2572635329632,4,1,0,70,0,0
81933,-89.0447369662992,4,1,0,70,0,0
82033,-88.833141157638,4,1,0,70,0,0
82133,-88.6226271291586,4,1,0,70,0,0
82233,-88.4130303124074,4,1,0,70,0,0
82333,-88.2044225697476,4,1,0,70,0,0
82433,-87.9968743510231,4,1,0,70,0,0
82533,-87.79022350513,4,1,0,70,0,0
82633,-87.5846176887646,4,1,0,70,0,0
82733,-87.379896332491,4,1,0,70,0,0
82833,-87.1761297808479,4,1,0,70,0,0
82933,-86.9733870133078,4,1,0,70,0,0
83633,-85.1063829787234,4,1,0,70,0,0
83733,-83.3333333333333,4,1,0,80,0,0
83758,-83.3333333333333,4,1,0,80,0,1
90333,-86.9565217391304,4,1,0,80,0,1
93333,-83.3333333333333,4,1,0,80,0,1
95133,-84.2105263157895,4,1,0,80,0,1
95233,-84.6525014814188,4,1,0,80,0,1
95333,-85.1063829787234,4,1,0,80,0,1
95433,-85.5578370978782,4,1,0,80,0,1
95533,-86.0215053763441,4,1,0,80,0,1
95633,-86.4827466920349,4,1,0,80,0,1
95733,-86.9565217391304,4,1,0,80,0,1
95833,-86.4827466920349,4,1,0,80,0,1
95933,-86.0215053763441,4,1,0,80,0,1
96033,-85.5578370978782,4,1,0,80,0,1
96133,-84.6525014814188,4,1,0,80,0,1
96233,-84.6525014814188,4,1,0,80,0,1
96333,-84.2105263157895,4,1,0,80,0,1
96433,-83.8012234978631,4,1,0,80,0,1
96533,-83.3333333333333,4,1,0,80,0,1
103133,-86.9565217391304,4,1,0,80,0,1
105433,-88.3977900552486,4,1,0,80,0,1
105533,-89.8876404494382,4,1,0,80,0,1
105633,-91.4285714285714,4,1,0,80,0,1
105733,-93.0232558139535,4,1,0,80,0,1
105833,-94.6700747893591,4,1,0,80,0,1
105933,-96.3855421686747,4,1,0,80,0,1
106033,-98.1546917942678,4,1,0,80,0,1
106133,-100,4,1,0,70,0,1
106158,-100,4,1,0,70,0,0
109233,-95.2380952380952,4,1,0,70,0,0
109333,-90.9090909090909,4,1,0,70,0,0
111333,-90.9090909090909,4,1,0,70,0,0
111433,-91.5982427793105,4,1,0,70,0,0
111533,-92.2979229275424,4,1,0,70,0,0
111633,-93.0083744740376,4,1,0,70,0,0
111733,-93.7297602299004,4,1,0,70,0,0
111833,-94.462513024019,4,1,0,70,0,0
111933,-95.2068129995382,4,1,0,70,0,0
112033,-95.962935275879,4,1,0,70,0,0
112133,-96.7311637823046,4,1,0,70,0,0
112233,-97.5117916134008,4,1,0,70,0,0
112333,-98.3051214019097,4,1,0,70,0,0
112533,-100,4,1,0,70,0,0
113933,-95.2380952380952,4,1,0,70,0,0
114033,-93.0232558139535,4,1,0,70,0,0
114133,-90.8521018633766,4,1,0,70,0,0
115308,-93.7470704040499,4,1,0,70,0,0
115433,-95.2380952380952,4,1,0,70,0,0
115533,-96.7773153972709,4,1,0,70,0,0
115633,-98.3574309039048,4,1,0,70,0,0
115733,-100,4,1,0,70,0,0
117333,-90.9090909090909,4,1,0,70,0,0
118508,-93.7470704040499,4,1,0,70,0,0
118633,-95.2380952380952,4,1,0,70,0,0
118733,-96.7773153972709,4,1,0,70,0,0
118833,-98.3574309039048,4,1,0,70,0,0
118933,-100,4,1,0,70,0,0
120508,-90.9090909090909,4,1,0,70,0,0
125533,-90.9090909090909,4,1,0,70,0,0
125599,-91.6982796485755,4,1,0,70,0,0
125666,-92.5013759579674,4,1,0,70,0,0
125733,-93.3185765557606,4,1,0,70,0,0
125833,-94.5719484469395,4,1,0,70,0,0
125933,-95.8593551541179,4,1,0,70,0,0
126033,-97.182296495412,4,1,0,70,0,0
126133,-98.5422642844403,4,1,0,70,0,0
126233,-99.9408350256648,4,1,0,70,0,0
126333,-101.379676010831,4,1,0,70,0,0
126433,-102.860657752762,4,1,0,70,0,0
126533,-104.385441153751,4,1,0,70,0,0
126633,-105.95611085976,4,1,0,70,0,0
126733,-107.57476984378,4,1,0,70,0,0
126933,-110.965253450187,4,1,0,70,0,0
136308,-105.263157894737,4,1,0,70,0,0
136508,-100,4,1,0,70,0,0
140108,-102.564102564103,4,1,0,70,0,0
140508,-105.263157894737,4,1,0,70,0,0
140908,-108.108108108108,4,1,0,70,0,0
141308,-111.111111111111,4,1,0,70,0,0
150933,-100,4,1,0,70,0,0
151133,-99.5024875621891,4,1,0,70,0,0
151333,-99.009900990099,4,1,0,70,0,0
151533,-98.5221674876847,4,1,0,70,0,0
151733,-98.0392156862745,4,1,0,70,0,0
151833,-97.799511002445,4,1,0,70,0,0
151933,-97.5609756097561,4,1,0,70,0,0
152033,-97.323600973236,4,1,0,70,0,0
152133,-97.0873786407767,4,1,0,70,0,0
152233,-96.8523002421307,4,1,0,70,0,0
152333,-96.6183574879227,4,1,0,70,0,0
152533,-96.1538461538461,4,1,0,70,0,0
152733,-95.6937799043062,4,1,0,70,0,0
152933,-95.2380952380952,4,1,0,70,0,0
153033,-95.0118764845606,4,1,0,70,0,0
153133,-94.7867298578199,4,1,0,70,0,0
153333,-94.3396226415094,4,1,0,70,0,0
153433,-94.1176470588235,4,1,0,70,0,0
153533,-93.8967136150235,4,1,0,70,0,0
153633,-93.6768149882904,4,1,0,70,0,0
153733,-93.4579439252336,4,1,0,70,0,0
153833,-93.2400932400932,4,1,0,70,0,0
153933,-93.0232558139535,4,1,0,70,0,0
154133,-92.5925925925926,4,1,0,70,0,0
154333,-92.1658986175115,4,1,0,70,0,0
154533,-91.743119266055,4,1,0,70,0,0
154633,-91.533180778032,4,1,0,70,0,0
154733,-91.324200913242,4,1,0,70,0,0
154833,-91.1161731207289,4,1,0,70,0,0
154933,-90.9090909090909,4,1,0,70,0,0
155233,-90.293453724605,4,1,0,70,0,0
155533,-89.6860986547085,4,1,0,70,0,0
155733,-89.2857142857143,4,1,0,70,0,0
155833,-89.086859688196,4,1,0,70,0,0
155933,-88.8888888888889,4,1,0,70,0,0
156033,-88.6917960088692,4,1,0,70,0,0
156133,-88.495575221239,4,1,0,70,0,0
156233,-88.3002207505519,4,1,0,70,0,0
156333,-88.1057268722467,4,1,0,70,0,0
156433,-87.9120879120879,4,1,0,70,0,0
156533,-87.719298245614,4,1,0,70,0,0
156633,-87.527352297593,4,1,0,70,0,0
156733,-87.3362445414847,4,1,0,70,0,0
156833,-87.1459694989107,4,1,0,70,0,0
156933,-86.9565217391304,4,1,0,70,0,0
157233,-85.1063829787234,4,1,0,70,0,0
157333,-83.3333333333333,4,1,0,80,0,0
157358,-83.3333333333333,4,1,0,80,0,1
163908,-86.9565217391304,4,1,0,80,0,1
166933,-83.3333333333333,4,1,0,80,0,1
168733,-84.2105263157895,4,1,0,80,0,1
168833,-84.6525014814188,4,1,0,80,0,1
168933,-85.1063829787234,4,1,0,80,0,1
169033,-85.5578370978782,4,1,0,80,0,1
169133,-86.0215053763441,4,1,0,80,0,1
169233,-86.4827466920349,4,1,0,80,0,1
169333,-86.9565217391304,4,1,0,80,0,1
169433,-86.4827466920349,4,1,0,80,0,1
169533,-86.0215053763441,4,1,0,80,0,1
169633,-85.5578370978782,4,1,0,80,0,1
169733,-84.6525014814188,4,1,0,80,0,1
169833,-84.6525014814188,4,1,0,80,0,1
169933,-84.2105263157895,4,1,0,80,0,1
170033,-83.8012234978631,4,1,0,80,0,1
170133,-83.3333333333333,4,1,0,80,0,1
176733,-86.9565217391304,4,1,0,80,0,1
179033,-88.3977900552486,4,1,0,80,0,1
179133,-89.8876404494382,4,1,0,80,0,1
179233,-91.4285714285714,4,1,0,80,0,1
179333,-93.0232558139535,4,1,0,80,0,1
179433,-94.6745562130178,4,1,0,80,0,1
179533,-96.3855421686747,4,1,0,80,0,1
179733,-100,4,1,0,70,0,1
179758,-100,4,1,0,70,0,0
182908,-90.9090909090909,4,1,0,70,0,0
184933,-90.9090909090909,4,1,0,70,0,0
185033,-91.6030254647251,4,1,0,70,0,0
185133,-92.3077207100679,4,1,0,70,0,0
185333,-93.7499707031342,4,1,0,70,0,0
185533,-95.2380952380952,4,1,0,70,0,0
185733,-96.774224765879,4,1,0,70,0,0
185833,-97.5609756097561,4,1,0,70,0,0
185933,-98.3606234883202,4,1,0,70,0,0
186033,-99.173586503665,4,1,0,70,0,0
186133,-100,4,1,0,70,0,0
187708,-111.111111111111,4,1,0,70,0,0
198933,-111.111111111111,4,1,0,70,0,0
199233,-108.843537414966,4,1,0,70,0,0
199533,-106.666666666667,4,1,0,70,0,0
199733,-105.263157894737,4,1,0,70,0,0
200033,-103.225806451613,4,1,0,70,0,0
200333,-101.26582278481,4,1,0,70,0,0
200533,-100,4,1,0,70,0,0
213308,-95.2380952380952,4,1,0,70,0,0
216508,-90.9090909090909,4,1,0,70,0,0
219708,-90.9090909090909,4,1,0,60,0,0
220108,-93.0232558139535,4,1,0,60,0,0
220308,-94.1176470588235,4,1,0,60,0,0
220508,-95.2380952380952,4,1,0,60,0,0
221308,-100,4,1,0,60,0,0
221608,-101.905635381637,4,1,0,60,0,0
221908,-103.896103896104,4,1,0,60,0,0
222108,-105.263157894737,4,1,0,60,0,0
222508,-108.108108108108,4,1,0,60,0,0
222908,-111.111111111111,4,1,0,60,0,0
245258,-100,4,1,0,70,0,0
264333,-95.2380952380952,4,1,0,70,0,0
264433,-93.0232558139535,4,1,0,70,0,0
264533,-90.9090909090909,4,1,0,70,0,0
270708,-95.2380952380952,4,1,0,70,0,0
270908,-100,4,1,0,70,0,0
274108,-90.9090909090909,4,1,0,70,0,0
275733,-90.9090909090909,4,1,0,70,0,0
275933,-90.2302314585897,4,1,0,70,0,0
276033,-89.8945896042301,4,1,0,70,0,0
276133,-89.5614355623383,4,1,0,70,0,0
276233,-89.2307417751564,4,1,0,70,0,0
276333,-88.9024810904423,4,1,0,70,0,0
276433,-88.5766267540387,4,1,0,70,0,0
276533,-88.2532302888616,4,1,0,70,0,0
276633,-87.9321093769922,4,1,0,70,0,0
276733,-87.6133168737115,4,1,0,70,0,0
276833,-87.2968275459902,4,1,0,70,0,0
276933,-86.9826165240877,4,1,0,70,0,0
277308,-83.3333333333333,4,1,0,80,0,0
277358,-83.3333333333333,4,1,0,80,0,1
283908,-86.9565217391304,4,1,0,80,0,1
286133,-86.9565217391304,4,1,0,80,0,1
286199,-87.9021192321926,4,1,0,80,0,1
286266,-88.8685083776343,4,1,0,80,0,1
286333,-89.8563825437803,4,1,0,80,0,1
286433,-91.3801138596219,4,1,0,80,0,1
286533,-92.9564136671956,4,1,0,80,0,1
286599,-94.0378144859611,4,1,0,80,0,1
286666,-95.1446722313614,4,1,0,80,0,1
286733,-96.2778965205168,4,1,0,80,0,1
286833,-98.0293166474366,4,1,0,80,0,1
286933,-99.8456386426584,4,1,0,70,0,1
286958,-100,4,1,0,70,0,0
290108,-90.9090909090909,4,1,0,80,0,0
292133,-90.9090909090909,4,1,0,80,0,0
292233,-91.5982427793105,4,1,0,80,0,0
292333,-92.2979229275424,4,1,0,80,0,0
292433,-93.0083744740376,4,1,0,80,0,0
292533,-93.7297602299004,4,1,0,80,0,0
292633,-94.462513024019,4,1,0,80,0,0
292733,-95.2068129995382,4,1,0,80,0,0
292833,-95.962935275879,4,1,0,80,0,0
292933,-96.7311637823046,4,1,0,80,0,0
293033,-97.5117916134008,4,1,0,80,0,0
293133,-98.3051214019097,4,1,0,80,0,0
293233,-99.1113674791817,4,1,0,80,0,0
293333,-99.9310475771717,4,1,0,80,0,0
294708,-95.2380952380952,4,1,0,80,0,0
294833,-93.0232558139535,4,1,0,80,0,0
294933,-90.8521018633766,4,1,0,80,0,0
296133,-93.7470704040499,4,1,0,80,0,0
296233,-95.2380952380952,4,1,0,80,0,0
296333,-96.7773153972709,4,1,0,80,0,0
296433,-98.3574309039048,4,1,0,80,0,0
296533,-100,4,1,0,80,0,0
297924,-95.2380952380952,4,1,0,80,0,0
297999,-93.7470704040499,4,1,0,80,0,0
298066,-92.3105326317733,4,1,0,80,0,0
298133,-90.9090909090909,4,1,0,80,0,0
299333,-93.7470704040499,4,1,0,80,0,0
299433,-95.2380952380952,4,1,0,80,0,0
299533,-96.7773153972709,4,1,0,80,0,0
299733,-100,4,1,0,80,0,0
301308,-90.9090909090909,4,1,0,70,0,0
307033,-89.8876404494382,4,1,0,70,0,0
307133,-88.8888888888889,4,1,0,70,0,0
307233,-87.9120879120879,4,1,0,70,0,0
307333,-86.9565217391304,4,1,0,70,0,0
307433,-86.0215053763441,4,1,0,70,0,0
307533,-85.1063829787234,4,1,0,70,0,0
307633,-84.2105263157895,4,1,0,70,0,0
307733,-83.3333333333333,4,1,0,80,0,0
307758,-83.3333333333333,4,1,0,80,0,1
314133,-83.3333333333333,4,1,0,70,0,1
314199,-84.1066943882331,4,1,0,70,0,1
314266,-84.8946160683436,4,1,0,70,0,1
314333,-85.6973666056216,4,1,0,70,0,1
314433,-86.9304426063485,4,1,0,70,0,1
314533,-88.1995214293967,4,1,0,70,0,1
314599,-89.0663089763698,4,1,0,70,0,1
314666,-89.9503833685339,4,1,0,70,0,1
314733,-90.8521018633766,4,1,0,70,0,1
314833,-92.2391798830038,4,1,0,70,0,1
314933,-93.6692687989539,4,1,0,70,0,1
314999,-94.6474948701058,4,1,0,70,0,1
315066,-95.6464600766893,4,1,0,70,0,1
315133,-96.6666441111164,4,1,0,70,0,1
315233,-98.2384857126858,4,1,0,70,0,1
315333,-99.8622899022248,4,1,0,70,0,1
315508,-83.3333333333333,4,1,0,80,0,1
315558,-83.3333333333333,4,1,0,80,0,0

[HitObjects]
224,192,1314,5,0,0:0:0:0:
224,192,1501,1,0,0:0:0:0:
224,192,1689,1,8,0:0:0:0:
224,192,2439,1,8,0:0:0:0:
224,192,2814,1,0,0:0:0:0:
224,192,3001,1,0,0:0:0:0:
224,192,3189,1,8,0:0:0:0:
224,192,3939,1,0,0:0:0:0:
224,192,4314,1,8,0:0:0:0:
224,192,4689,1,8,0:0:0:0:
224,192,5439,1,0,0:0:0:0:
224,192,5814,1,0,0:0:0:0:
224,192,6001,1,8,0:0:0:0:
224,192,6189,1,8,0:0:0:0:
224,192,6939,1,0,0:0:0:0:
224,192,7314,1,8,0:0:0:0:
224,192,7501,1,0,0:0:0:0:
224,192,7689,1,8,0:0:0:0:
224,192,8439,1,0,0:0:0:0:
224,192,8814,1,0,0:0:0:0:
224,192,9001,1,0,0:0:0:0:
224,192,9189,1,8,0:0:0:0:
224,192,9564,1,0,0:0:0:0:
224,192,9939,1,0,0:0:0:0:
224,192,10314,1,8,0:0:0:0:
224,192,10501,1,8,0:0:0:0:
224,192,10689,1,0,0:0:0:0:
224,192,11439,1,0,0:0:0:0:
224,192,12189,1,0,0:0:0:0:
224,192,12939,1,8,0:0:0:0:
224,192,13314,1,0,0:0:0:0:
224,192,13501,1,0,0:0:0:0:
224,192,13689,1,8,0:0:0:0:
224,192,14439,1,0,0:0:0:0:
224,192,14814,1,0,0:0:0:0:
224,192,15001,1,0,0:0:0:0:
224,192,15189,1,8,0:0:0:0:
224,192,15939,1,0,0:0:0:0:
224,192,16314,1,8,0:0:0:0:
224,192,16689,1,8,0:0:0:0:
224,192,17439,1,0,0:0:0:0:
224,192,17814,1,8,0:0:0:0:
224,192,18001,1,0,0:0:0:0:
224,192,18189,1,8,0:0:0:0:
224,192,18939,1,8,0:0:0:0:
224,192,19314,1,0,0:0:0:0:
224,192,19501,1,0,0:0:0:0:
224,192,19689,1,8,0:0:0:0:
224,192,20814,1,0,0:0:0:0:
224,192,21001,1,0,0:0:0:0:
224,192,21189,1,8,0:0:0:0:
224,192,21564,1,0,0:0:0:0:
224,192,21939,1,8,0:0:0:0:
224,192,22314,1,0,0:0:0:0:
224,192,22501,1,8,0:0:0:0:
224,192,22689,1,0,0:0:0:0:
224,192,23439,1,8,0:0:0:0:
224,192,23828,1,0,0:0:0:0:
224,192,24218,1,8,0:0:0:0:
224,192,25028,1,8,0:0:0:0:
224,192,25438,1,0,0:0:0:0:
224,192,25628,1,0,0:0:0:0:
224,192,25866,1,8,0:0:0:0:
224,192,26294,1,0,0:0:0:0:
224,192,26723,1,8,0:0:0:0:
224,192,27157,1,0,0:0:0:0:
224,192,27592,1,8,0:0:0:0:
224,192,28525,1,0,0:0:0:0:
224,192,28991,1,0,0:0:0:0:
224,192,29467,1,8,0:0:0:0:
256,192,29702,12,8,34402,0:0:0:0:
256,192,35107,5,8,0:0:0:0:
256,192,38958,5,8,0:0:0:0:
256,192,39358,1,8,0:0:0:0:
256,192,39758,1,8,0:0:0:0:
256,192,39958,1,8,0:0:0:0:
256,192,40158,1,8,0:0:0:0:
256,192,40358,1,0,0:0:0:0:
256,192,40458,1,0,0:0:0:0:
256,192,40558,1,12,0:0:0:0:
256,192,40858,1,4,0:0:0:0:
256,192,41158,1,12,0:0:0:0:
256,192,41558,1,0,0:0:0:0:
256,192,41758,1,8,0:0:0:0:
256,192,41858,1,8,0:0:0:0:
256,192,41958,1,0,0:0:0:0:
256,192,42058,1,0,0:0:0:0:
256,192,42158,1,8,0:0:0:0:
256,192,42358,1,0,0:0:0:0:
256,192,42458,1,0,0:0:0:0:
256,192,42558,1,8,0:0:0:0:
256,192,42758,1,0,0:0:0:0:
256,192,42958,1,8,0:0:0:0:
256,192,43158,1,0,0:0:0:0:
256,192,43258,1,0,0:0:0:0:
256,192,43358,1,8,0:0:0:0:
256,192,43558,1,0,0:0:0:0:
256,192,43758,1,12,0:0:0:0:
256,192,44058,1,4,0:0:0:0:
256,192,44358,1,12,0:0:0:0:
256,192,44758,1,8,0:0:0:0:
256,192,44958,1,8,0:0:0:0:
256,192,45058,1,8,0:0:0:0:
256,192,45158,1,0,0:0:0:0:
256,192,45258,1,0,0:0:0:0:
256,192,45358,1,8,0:0:0:0:
256,192,45558,1,0,0:0:0:0:
256,192,45658,1,0,0:0:0:0:
256,192,45758,1,8,0:0:0:0:
256,192,45958,1,0,0:0:0:0:
256,192,46058,1,0,0:0:0:0:
256,192,46158,1,8,0:0:0:0:
256,192,46258,1,8,0:0:0:0:
256,192,46358,1,8,0:0:0:0:
256,192,46458,1,0,0:0:0:0:
256,192,46558,1,8,0:0:0:0:
256,192,46958,1,0,0:0:0:0:
256,192,47158,1,8,0:0:0:0:
256,192,47358,1,0,0:0:0:0:
256,192,47458,1,0,0:0:0:0:
256,192,47558,1,8,0:0:0:0:
256,192,47758,1,0,0:0:0:0:
256,192,47858,1,8,0:0:0:0:
256,192,47958,1,8,0:0:0:0:
256,192,48058,1,0,0:0:0:0:
256,192,48158,1,8,0:0:0:0:
256,192,48258,1,0,0:0:0:0:
256,192,48358,1,8,0:0:0:0:
256,192,48558,1,0,0:0:0:0:
256,192,48758,1,8,0:0:0:0:
256,192,48958,1,8,0:0:0:0:
256,192,49058,1,0,0:0:0:0:
256,192,49158,1,8,0:0:0:0:
256,192,49358,1,8,0:0:0:0:
256,192,49458,1,8,0:0:0:0:
256,192,49558,1,0,0:0:0:0:
256,192,49658,1,8,0:0:0:0:
256,192,49758,1,8,0:0:0:0:
256,192,49858,1,0,0:0:0:0:
256,192,49958,1,8,0:0:0:0:
256,192,50158,1,0,0:0:0:0:
256,192,50358,1,8,0:0:0:0:
256,192,50558,1,0,0:0:0:0:
256,192,50658,1,0,0:0:0:0:
256,192,50758,1,8,0:0:0:0:
256,192,50958,1,0,0:0:0:0:
256,192,51058,1,8,0:0:0:0:
256,192,51158,1,8,0:0:0:0:
256,192,51258,1,0,0:0:0:0:
256,192,51358,1,8,0:0:0:0:
256,192,51458,1,0,0:0:0:0:
256,192,51558,1,8,0:0:0:0:
256,192,51758,1,0,0:0:0:0:
256,192,51958,1,8,0:0:0:0:
256,192,52158,1,8,0:0:0:0:
256,192,52258,1,0,0:0:0:0:
256,192,52358,1,8,0:0:0:0:
256,192,52558,1,0,0:0:0:0:
256,192,52658,1,0,0:0:0:0:
256,192,52758,1,8,0:0:0:0:
256,192,52858,1,0,0:0:0:0:
256,192,52958,1,8,0:0:0:0:
256,192,53058,1,8,0:0:0:0:
256,192,53158,1,8,0:0:0:0:
256,192,53258,1,8,0:0:0:0:
256,192,53358,5,4,0:0:0:0:
256,192,53558,1,8,0:0:0:0:
256,192,53758,1,0,0:0:0:0:
256,192,53858,1,0,0:0:0:0:
256,192,53958,1,8,0:0:0:0:
256,192,54058,1,8,0:0:0:0:
256,192,54158,1,0,0:0:0:0:
256,192,54358,1,8,0:0:0:0:
256,192,54558,1,0,0:0:0:0:
256,192,54658,1,0,0:0:0:0:
256,192,54758,1,8,0:0:0:0:
256,192,54958,1,0,0:0:0:0:
256,192,55158,1,8,0:0:0:0:
256,192,55358,1,8,0:0:0:0:
256,192,55458,1,8,0:0:0:0:
256,192,55558,1,0,0:0:0:0:
256,192,55658,1,0,0:0:0:0:
256,192,55758,1,8,0:0:0:0:
256,192,55958,1,8,0:0:0:0:
256,192,56158,1,0,0:0:0:0:
256,192,56258,1,0,0:0:0:0:
256,192,56358,1,8,0:0:0:0:
256,192,56558,1,8,0:0:0:0:
256,192,56758,1,8,0:0:0:0:
256,192,56958,1,0,0:0:0:0:
256,192,57058,1,0,0:0:0:0:
256,192,57158,1,8,0:0:0:0:
256,192,57258,1,0,0:0:0:0:
256,192,57358,1,8,0:0:0:0:
256,192,57558,1,8,0:0:0:0:
256,192,57758,1,0,0:0:0:0:
256,192,57858,1,0,0:0:0:0:
256,192,57958,1,8,0:0:0:0:
256,192,58058,1,8,0:0:0:0:
256,192,58158,1,0,0:0:0:0:
256,192,58358,1,0,0:0:0:0:
256,192,58458,1,8,0:0:0:0:
256,192,58558,1,8,0:0:0:0:
256,192,58658,1,0,0:0:0:0:
256,192,58758,1,8,0:0:0:0:
256,192,58858,1,8,0:0:0:0:
256,192,58958,1,0,0:0:0:0:
256,192,59158,1,8,0:0:0:0:
256,192,59258,1,0,0:0:0:0:
256,192,59358,1,8,0:0:0:0:
256,192,59458,1,8,0:0:0:0:
256,192,59558,1,8,0:0:0:0:
256,192,59658,1,8,0:0:0:0:
256,192,59758,1,0,0:0:0:0:
256,192,59958,1,8,0:0:0:0:
256,192,60158,1,0,0:0:0:0:
256,192,60258,1,0,0:0:0:0:
256,192,60358,1,8,0:0:0:0:
256,192,60458,1,8,0:0:0:0:
256,192,60558,1,0,0:0:0:0:
256,192,60758,1,8,0:0:0:0:
256,192,60958,1,0,0:0:0:0:
256,192,61058,1,0,0:0:0:0:
256,192,61158,1,8,0:0:0:0:
256,192,61358,1,0,0:0:0:0:
256,192,61558,1,8,0:0:0:0:
256,192,61758,1,8,0:0:0:0:
256,192,61858,1,0,0:0:0:0:
256,192,61958,1,8,0:0:0:0:
256,192,62058,1,8,0:0:0:0:
256,192,62158,1,0,0:0:0:0:
256,192,62258,1,8,0:0:0:0:
256,192,62358,1,8,0:0:0:0:
256,192,62458,1,8,0:0:0:0:
256,192,62558,1,0,0:0:0:0:
256,192,62658,1,8,0:0:0:0:
256,192,62758,1,8,0:0:0:0:
256,192,62858,1,8,0:0:0:0:
256,192,62958,1,4,0:0:0:0:
256,192,63558,1,0,0:0:0:0:
256,192,63658,1,0,0:0:0:0:
256,192,63758,1,8,0:0:0:0:
256,192,63958,1,0,0:0:0:0:
256,192,64058,1,8,0:0:0:0:
256,192,64158,1,0,0:0:0:0:
256,192,64258,1,0,0:0:0:0:
256,192,64358,1,8,0:0:0:0:
256,192,64458,1,0,0:0:0:0:
256,192,64558,1,12,0:0:0:0:
256,192,64758,1,0,0:0:0:0:
256,192,64858,1,8,0:0:0:0:
256,192,65058,1,0,0:0:0:0:
256,192,65158,1,8,0:0:0:0:
256,192,65358,1,0,0:0:0:0:
256,192,65558,1,8,0:0:0:0:
256,192,65658,1,8,0:0:0:0:
256,192,65758,1,8,0:0:0:0:
256,192,65858,1,0,0:0:0:0:
256,192,65958,1,8,0:0:0:0:
256,192,66058,1,0,0:0:0:0:
256,192,66158,5,12,0:0:0:0:
256,192,66758,1,0,0:0:0:0:
256,192,66858,1,0,0:0:0:0:
256,192,66958,1,8,0:0:0:0:
256,192,67358,1,0,0:0:0:0:
256,192,67758,1,0,0:0:0:0:
256,192,68058,1,0,0:0:0:0:
256,192,68358,1,0,0:0:0:0:
256,192,68458,1,0,0:0:0:0:
256,192,68558,1,8,0:0:0:0:
256,192,68758,1,0,0:0:0:0:
256,192,68958,1,8,0:0:0:0:
256,192,69158,1,0,0:0:0:0:
256,192,69258,1,0,0:0:0:0:
256,192,69358,1,12,0:0:0:0:
256,192,69958,1,0,0:0:0:0:
256,192,70158,1,8,0:0:0:0:
256,192,70558,1,0,0:0:0:0:
256,192,70958,1,0,0:0:0:0:
256,192,71258,1,0,0:0:0:0:
256,192,71558,1,0,0:0:0:0:
256,192,71758,1,8,0:0:0:0:
256,192,71958,1,0,0:0:0:0:
256,192,72058,1,0,0:0:0:0:
256,192,72158,1,8,0:0:0:0:
256,192,72358,1,8,0:0:0:0:
256,192,72458,1,0,0:0:0:0:
256,192,72558,1,12,0:0:0:0:
256,192,73158,1,0,0:0:0:0:
256,192,73258,1,0,0:0:0:0:
256,192,73358,1,8,0:0:0:0:
256,192,73758,1,0,0:0:0:0:
256,192,74158,1,0,0:0:0:0:
256,192,74458,1,0,0:0:0:0:
256,192,74758,1,0,0:0:0:0:
256,192,74958,1,8,0:0:0:0:
256,192,75158,1,0,0:0:0:0:
256,192,75358,1,8,0:0:0:0:
256,192,75458,1,8,0:0:0:0:
256,192,75558,1,0,0:0:0:0:
256,192,75658,1,0,0:0:0:0:
256,192,75758,1,12,0:0:0:0:
256,192,76058,1,12,0:0:0:0:
256,192,76358,1,4,0:0:0:0:
256,192,76558,1,12,0:0:0:0:
256,192,76758,1,0,0:0:0:0:
256,192,76824,1,0,0:0:0:0:
256,192,76891,1,0,0:0:0:0:
256,192,76958,1,8,0:0:0:0:
256,192,77358,5,4,0:0:0:0:
256,192,77558,1,8,0:0:0:0:
256,192,77758,1,0,0:0:0:0:
256,192,77958,1,0,0:0:0:0:
256,192,78158,1,8,0:0:0:0:
256,192,78358,1,0,0:0:0:0:
256,192,78458,1,8,0:0:0:0:
256,192,78658,1,8,0:0:0:0:
256,192,78758,1,0,0:0:0:0:
256,192,78958,1,0,0:0:0:0:
256,192,79158,1,8,0:0:0:0:
256,192,79358,1,8,0:0:0:0:
256,192,79558,1,0,0:0:0:0:
256,192,79758,1,8,0:0:0:0:
256,192,79958,1,0,0:0:0:0:
256,192,80058,1,8,0:0:0:0:
256,192,80158,1,0,0:0:0:0:
256,192,80258,1,0,0:0:0:0:
256,192,80358,1,8,0:0:0:0:
256,192,80558,1,0,0:0:0:0:
256,192,80758,1,0,0:0:0:0:
256,192,80858,1,0,0:0:0:0:
256,192,80958,1,8,0:0:0:0:
256,192,81058,1,8,0:0:0:0:
256,192,81158,1,8,0:0:0:0:
256,192,81258,1,8,0:0:0:0:
256,192,81358,1,0,0:0:0:0:
256,192,81458,1,8,0:0:0:0:
256,192,81558,1,0,0:0:0:0:
256,192,81658,1,0,0:0:0:0:
256,192,81758,1,8,0:0:0:0:
256,192,81858,1,8,0:0:0:0:
256,192,81958,1,8,0:0:0:0:
256,192,82058,1,8,0:0:0:0:
256,192,82158,1,0,0:0:0:0:
256,192,82258,1,8,0:0:0:0:
256,192,82358,1,8,0:0:0:0:
256,192,82458,1,0,0:0:0:0:
256,192,82558,1,8,0:0:0:0:
256,192,82658,1,8,0:0:0:0:
256,192,82758,1,0,0:0:0:0:
256,192,82858,1,0,0:0:0:0:
256,192,82958,1,8,0:0:0:0:
256,192,83558,1,0,0:0:0:0:
256,192,83658,1,8,0:0:0:0:
256,192,83758,5,4,0:0:0:0:
256,192,83958,1,8,0:0:0:0:
256,192,84058,1,8,0:0:0:0:
256,192,84158,1,0,0:0:0:0:
256,192,84258,1,0,0:0:0:0:
256,192,84358,1,8,0:0:0:0:
256,192,84458,1,0,0:0:0:0:
256,192,84558,1,8,0:0:0:0:
256,192,84658,1,0,0:0:0:0:
256,192,84758,1,8,0:0:0:0:
256,192,84858,1,8,0:0:0:0:
256,192,84958,1,0,0:0:0:0:
256,192,85058,1,0,0:0:0:0:
256,192,85158,1,8,0:0:0:0:
256,192,85258,1,0,0:0:0:0:
256,192,85358,1,8,0:0:0:0:
256,192,85458,1,8,0:0:0:0:
256,192,85558,1,0,0:0:0:0:
256,192,85658,1,8,0:0:0:0:
256,192,85758,1,0,0:0:0:0:
256,192,85858,1,0,0:0:0:0:
256,192,85958,1,8,0:0:0:0:
256,192,86058,1,8,0:0:0:0:
256,192,86158,1,0,0:0:0:0:
256,192,86258,1,0,0:0:0:0:
256,192,86358,1,8,0:0:0:0:
256,192,86458,1,0,0:0:0:0:
256,192,86558,1,8,0:0:0:0:
256,192,86658,1,8,0:0:0:0:
256,192,86758,1,0,0:0:0:0:
256,192,86858,1,8,0:0:0:0:
256,192,86958,1,0,0:0:0:0:
256,192,87058,1,0,0:0:0:0:
256,192,87158,1,8,0:0:0:0:
256,192,87258,1,0,0:0:0:0:
256,192,87358,1,8,0:0:0:0:
256,192,87458,1,8,0:0:0:0:
256,192,87558,1,0,0:0:0:0:
256,192,87658,1,0,0:0:0:0:
256,192,87758,1,8,0:0:0:0:
256,192,87858,1,0,0:0:0:0:
256,192,87958,1,8,0:0:0:0:
256,192,88058,1,8,0:0:0:0:
256,192,88158,1,0,0:0:0:0:
256,192,88258,1,8,0:0:0:0:
256,192,88358,1,0,0:0:0:0:
256,192,88458,1,0,0:0:0:0:
256,192,88558,1,8,0:0:0:0:
256,192,88658,1,0,0:0:0:0:
256,192,88758,1,8,0:0:0:0:
256,192,88858,1,8,0:0:0:0:
256,192,88958,1,0,0:0:0:0:
256,192,89058,1,8,0:0:0:0:
256,192,89158,1,8,0:0:0:0:
256,192,89258,1,0,0:0:0:0:
256,192,89358,1,8,0:0:0:0:
256,192,89458,1,8,0:0:0:0:
256,192,89558,1,0,0:0:0:0:
256,192,89658,1,8,0:0:0:0:
256,192,89758,1,0,0:0:0:0:
256,192,89858,1,8,0:0:0:0:
256,192,89958,1,8,0:0:0:0:
256,192,90058,1,8,0:0:0:0:
256,192,90158,1,4,0:0:0:0:
256,192,90358,1,8,0:0:0:0:
256,192,90558,1,0,0:0:0:0:
256,192,90658,1,0,0:0:0:0:
256,192,90758,1,8,0:0:0:0:
256,192,90958,1,8,0:0:0:0:
256,192,91158,1,8,0:0:0:0:
256,192,91258,1,0,0:0:0:0:
256,192,91358,1,8,0:0:0:0:
256,192,91458,1,0,0:0:0:0:
256,192,91558,1,8,0:0:0:0:
256,192,91758,1,0,0:0:0:0:
256,192,91958,1,8,0:0:0:0:
256,192,92158,1,0,0:0:0:0:
256,192,92258,1,0,0:0:0:0:
256,192,92358,1,8,0:0:0:0:
256,192,92458,1,0,0:0:0:0:
256,192,92558,1,8,0:0:0:0:
256,192,92758,1,8,0:0:0:0:
256,192,92958,1,0,0:0:0:0:
256,192,93058,1,0,0:0:0:0:
256,192,93158,1,8,0:0:0:0:
256,192,93258,1,8,0:0:0:0:
256,192,93358,1,4,0:0:0:0:
256,192,93658,1,12,0:0:0:0:
256,192,93958,1,4,0:0:0:0:
256,192,94158,1,12,0:0:0:0:
256,192,94458,1,12,0:0:0:0:
256,192,94758,1,12,0:0:0:0:
256,192,94958,1,4,0:0:0:0:
256,192,95158,1,8,0:0:0:0:
256,192,95258,1,8,0:0:0:0:
256,192,95358,1,0,0:0:0:0:
256,192,95458,1,8,0:0:0:0:
256,192,95558,1,0,0:0:0:0:
256,192,95658,1,0,0:0:0:0:
256,192,95758,1,8,0:0:0:0:
256,192,95858,1,8,0:0:0:0:
256,192,95958,1,0,0:0:0:0:
256,192,96058,1,0,0:0:0:0:
256,192,96158,1,8,0:0:0:0:
256,192,96258,1,8,0:0:0:0:
256,192,96358,1,8,0:0:0:0:
256,192,96458,1,8,0:0:0:0:
256,192,96558,1,4,0:0:0:0:
256,192,96758,1,8,0:0:0:0:
256,192,96858,1,8,0:0:0:0:
256,192,96958,1,0,0:0:0:0:
256,192,97058,1,0,0:0:0:0:
256,192,97158,1,8,0:0:0:0:
256,192,97258,1,0,0:0:0:0:
256,192,97358,1,8,0:0:0:0:
256,192,97458,1,8,0:0:0:0:
256,192,97558,1,0,0:0:0:0:
256,192,97658,1,8,0:0:0:0:
256,192,97758,1,0,0:0:0:0:
256,192,97858,1,0,0:0:0:0:
256,192,97958,1,8,0:0:0:0:
256,192,98058,1,0,0:0:0:0:
256,192,98158,1,8,0:0:0:0:
256,192,98258,1,8,0:0:0:0:
256,192,98358,1,0,0:0:0:0:
256,192,98458,1,0,0:0:0:0:
256,192,98558,1,8,0:0:0:0:
256,192,98658,1,0,0:0:0:0:
256,192,98758,1,8,0:0:0:0:
256,192,98858,1,8,0:0:0:0:
256,192,98958,1,0,0:0:0:0:
256,192,99058,1,0,0:0:0:0:
256,192,99158,1,8,0:0:0:0:
256,192,99258,1,0,0:0:0:0:
256,192,99358,1,8,0:0:0:0:
256,192,99458,1,0,0:0:0:0:
256,192,99558,1,8,0:0:0:0:
256,192,99658,1,8,0:0:0:0:
256,192,99758,1,0,0:0:0:0:
256,192,99858,1,0,0:0:0:0:
256,192,99958,1,8,0:0:0:0:
256,192,100058,1,0,0:0:0:0:
256,192,100158,1,8,0:0:0:0:
256,192,100258,1,8,0:0:0:0:
256,192,100358,1,0,0:0:0:0:
256,192,100458,1,0,0:0:0:0:
256,192,100558,1,8,0:0:0:0:
256,192,100658,1,0,0:0:0:0:
256,192,100758,1,8,0:0:0:0:
256,192,100858,1,8,0:0:0:0:
256,192,100958,1,0,0:0:0:0:
256,192,101058,1,8,0:0:0:0:
256,192,101158,1,0,0:0:0:0:
256,192,101258,1,0,0:0:0:0:
256,192,101358,1,8,0:0:0:0:
256,192,101458,1,8,0:0:0:0:
256,192,101558,1,0,0:0:0:0:
256,192,101658,1,8,0:0:0:0:
256,192,101758,1,8,0:0:0:0:
256,192,101858,1,0,0:0:0:0:
256,192,101958,1,8,0:0:0:0:
256,192,102058,1,8,0:0:0:0:
256,192,102158,1,0,0:0:0:0:
256,192,102258,1,0,0:0:0:0:
256,192,102358,1,8,0:0:0:0:
256,192,102458,1,0,0:0:0:0:
256,192,102558,1,8,0:0:0:0:
256,192,102658,1,8,0:0:0:0:
256,192,102758,1,8,0:0:0:0:
256,192,102858,1,8,0:0:0:0:
256,192,102958,1,4,0:0:0:0:
256,192,103158,1,8,0:0:0:0:
256,192,103358,1,0,0:0:0:0:
256,192,103458,1,0,0:0:0:0:
256,192,103558,1,8,0:0:0:0:
256,192,103758,1,0,0:0:0:0:
256,192,103958,1,8,0:0:0:0:
256,192,104058,1,0,0:0:0:0:
256,192,104158,1,8,0:0:0:0:
256,192,104258,1,8,0:0:0:0:
256,192,104358,1,0,0:0:0:0:
256,192,104558,1,0,0:0:0:0:
256,192,104758,1,8,0:0:0:0:
256,192,104958,1,0,0:0:0:0:
256,192,105058,1,0,0:0:0:0:
256,192,105158,1,8,0:0:0:0:
256,192,105358,1,0,0:0:0:0:
256,192,105458,1,8,0:0:0:0:
256,192,105558,1,8,0:0:0:0:
256,192,105658,1,0,0:0:0:0:
256,192,105758,1,8,0:0:0:0:
256,192,105858,1,8,0:0:0:0:
256,192,105958,1,0,0:0:0:0:
256,192,106058,1,0,0:0:0:0:
256,192,106158,5,12,0:0:0:0:
256,192,106458,1,0,0:0:0:0:
256,192,106758,1,0,0:0:0:0:
256,192,106858,1,0,0:0:0:0:
256,192,106958,1,8,0:0:0:0:
256,192,107358,1,0,0:0:0:0:
256,192,107758,1,12,0:0:0:0:
256,192,108058,1,0,0:0:0:0:
256,192,108358,1,0,0:0:0:0:
256,192,108558,1,8,0:0:0:0:
256,192,108758,1,0,0:0:0:0:
256,192,108824,1,0,0:0:0:0:
256,192,108891,1,0,0:0:0:0:
256,192,108958,1,8,0:0:0:0:
256,192,109158,1,0,0:0:0:0:
256,192,109258,1,0,0:0:0:0:
256,192,109358,1,12,0:0:0:0:
256,192,109658,1,0,0:0:0:0:
256,192,109958,1,0,0:0:0:0:
256,192,110158,1,8,0:0:0:0:
256,192,110458,1,8,0:0:0:0:
256,192,110558,1,0,0:0:0:0:
256,192,110758,1,8,0:0:0:0:
256,192,110958,1,0,0:0:0:0:
256,192,111158,1,8,0:0:0:0:
256,192,111358,1,0,0:0:0:0:
256,192,111458,1,0,0:0:0:0:
256,192,111558,1,8,0:0:0:0:
256,192,111658,1,0,0:0:0:0:
256,192,111758,1,8,0:0:0:0:
256,192,111858,1,8,0:0:0:0:
256,192,111958,1,8,0:0:0:0:
256,192,112058,1,0,0:0:0:0:
256,192,112158,1,8,0:0:0:0:
256,192,112258,1,8,0:0:0:0:
256,192,112358,1,0,0:0:0:0:
256,192,112558,1,12,0:0:0:0:
256,192,112858,1,8,0:0:0:0:
256,192,113158,1,0,0:0:0:0:
256,192,113224,1,0,0:0:0:0:
256,192,113291,1,0,0:0:0:0:
256,192,113358,1,8,0:0:0:0:
256,192,113758,1,8,0:0:0:0:
256,192,113958,1,0,0:0:0:0:
256,192,114058,1,0,0:0:0:0:
256,192,114158,1,12,0:0:0:0:
256,192,114458,1,4,0:0:0:0:
256,192,114758,1,12,0:0:0:0:
256,192,115158,1,0,0:0:0:0:
256,192,115358,1,8,0:0:0:0:
256,192,115458,1,8,0:0:0:0:
256,192,115558,1,0,0:0:0:0:
256,192,115658,1,0,0:0:0:0:
256,192,115758,1,8,0:0:0:0:
256,192,115958,1,0,0:0:0:0:
256,192,116058,1,0,0:0:0:0:
256,192,116158,1,8,0:0:0:0:
256,192,116358,1,0,0:0:0:0:
256,192,116558,1,8,0:0:0:0:
256,192,116758,1,0,0:0:0:0:
256,192,116858,1,0,0:0:0:0:
256,192,116958,1,8,0:0:0:0:
256,192,117158,1,0,0:0:0:0:
256,192,117358,1,12,0:0:0:0:
256,192,117658,1,4,0:0:0:0:
256,192,117958,1,12,0:0:0:0:
256,192,118358,1,0,0:0:0:0:
256,192,118558,1,8,0:0:0:0:
256,192,118658,1,8,0:0:0:0:
256,192,118758,1,0,0:0:0:0:
256,192,118858,1,0,0:0:0:0:
256,192,118958,1,8,0:0:0:0:
256,192,119158,1,0,0:0:0:0:
256,192,119258,1,0,0:0:0:0:
256,192,119358,1,8,0:0:0:0:
256,192,119558,1,0,0:0:0:0:
256,192,119658,1,0,0:0:0:0:
256,192,119758,1,8,0:0:0:0:
256,192,119891,1,0,0:0:0:0:
256,192,119958,1,0,0:0:0:0:
256,192,120024,1,0,0:0:0:0:
256,192,120091,1,0,0:0:0:0:
256,192,120158,1,8,0:0:0:0:
256,192,120558,5,4,0:0:0:0:
256,192,120758,1,8,0:0:0:0:
256,192,120958,1,0,0:0:0:0:
256,192,121058,1,0,0:0:0:0:
256,192,121158,1,8,0:0:0:0:
256,192,121358,1,0,0:0:0:0:
256,192,121558,1,8,0:0:0:0:
256,192,121658,1,0,0:0:0:0:
256,192,121758,1,0,0:0:0:0:
256,192,121858,1,0,0:0:0:0:
256,192,121958,1,8,0:0:0:0:
256,192,122158,1,0,0:0:0:0:
256,192,122358,1,8,0:0:0:0:
256,192,122558,1,8,0:0:0:0:
256,192,122658,1,0,0:0:0:0:
256,192,122758,1,8,0:0:0:0:
256,192,122958,1,8,0:0:0:0:
256,192,123158,1,8,0:0:0:0:
256,192,123258,1,8,0:0:0:0:
256,192,123358,1,0,0:0:0:0:
256,192,123458,1,0,0:0:0:0:
256,192,123558,1,8,0:0:0:0:
256,192,123758,1,4,0:0:0:0:
256,192,123958,1,8,0:0:0:0:
256,192,124158,1,0,0:0:0:0:
256,192,124258,1,0,0:0:0:0:
256,192,124358,1,8,0:0:0:0:
256,192,124558,1,0,0:0:0:0:
256,192,124758,1,8,0:0:0:0:
256,192,124858,1,0,0:0:0:0:
256,192,124958,1,0,0:0:0:0:
256,192,125058,1,0,0:0:0:0:
256,192,125158,1,8,0:0:0:0:
256,192,125358,1,0,0:0:0:0:
256,192,125558,1,8,0:0:0:0:
256,192,125624,1,8,0:0:0:0:
256,192,125691,1,8,0:0:0:0:
256,192,125758,1,0,0:0:0:0:
256,192,125858,1,8,0:0:0:0:
256,192,125958,1,8,0:0:0:0:
256,192,126058,1,0,0:0:0:0:
256,192,126158,1,8,0:0:0:0:
256,192,126258,1,8,0:0:0:0:
256,192,126358,1,0,0:0:0:0:
256,192,126458,1,0,0:0:0:0:
256,192,126558,1,0,0:0:0:0:
256,192,126658,1,8,0:0:0:0:
256,192,126758,1,0,0:0:0:0:
256,192,126958,5,8,0:0:0:0:
256,192,127358,1,0,0:0:0:0:
256,192,127558,1,0,0:0:0:0:
256,192,127658,1,8,0:0:0:0:
256,192,127958,1,0,0:0:0:0:
256,192,128158,1,0,0:0:0:0:
256,192,128358,1,8,0:0:0:0:
256,192,128558,1,8,0:0:0:0:
256,192,128958,1,0,0:0:0:0:
256,192,129158,1,8,0:0:0:0:
256,192,129258,1,0,0:0:0:0:
256,192,129358,1,8,0:0:0:0:
256,192,129758,1,0,0:0:0:0:
256,192,129958,1,0,0:0:0:0:
256,192,130058,1,8,0:0:0:0:
256,192,130158,1,8,0:0:0:0:
256,192,130558,1,0,0:0:0:0:
256,192,130758,1,8,0:0:0:0:
256,192,130858,1,0,0:0:0:0:
256,192,130958,1,8,0:0:0:0:
256,192,131158,1,0,0:0:0:0:
256,192,131358,1,8,0:0:0:0:
256,192,131558,1,0,0:0:0:0:
256,192,131658,1,8,0:0:0:0:
256,192,131758,1,0,0:0:0:0:
256,192,131958,1,8,0:0:0:0:
256,192,132058,1,8,0:0:0:0:
256,192,132158,1,0,0:0:0:0:
256,192,132258,1,0,0:0:0:0:
256,192,132358,1,8,0:0:0:0:
256,192,132458,1,8,0:0:0:0:
256,192,132558,1,0,0:0:0:0:
256,192,132658,1,8,0:0:0:0:
256,192,132758,1,0,0:0:0:0:
256,192,132858,1,0,0:0:0:0:
256,192,132958,1,8,0:0:0:0:
256,192,133158,1,0,0:0:0:0:
256,192,133258,1,8,0:0:0:0:
256,192,133358,1,0,0:0:0:0:
256,192,133758,1,8,0:0:0:0:
256,192,133958,1,0,0:0:0:0:
256,192,134058,1,8,0:0:0:0:
256,192,134558,1,0,0:0:0:0:
256,192,134758,1,8,0:0:0:0:
256,192,134958,1,0,0:0:0:0:
256,192,135358,1,8,0:0:0:0:
256,192,135558,1,8,0:0:0:0:
256,192,135658,1,0,0:0:0:0:
256,192,135758,1,8,0:0:0:0:
256,192,136158,1,0,0:0:0:0:
256,192,136358,1,0,0:0:0:0:
256,192,136558,1,12,0:0:0:0:
256,192,137158,1,0,0:0:0:0:
256,192,137258,1,0,0:0:0:0:
256,192,137358,1,8,0:0:0:0:
256,192,137558,1,0,0:0:0:0:
256,192,137658,1,8,0:0:0:0:
256,192,137758,1,0,0:0:0:0:
256,192,137858,1,8,0:0:0:0:
256,192,137958,1,8,0:0:0:0:
256,192,138058,1,0,0:0:0:0:
256,192,138158,1,8,0:0:0:0:
256,192,138358,1,0,0:0:0:0:
256,192,138458,1,8,0:0:0:0:
256,192,138658,1,0,0:0:0:0:
256,192,138758,1,8,0:0:0:0:
256,192,138958,1,8,0:0:0:0:
256,192,139058,1,0,0:0:0:0:
256,192,139158,1,8,0:0:0:0:
256,192,139258,1,8,0:0:0:0:
256,192,139358,1,0,0:0:0:0:
256,192,139458,1,0,0:0:0:0:
256,192,139558,1,0,0:0:0:0:
256,192,139658,1,8,0:0:0:0:
256,192,139758,1,8,0:0:0:0:
256,192,140158,1,8,0:0:0:0:
256,192,140558,1,0,0:0:0:0:
256,192,140958,1,0,0:0:0:0:
256,192,141358,1,8,0:0:0:0:
256,192,141758,1,0,0:0:0:0:
256,192,141958,1,0,0:0:0:0:
256,192,142158,1,8,0:0:0:0:
256,192,142358,1,0,0:0:0:0:
256,192,142458,1,8,0:0:0:0:
256,192,142558,1,8,0:0:0:0:
256,192,142658,1,0,0:0:0:0:
256,192,142758,1,0,0:0:0:0:
256,192,142858,1,0,0:0:0:0:
256,192,142958,1,8,0:0:0:0:
256,192,143358,1,8,0:0:0:0:
256,192,143758,1,0,0:0:0:0:
256,192,144158,1,0,0:0:0:0:
256,192,144558,1,8,0:0:0:0:
256,192,144758,1,0,0:0:0:0:
256,192,144958,1,8,0:0:0:0:
256,192,145058,1,0,0:0:0:0:
256,192,145258,1,0,0:0:0:0:
256,192,145358,1,8,0:0:0:0:
256,192,145558,1,8,0:0:0:0:
256,192,145658,1,0,0:0:0:0:
256,192,145758,1,8,0:0:0:0:
256,192,145858,1,0,0:0:0:0:
256,192,145958,1,0,0:0:0:0:
256,192,146058,1,8,0:0:0:0:
256,192,146158,1,8,0:0:0:0:
256,192,146558,1,8,0:0:0:0:
256,192,146958,1,0,0:0:0:0:
256,192,147358,1,8,0:0:0:0:
256,192,147758,1,0,0:0:0:0:
256,192,148058,1,0,0:0:0:0:
256,192,148158,1,8,0:0:0:0:
256,192,148358,1,8,0:0:0:0:
256,192,148558,1,0,0:0:0:0:
256,192,148958,1,8,0:0:0:0:
256,192,149058,1,8,0:0:0:0:
256,192,149158,1,0,0:0:0:0:
256,192,149258,1,8,0:0:0:0:
256,192,149358,1,0,0:0:0:0:
256,192,149658,1,8,0:0:0:0:
256,192,149958,1,0,0:0:0:0:
256,192,150158,1,8,0:0:0:0:
256,192,150358,1,0,0:0:0:0:
256,192,150424,1,0,0:0:0:0:
256,192,150491,1,0,0:0:0:0:
256,192,150558,1,8,0:0:0:0:
256,192,150958,1,0,0:0:0:0:
256,192,151158,1,0,0:0:0:0:
256,192,151358,1,8,0:0:0:0:
256,192,151558,1,0,0:0:0:0:
256,192,151758,1,8,0:0:0:0:
256,192,151858,1,0,0:0:0:0:
256,192,151958,1,0,0:0:0:0:
256,192,152058,1,0,0:0:0:0:
256,192,152158,1,8,0:0:0:0:
256,192,152258,1,0,0:0:0:0:
256,192,152358,1,8,0:0:0:0:
256,192,152558,1,0,0:0:0:0:
256,192,152758,1,8,0:0:0:0:
256,192,152958,1,0,0:0:0:0:
256,192,153058,1,0,0:0:0:0:
256,192,153158,1,0,0:0:0:0:
256,192,153358,1,0,0:0:0:0:
256,192,153458,1,0,0:0:0:0:
256,192,153558,1,8,0:0:0:0:
256,192,153658,1,0,0:0:0:0:
256,192,153758,1,8,0:0:0:0:
256,192,153858,1,0,0:0:0:0:
256,192,153958,1,8,0:0:0:0:
256,192,154158,1,8,0:0:0:0:
256,192,154358,1,0,0:0:0:0:
256,192,154558,1,8,0:0:0:0:
256,192,154658,1,8,0:0:0:0:
256,192,154758,1,0,0:0:0:0:
256,192,154858,1,0,0:0:0:0:
256,192,154958,1,8,0:0:0:0:
256,192,155258,1,0,0:0:0:0:
256,192,155558,1,0,0:0:0:0:
256,192,155758,1,8,0:0:0:0:
256,192,155858,1,0,0:0:0:0:
256,192,155958,1,8,0:0:0:0:
256,192,156058,1,8,0:0:0:0:
256,192,156158,1,0,0:0:0:0:
256,192,156258,1,8,0:0:0:0:
256,192,156358,1,0,0:0:0:0:
256,192,156458,1,0,0:0:0:0:
256,192,156558,1,8,0:0:0:0:
256,192,156658,1,8,0:0:0:0:
256,192,156758,1,0,0:0:0:0:
256,192,156858,1,0,0:0:0:0:
256,192,156958,1,8,0:0:0:0:
256,192,157158,1,0,0:0:0:0:
256,192,157258,1,8,0:0:0:0:
256,192,157358,1,4,0:0:0:0:
256,192,157558,1,8,0:0:0:0:
256,192,157658,1,0,0:0:0:0:
256,192,157758,1,8,0:0:0:0:
256,192,157858,1,8,0:0:0:0:
256,192,157958,1,0,0:0:0:0:
256,192,158058,1,0,0:0:0:0:
256,192,158158,1,8,0:0:0:0:
256,192,158258,1,8,0:0:0:0:
256,192,158358,1,0,0:0:0:0:
256,192,158458,1,8,0:0:0:0:
256,192,158558,1,0,0:0:0:0:
256,192,158658,1,0,0:0:0:0:
256,192,158758,1,8,0:0:0:0:
256,192,158858,1,0,0:0:0:0:
256,192,158958,1,8,0:0:0:0:
256,192,159058,1,8,0:0:0:0:
256,192,159158,1,0,0:0:0:0:
256,192,159258,1,8,0:0:0:0:
256,192,159358,1,0,0:0:0:0:
256,192,159458,1,0,0:0:0:0:
256,192,159558,1,8,0:0:0:0:
256,192,159658,1,0,0:0:0:0:
256,192,159758,1,8,0:0:0:0:
256,192,159858,1,0,0:0:0:0:
256,192,159958,1,0,0:0:0:0:
256,192,160058,1,0,0:0:0:0:
256,192,160158,1,8,0:0:0:0:
256,192,160258,1,8,0:0:0:0:
256,192,160358,1,0,0:0:0:0:
256,192,160458,1,0,0:0:0:0:
256,192,160558,1,8,0:0:0:0:
256,192,160658,1,0,0:0:0:0:
256,192,160758,1,0,0:0:0:0:
256,192,160858,1,0,0:0:0:0:
256,192,160958,1,8,0:0:0:0:
256,192,161058,1,0,0:0:0:0:
256,192,161158,1,0,0:0:0:0:
256,192,161258,1,0,0:0:0:0:
256,192,161358,1,8,0:0:0:0:
256,192,161458,1,8,0:0:0:0:
256,192,161558,1,0,0:0:0:0:
256,192,161658,1,0,0:0:0:0:
256,192,161758,1,8,0:0:0:0:
256,192,161858,1,0,0:0:0:0:
256,192,161958,1,0,0:0:0:0:
256,192,162058,1,0,0:0:0:0:
256,192,162158,1,8,0:0:0:0:
256,192,162258,1,8,0:0:0:0:
256,192,162358,1,0,0:0:0:0:
256,192,162458,1,8,0:0:0:0:
256,192,162558,1,0,0:0:0:0:
256,192,162658,1,0,0:0:0:0:
256,192,162758,1,8,0:0:0:0:
256,192,162858,1,0,0:0:0:0:
256,192,162958,1,8,0:0:0:0:
256,192,163058,1,8,0:0:0:0:
256,192,163158,1,0,0:0:0:0:
256,192,163258,1,0,0:0:0:0:
256,192,163358,1,8,0:0:0:0:
256,192,163458,1,0,0:0:0:0:
256,192,163558,1,8,0:0:0:0:
256,192,163658,1,8,0:0:0:0:
256,192,163758,1,4,0:0:0:0:
256,192,163958,1,8,0:0:0:0:
256,192,164158,1,0,0:0:0:0:
256,192,164258,1,0,0:0:0:0:
256,192,164358,1,8,0:0:0:0:
256,192,164458,1,0,0:0:0:0:
256,192,164558,1,8,0:0:0:0:
256,192,164758,1,8,0:0:0:0:
256,192,164958,1,0,0:0:0:0:
256,192,165158,1,8,0:0:0:0:
256,192,165358,1,0,0:0:0:0:
256,192,165558,1,8,0:0:0:0:
256,192,165758,1,0,0:0:0:0:
256,192,165958,1,8,0:0:0:0:
256,192,166058,1,8,0:0:0:0:
256,192,166158,1,0,0:0:0:0:
256,192,166358,1,8,0:0:0:0:
256,192,166558,1,0,0:0:0:0:
256,192,166658,1,0,0:0:0:0:
256,192,166758,1,0,0:0:0:0:
256,192,166858,1,0,0:0:0:0:
256,192,166958,1,12,0:0:0:0:
256,192,167258,1,4,0:0:0:0:
256,192,167558,1,12,0:0:0:0:
256,192,167758,1,12,0:0:0:0:
256,192,168058,1,4,0:0:0:0:
256,192,168358,1,12,0:0:0:0:
256,192,168558,1,12,0:0:0:0:
256,192,168758,1,0,0:0:0:0:
256,192,168858,1,0,0:0:0:0:
256,192,168958,1,8,0:0:0:0:
256,192,169058,1,0,0:0:0:0:
256,192,169158,1,8,0:0:0:0:
256,192,169258,1,0,0:0:0:0:
256,192,169358,1,8,0:0:0:0:
256,192,169458,1,8,0:0:0:0:
256,192,169558,1,0,0:0:0:0:
256,192,169658,1,8,0:0:0:0:
256,192,169758,1,0,0:0:0:0:
256,192,169858,1,0,0:0:0:0:
256,192,169958,1,8,0:0:0:0:
256,192,170058,1,8,0:0:0:0:
256,192,170158,1,4,0:0:0:0:
256,192,170358,1,8,0:0:0:0:
256,192,170458,1,8,0:0:0:0:
256,192,170558,1,0,0:0:0:0:
256,192,170658,1,8,0:0:0:0:
256,192,170758,1,8,0:0:0:0:
256,192,170858,1,0,0:0:0:0:
256,192,170958,1,8,0:0:0:0:
256,192,171058,1,0,0:0:0:0:
256,192,171158,1,8,0:0:0:0:
256,192,171258,1,8,0:0:0:0:
256,192,171358,1,0,0:0:0:0:
256,192,171458,1,0,0:0:0:0:
256,192,171558,1,8,0:0:0:0:
256,192,171658,1,0,0:0:0:0:
256,192,171758,1,8,0:0:0:0:
256,192,171858,1,8,0:0:0:0:
256,192,171958,1,0,0:0:0:0:
256,192,172058,1,8,0:0:0:0:
256,192,172158,1,0,0:0:0:0:
256,192,172258,1,8,0:0:0:0:
256,192,172358,1,8,0:0:0:0:
256,192,172458,1,0,0:0:0:0:
256,192,172558,1,0,0:0:0:0:
256,192,172658,1,0,0:0:0:0:
256,192,172758,1,8,0:0:0:0:
256,192,172858,1,0,0:0:0:0:
256,192,172958,1,8,0:0:0:0:
256,192,173058,1,8,0:0:0:0:
256,192,173158,1,0,0:0:0:0:
256,192,173258,1,8,0:0:0:0:
256,192,173358,1,0,0:0:0:0:
256,192,173458,1,0,0:0:0:0:
256,192,173558,1,8,0:0:0:0:
256,192,173658,1,0,0:0:0:0:
256,192,173758,1,8,0:0:0:0:
256,192,173858,1,0,0:0:0:0:
256,192,173958,1,8,0:0:0:0:
256,192,174058,1,8,0:0:0:0:
256,192,174158,1,0,0:0:0:0:
256,192,174258,1,8,0:0:0:0:
256,192,174358,1,8,0:0:0:0:
256,192,174458,1,0,0:0:0:0:
256,192,174558,1,0,0:0:0:0:
256,192,174658,1,0,0:0:0:0:
256,192,174758,1,8,0:0:0:0:
256,192,174858,1,0,0:0:0:0:
256,192,174958,1,8,0:0:0:0:
256,192,175058,1,8,0:0:0:0:
256,192,175158,1,0,0:0:0:0:
256,192,175258,1,8,0:0:0:0:
256,192,175358,1,8,0:0:0:0:
256,192,175458,1,0,0:0:0:0:
256,192,175558,1,8,0:0:0:0:
256,192,175658,1,0,0:0:0:0:
256,192,175758,1,8,0:0:0:0:
256,192,175858,1,0,0:0:0:0:
256,192,175958,1,8,0:0:0:0:
256,192,176058,1,8,0:0:0:0:
256,192,176158,1,0,0:0:0:0:
256,192,176258,1,0,0:0:0:0:
256,192,176358,1,8,0:0:0:0:
256,192,176458,1,8,0:0:0:0:
256,192,176558,1,4,0:0:0:0:
256,192,176758,1,8,0:0:0:0:
256,192,176958,1,0,0:0:0:0:
256,192,177158,1,8,0:0:0:0:
256,192,177258,1,8,0:0:0:0:
256,192,177358,1,0,0:0:0:0:
256,192,177558,1,8,0:0:0:0:
256,192,177758,1,8,0:0:0:0:
256,192,177858,1,0,0:0:0:0:
256,192,177958,1,0,0:0:0:0:
256,192,178158,1,8,0:0:0:0:
256,192,178358,1,8,0:0:0:0:
256,192,178458,1,0,0:0:0:0:
256,192,178658,1,8,0:0:0:0:
256,192,178758,1,0,0:0:0:0:
256,192,178958,1,8,0:0:0:0:
256,192,179058,1,8,0:0:0:0:
256,192,179158,1,0,0:0:0:0:
256,192,179258,1,8,0:0:0:0:
256,192,179358,1,8,0:0:0:0:
256,192,179458,1,0,0:0:0:0:
256,192,179558,1,8,0:0:0:0:
256,192,179758,1,4,0:0:0:0:
256,192,180058,1,8,0:0:0:0:
256,192,180358,1,0,0:0:0:0:
256,192,180558,1,8,0:0:0:0:
256,192,180958,1,0,0:0:0:0:
256,192,181358,1,12,0:0:0:0:
256,192,181658,1,8,0:0:0:0:
256,192,181958,1,0,0:0:0:0:
256,192,182058,1,0,0:0:0:0:
256,192,182158,1,8,0:0:0:0:
256,192,182358,1,0,0:0:0:0:
256,192,182558,1,0,0:0:0:0:
256,192,182758,1,8,0:0:0:0:
256,192,182958,1,12,0:0:0:0:
256,192,183258,1,0,0:0:0:0:
256,192,183558,1,8,0:0:0:0:
256,192,183758,1,0,0:0:0:0:
256,192,184058,1,8,0:0:0:0:
256,192,184158,1,0,0:0:0:0:
256,192,184358,1,8,0:0:0:0:
256,192,184558,1,0,0:0:0:0:
256,192,184758,1,8,0:0:0:0:
256,192,184958,1,0,0:0:0:0:
256,192,185058,1,8,0:0:0:0:
256,192,185158,1,8,0:0:0:0:
256,192,185358,1,0,0:0:0:0:
256,192,185558,1,0,0:0:0:0:
256,192,185758,1,0,0:0:0:0:
256,192,185858,1,8,0:0:0:0:
256,192,185958,1,8,0:0:0:0:
256,192,186058,1,0,0:0:0:0:
256,192,186158,1,12,0:0:0:0:
256,192,186458,1,8,0:0:0:0:
256,192,186758,1,0,0:0:0:0:
256,192,186858,1,8,0:0:0:0:
256,192,186958,1,0,0:0:0:0:
256,192,187358,1,8,0:0:0:0:
256,192,187758,1,12,0:0:0:0:
256,192,188158,1,8,0:0:0:0:
256,192,188358,1,8,0:0:0:0:
256,192,188458,1,0,0:0:0:0:
256,192,188558,1,8,0:0:0:0:
256,192,188958,1,0,0:0:0:0:
256,192,189358,1,8,0:0:0:0:
256,192,189658,1,8,0:0:0:0:
256,192,189958,1,0,0:0:0:0:
256,192,190058,1,0,0:0:0:0:
256,192,190158,1,8,0:0:0:0:
256,192,190558,1,8,0:0:0:0:
256,192,190758,1,0,0:0:0:0:
256,192,190958,1,12,0:0:0:0:
256,192,191358,1,0,0:0:0:0:
256,192,191558,1,8,0:0:0:0:
256,192,191658,1,0,0:0:0:0:
256,192,191758,1,8,0:0:0:0:
256,192,192158,1,0,0:0:0:0:
256,192,192558,1,8,0:0:0:0:
256,192,192858,1,8,0:0:0:0:
256,192,193158,1,0,0:0:0:0:
256,192,193258,1,0,0:0:0:0:
256,192,193358,1,8,0:0:0:0:
256,192,193558,1,0,0:0:0:0:
256,192,193758,1,8,0:0:0:0:
256,192,193858,1,0,0:0:0:0:
256,192,193958,1,0,0:0:0:0:
256,192,194158,1,12,0:0:0:0:
256,192,194758,1,0,0:0:0:0:
256,192,194858,1,0,0:0:0:0:
256,192,194958,1,8,0:0:0:0:
256,192,195358,1,0,0:0:0:0:
256,192,195758,1,8,0:0:0:0:
256,192,196058,1,8,0:0:0:0:
256,192,196358,1,0,0:0:0:0:
256,192,196458,1,0,0:0:0:0:
256,192,196558,1,8,0:0:0:0:
256,192,196958,1,0,0:0:0:0:
256,192,197358,1,12,0:0:0:0:
256,192,197958,1,0,0:0:0:0:
256,192,198058,1,0,0:0:0:0:
256,192,198158,1,8,0:0:0:0:
256,192,198358,1,0,0:0:0:0:
256,192,198424,1,0,0:0:0:0:
256,192,198491,1,0,0:0:0:0:
256,192,198558,1,8,0:0:0:0:
256,192,198758,1,0,0:0:0:0:
256,192,198958,1,12,0:0:0:0:
256,192,199258,1,12,0:0:0:0:
256,192,199558,1,4,0:0:0:0:
256,192,199758,1,12,0:0:0:0:
256,192,200058,1,4,0:0:0:0:
256,192,200358,1,4,0:0:0:0:
256,192,200558,1,12,0:0:0:0:
256,192,200758,1,0,0:0:0:0:
256,192,200958,1,8,0:0:0:0:
256,192,201058,1,0,0:0:0:0:
256,192,201158,1,8,0:0:0:0:
256,192,201258,1,0,0:0:0:0:
256,192,201358,1,8,0:0:0:0:
256,192,201558,1,0,0:0:0:0:
256,192,201758,1,0,0:0:0:0:
256,192,201958,1,8,0:0:0:0:
256,192,202158,1,0,0:0:0:0:
256,192,202358,1,0,0:0:0:0:
256,192,202458,1,8,0:0:0:0:
256,192,202658,1,0,0:0:0:0:
256,192,202758,1,8,0:0:0:0:
256,192,202958,1,8,0:0:0:0:
256,192,203158,1,0,0:0:0:0:
256,192,203258,1,0,0:0:0:0:
256,192,203358,1,8,0:0:0:0:
256,192,203558,1,8,0:0:0:0:
256,192,203758,1,0,0:0:0:0:
256,192,203958,1,0,0:0:0:0:
256,192,204058,1,8,0:0:0:0:
256,192,204358,1,0,0:0:0:0:
256,192,204758,1,8,0:0:0:0:
256,192,204958,1,8,0:0:0:0:
256,192,205158,1,0,0:0:0:0:
256,192,205358,1,8,0:0:0:0:
256,192,205458,1,0,0:0:0:0:
256,192,205658,1,0,0:0:0:0:
256,192,205758,1,8,0:0:0:0:
256,192,205958,1,8,0:0:0:0:
256,192,206158,1,0,0:0:0:0:
256,192,206358,1,8,0:0:0:0:
256,192,206458,1,0,0:0:0:0:
256,192,206558,1,8,0:0:0:0:
256,192,206658,1,8,0:0:0:0:
256,192,206758,1,0,0:0:0:0:
256,192,206858,1,0,0:0:0:0:
256,192,206958,1,8,0:0:0:0:
256,192,207158,1,0,0:0:0:0:
256,192,207358,1,8,0:0:0:0:
256,192,207458,1,8,0:0:0:0:
256,192,207558,1,0,0:0:0:0:
256,192,207758,1,8,0:0:0:0:
256,192,207958,1,0,0:0:0:0:
256,192,208158,1,8,0:0:0:0:
256,192,208258,1,0,0:0:0:0:
256,192,208358,1,8,0:0:0:0:
256,192,208558,1,0,0:0:0:0:
256,192,208758,1,8,0:0:0:0:
256,192,208858,1,0,0:0:0:0:
256,192,208958,1,8,0:0:0:0:
256,192,209058,1,8,0:0:0:0:
256,192,209158,1,0,0:0:0:0:
256,192,209358,1,0,0:0:0:0:
256,192,209558,1,8,0:0:0:0:
256,192,209658,1,0,0:0:0:0:
256,192,209758,1,0,0:0:0:0:
256,192,209858,1,0,0:0:0:0:
256,192,209958,1,8,0:0:0:0:
256,192,210158,1,0,0:0:0:0:
256,192,210358,1,8,0:0:0:0:
256,192,210558,1,0,0:0:0:0:
256,192,210658,1,0,0:0:0:0:
256,192,210758,1,8,0:0:0:0:
256,192,210958,1,0,0:0:0:0:
256,192,211158,1,8,0:0:0:0:
256,192,211258,1,8,0:0:0:0:
256,192,211358,1,0,0:0:0:0:
256,192,211458,1,0,0:0:0:0:
256,192,211558,1,8,0:0:0:0:
256,192,211758,1,0,0:0:0:0:
256,192,211958,1,8,0:0:0:0:
256,192,212158,1,0,0:0:0:0:
256,192,212258,1,0,0:0:0:0:
256,192,212358,1,8,0:0:0:0:
256,192,212558,1,0,0:0:0:0:
256,192,212658,1,0,0:0:0:0:
256,192,212758,1,8,0:0:0:0:
256,192,212858,1,0,0:0:0:0:
256,192,212958,1,8,0:0:0:0:
256,192,213058,1,0,0:0:0:0:
256,192,213158,1,0,0:0:0:0:
256,192,213358,1,8,0:0:0:0:
256,192,213458,1,0,0:0:0:0:
256,192,213558,1,8,0:0:0:0:
256,192,213658,1,8,0:0:0:0:
256,192,213958,1,0,0:0:0:0:
256,192,214058,1,0,0:0:0:0:
256,192,214158,1,8,0:0:0:0:
256,192,214258,1,8,0:0:0:0:
256,192,214558,1,8,0:0:0:0:
256,192,214658,1,0,0:0:0:0:
256,192,214758,1,8,0:0:0:0:
256,192,214858,1,0,0:0:0:0:
256,192,215158,1,0,0:0:0:0:
256,192,215258,1,8,0:0:0:0:
256,192,215358,1,0,0:0:0:0:
256,192,215458,1,0,0:0:0:0:
256,192,215758,1,12,0:0:0:0:
256,192,216058,1,12,0:0:0:0:
256,192,216358,1,12,0:0:0:0:
256,192,216558,1,0,0:0:0:0:
256,192,216658,1,0,0:0:0:0:
256,192,216758,1,0,0:0:0:0:
256,192,216858,1,0,0:0:0:0:
256,192,217158,1,8,0:0:0:0:
256,192,217258,1,8,0:0:0:0:
256,192,217358,1,8,0:0:0:0:
256,192,217458,1,8,0:0:0:0:
256,192,217758,1,0,0:0:0:0:
256,192,217858,1,0,0:0:0:0:
256,192,217958,1,8,0:0:0:0:
256,192,218058,1,8,0:0:0:0:
256,192,218358,1,0,0:0:0:0:
256,192,218458,1,8,0:0:0:0:
256,192,218558,1,0,0:0:0:0:
256,192,218658,1,8,0:0:0:0:
256,192,218758,1,0,0:0:0:0:
256,192,218858,1,0,0:0:0:0:
256,192,218958,1,12,0:0:0:0:
256,192,219258,1,12,0:0:0:0:
256,192,219558,1,12,0:0:0:0:
256,192,219758,1,4,0:0:0:0:
256,192,220158,1,0,0:0:0:0:
256,192,220358,1,8,0:0:0:0:
256,192,220558,1,8,0:0:0:0:
256,192,221358,1,0,0:0:0:0:
256,192,221658,1,8,0:0:0:0:
256,192,221958,1,0,0:0:0:0:
256,192,222158,1,8,0:0:0:0:
256,192,222558,1,8,0:0:0:0:
256,192,222958,1,0,0:0:0:0:
256,192,223158,1,0,0:0:0:0:
256,192,223358,1,8,0:0:0:0:
256,192,223558,1,0,0:0:0:0:
256,192,223758,1,8,0:0:0:0:
256,192,224558,1,0,0:0:0:0:
256,192,224758,1,8,0:0:0:0:
256,192,224958,1,0,0:0:0:0:
256,192,225158,1,8,0:0:0:0:
256,192,225358,1,8,0:0:0:0:
256,192,225558,1,0,0:0:0:0:
256,192,225758,1,8,0:0:0:0:
256,192,225958,1,8,0:0:0:0:
256,192,226058,1,0,0:0:0:0:
256,192,226158,1,8,0:0:0:0:
256,192,226458,1,0,0:0:0:0:
256,192,226758,1,8,0:0:0:0:
256,192,226958,1,0,0:0:0:0:
256,192,227758,1,0,0:0:0:0:
256,192,228058,1,0,0:0:0:0:
256,192,228358,1,8,0:0:0:0:
256,192,228558,1,0,0:0:0:0:
256,192,228958,1,8,0:0:0:0:
256,192,229358,1,8,0:0:0:0:
256,192,229658,1,8,0:0:0:0:
256,192,229758,1,0,0:0:0:0:
256,192,229958,1,0,0:0:0:0:
256,192,230158,1,8,0:0:0:0:
256,192,230758,1,8,0:0:0:0:
256,192,230958,1,8,0:0:0:0:
256,192,231158,1,0,0:0:0:0:
256,192,231358,1,8,0:0:0:0:
256,192,231558,1,0,0:0:0:0:
256,192,231758,1,8,0:0:0:0:
256,192,231958,1,8,0:0:0:0:
256,192,232158,1,0,0:0:0:0:
256,192,232358,1,8,0:0:0:0:
256,192,232458,1,0,0:0:0:0:
256,192,232558,1,8,0:0:0:0:
256,192,233358,1,0,0:0:0:0:
256,192,233558,1,0,0:0:0:0:
256,192,233758,1,8,0:0:0:0:
256,192,233958,1,0,0:0:0:0:
256,192,234058,1,8,0:0:0:0:
256,192,234158,1,0,0:0:0:0:
256,192,234358,1,0,0:0:0:0:
256,192,234558,1,8,0:0:0:0:
256,192,234758,1,0,0:0:0:0:
256,192,234958,1,8,0:0:0:0:
256,192,235558,1,8,0:0:0:0:
256,192,235758,1,0,0:0:0:0:
256,192,236158,1,8,0:0:0:0:
256,192,236358,1,0,0:0:0:0:
256,192,236558,1,8,0:0:0:0:
256,192,236658,1,8,0:0:0:0:
256,192,236858,1,0,0:0:0:0:
256,192,236958,1,8,0:0:0:0:
256,192,237158,1,0,0:0:0:0:
256,192,237358,1,8,0:0:0:0:
256,192,238158,1,8,0:0:0:0:
256,192,238758,1,0,0:0:0:0:
256,192,238858,1,8,0:0:0:0:
256,192,238958,1,8,0:0:0:0:
256,192,239258,1,0,0:0:0:0:
256,192,239558,1,8,0:0:0:0:
256,192,239758,1,0,0:0:0:0:
256,192,239958,1,8,0:0:0:0:
256,192,240158,1,0,0:0:0:0:
256,192,240358,1,8,0:0:0:0:
256,192,240458,1,0,0:0:0:0:
256,192,240558,1,8,0:0:0:0:
256,192,241158,1,0,0:0:0:0:
256,192,241358,1,8,0:0:0:0:
256,192,241558,1,8,0:0:0:0:
256,192,241758,1,0,0:0:0:0:
256,192,241958,1,0,0:0:0:0:
256,192,242158,1,8,0:0:0:0:
256,192,242958,1,0,0:0:0:0:
256,192,243758,1,8,0:0:0:0:
256,192,244558,1,0,0:0:0:0:
256,192,245358,1,12,0:0:0:0:
256,192,245558,1,8,0:0:0:0:
256,192,245958,1,0,0:0:0:0:
256,192,246158,1,8,0:0:0:0:
256,192,246458,1,8,0:0:0:0:
256,192,246558,1,0,0:0:0:0:
256,192,246758,1,8,0:0:0:0:
256,192,246958,1,0,0:0:0:0:
256,192,247258,1,0,0:0:0:0:
256,192,247358,1,8,0:0:0:0:
256,192,247558,1,0,0:0:0:0:
256,192,247758,1,8,0:0:0:0:
256,192,247958,1,8,0:0:0:0:
256,192,248158,1,0,0:0:0:0:
256,192,248558,1,8,0:0:0:0:
256,192,248758,1,0,0:0:0:0:
256,192,249058,1,0,0:0:0:0:
256,192,249158,1,0,0:0:0:0:
256,192,249358,1,8,0:0:0:0:
256,192,249658,1,0,0:0:0:0:
256,192,249958,1,8,0:0:0:0:
256,192,250158,1,0,0:0:0:0:
256,192,250458,1,0,0:0:0:0:
256,192,250758,1,0,0:0:0:0:
256,192,250958,1,8,0:0:0:0:
256,192,251158,1,8,0:0:0:0:
256,192,251358,1,0,0:0:0:0:
256,192,251558,1,8,0:0:0:0:
256,192,251658,1,8,0:0:0:0:
256,192,251758,1,0,0:0:0:0:
256,192,252358,1,0,0:0:0:0:
256,192,252558,1,8,0:0:0:0:
256,192,252758,1,0,0:0:0:0:
256,192,253158,1,8,0:0:0:0:
256,192,253358,1,0,0:0:0:0:
256,192,253958,1,0,0:0:0:0:
256,192,254158,1,8,0:0:0:0:
256,192,254358,1,0,0:0:0:0:
256,192,254458,1,8,0:0:0:0:
256,192,254558,1,0,0:0:0:0:
256,192,254758,1,8,0:0:0:0:
256,192,254958,1,0,0:0:0:0:
256,192,255258,1,8,0:0:0:0:
256,192,255358,1,0,0:0:0:0:
256,192,255558,1,0,0:0:0:0:
256,192,255758,1,8,0:0:0:0:
256,192,255958,1,0,0:0:0:0:
256,192,256158,1,8,0:0:0:0:
256,192,256358,1,8,0:0:0:0:
256,192,256558,1,0,0:0:0:0:
256,192,256758,1,0,0:0:0:0:
256,192,256958,1,8,0:0:0:0:
256,192,257158,1,0,0:0:0:0:
256,192,257358,1,8,0:0:0:0:
256,192,257558,1,8,0:0:0:0:
256,192,257758,1,0,0:0:0:0:
256,192,257958,1,8,0:0:0:0:
256,192,258158,1,8,0:0:0:0:
256,192,258358,1,8,0:0:0:0:
256,192,258458,1,0,0:0:0:0:
256,192,258558,1,8,0:0:0:0:
256,192,258658,1,0,0:0:0:0:
256,192,258758,1,0,0:0:0:0:
256,192,258858,1,8,0:0:0:0:
256,192,258958,1,0,0:0:0:0:
256,192,259058,1,8,0:0:0:0:
256,192,259158,1,0,0:0:0:0:
256,192,259258,1,8,0:0:0:0:
256,192,259358,1,0,0:0:0:0:
256,192,259458,1,0,0:0:0:0:
256,192,259558,1,8,0:0:0:0:
256,192,259658,1,0,0:0:0:0:
256,192,259758,1,8,0:0:0:0:
256,192,264358,5,8,0:0:0:0:
256,192,264458,1,8,0:0:0:0:
256,192,264558,1,4,0:0:0:0:
256,192,265158,1,0,0:0:0:0:
256,192,265358,1,8,0:0:0:0:
256,192,265658,1,8,0:0:0:0:
256,192,265758,1,0,0:0:0:0:
256,192,265958,1,0,0:0:0:0:
256,192,266158,1,12,0:0:0:0:
256,192,266458,1,0,0:0:0:0:
256,192,266758,1,8,0:0:0:0:
256,192,266808,1,8,0:0:0:0:
256,192,266958,1,8,0:0:0:0:
256,192,267158,1,0,0:0:0:0:
256,192,267358,1,0,0:0:0:0:
256,192,267558,1,8,0:0:0:0:
256,192,267758,1,4,0:0:0:0:
256,192,268158,1,0,0:0:0:0:
256,192,268558,1,12,0:0:0:0:
256,192,268958,1,0,0:0:0:0:
256,192,269158,1,0,0:0:0:0:
256,192,269258,1,0,0:0:0:0:
256,192,269358,1,12,0:0:0:0:
256,192,269958,1,0,0:0:0:0:
256,192,270158,1,12,0:0:0:0:
256,192,270558,1,0,0:0:0:0:
256,192,270758,1,8,0:0:0:0:
256,192,270958,1,4,0:0:0:0:
256,192,271358,1,0,0:0:0:0:
256,192,271558,1,0,0:0:0:0:
256,192,271658,1,0,0:0:0:0:
256,192,271758,1,8,0:0:0:0:
256,192,271958,1,0,0:0:0:0:
256,192,272158,1,0,0:0:0:0:
256,192,272358,1,8,0:0:0:0:
256,192,272558,1,0,0:0:0:0:
256,192,272958,1,0,0:0:0:0:
256,192,273158,1,8,0:0:0:0:
256,192,273258,1,0,0:0:0:0:
256,192,273358,1,8,0:0:0:0:
256,192,273558,1,0,0:0:0:0:
256,192,273758,1,8,0:0:0:0:
256,192,273958,1,8,0:0:0:0:
256,192,274158,1,4,0:0:0:0:
256,192,274458,1,12,0:0:0:0:
256,192,274758,1,4,0:0:0:0:
256,192,274958,1,12,0:0:0:0:
256,192,275258,1,12,0:0:0:0:
256,192,275558,1,12,0:0:0:0:
256,192,275758,1,4,0:0:0:0:
256,192,275958,1,8,0:0:0:0:
256,192,276058,1,8,0:0:0:0:
256,192,276158,1,8,0:0:0:0:
256,192,276258,1,0,0:0:0:0:
256,192,276358,1,0,0:0:0:0:
256,192,276458,1,0,0:0:0:0:
256,192,276558,1,8,0:0:0:0:
256,192,276658,1,8,0:0:0:0:
256,192,276758,1,0,0:0:0:0:
256,192,276858,1,0,0:0:0:0:
256,192,276958,1,8,0:0:0:0:
256,192,277358,5,4,0:0:0:0:
256,192,277558,1,8,0:0:0:0:
256,192,277658,1,8,0:0:0:0:
256,192,277758,1,0,0:0:0:0:
256,192,277858,1,0,0:0:0:0:
256,192,277958,1,8,0:0:0:0:
256,192,278058,1,0,0:0:0:0:
256,192,278158,1,8,0:0:0:0:
256,192,278258,1,0,0:0:0:0:
256,192,278358,1,8,0:0:0:0:
256,192,278458,1,8,0:0:0:0:
256,192,278558,1,0,0:0:0:0:
256,192,278658,1,0,0:0:0:0:
256,192,278758,1,8,0:0:0:0:
256,192,278858,1,0,0:0:0:0:
256,192,278958,1,8,0:0:0:0:
256,192,279058,1,0,0:0:0:0:
256,192,279158,1,8,0:0:0:0:
256,192,279258,1,8,0:0:0:0:
256,192,279358,1,0,0:0:0:0:
256,192,279458,1,8,0:0:0:0:
256,192,279558,1,8,0:0:0:0:
256,192,279658,1,0,0:0:0:0:
256,192,279758,1,8,0:0:0:0:
256,192,279858,1,8,0:0:0:0:
256,192,279958,1,8,0:0:0:0:
256,192,280058,1,0,0:0:0:0:
256,192,280158,1,0,0:0:0:0:
256,192,280258,1,0,0:0:0:0:
256,192,280358,1,8,0:0:0:0:
256,192,280458,1,8,0:0:0:0:
256,192,280558,1,0,0:0:0:0:
256,192,280658,1,0,0:0:0:0:
256,192,280758,1,8,0:0:0:0:
256,192,280858,1,0,0:0:0:0:
256,192,280958,1,0,0:0:0:0:
256,192,281058,1,0,0:0:0:0:
256,192,281158,1,8,0:0:0:0:
256,192,281258,1,0,0:0:0:0:
256,192,281358,1,8,0:0:0:0:
256,192,281458,1,8,0:0:0:0:
256,192,281558,1,0,0:0:0:0:
256,192,281658,1,8,0:0:0:0:
256,192,281758,1,0,0:0:0:0:
256,192,281858,1,0,0:0:0:0:
256,192,281958,1,8,0:0:0:0:
256,192,282058,1,0,0:0:0:0:
256,192,282158,1,8,0:0:0:0:
256,192,282258,1,8,0:0:0:0:
256,192,282358,1,0,0:0:0:0:
256,192,282458,1,8,0:0:0:0:
256,192,282558,1,8,0:0:0:0:
256,192,282658,1,0,0:0:0:0:
256,192,282758,1,8,0:0:0:0:
256,192,282858,1,8,0:0:0:0:
256,192,282958,1,0,0:0:0:0:
256,192,283058,1,8,0:0:0:0:
256,192,283158,1,8,0:0:0:0:
256,192,283258,1,0,0:0:0:0:
256,192,283358,1,8,0:0:0:0:
256,192,283458,1,0,0:0:0:0:
256,192,283558,1,8,0:0:0:0:
256,192,283658,1,8,0:0:0:0:
256,192,283758,1,4,0:0:0:0:
256,192,283958,1,8,0:0:0:0:
256,192,284058,1,8,0:0:0:0:
256,192,284158,1,0,0:0:0:0:
256,192,284258,1,0,0:0:0:0:
256,192,284358,1,8,0:0:0:0:
256,192,284558,1,0,0:0:0:0:
256,192,284758,1,8,0:0:0:0:
256,192,284958,1,0,0:0:0:0:
256,192,285058,1,0,0:0:0:0:
256,192,285158,1,8,0:0:0:0:
256,192,285258,1,8,0:0:0:0:
256,192,285358,1,0,0:0:0:0:
256,192,285558,1,8,0:0:0:0:
256,192,285758,1,0,0:0:0:0:
256,192,285858,1,0,0:0:0:0:
256,192,285958,1,8,0:0:0:0:
256,192,286158,1,8,0:0:0:0:
256,192,286224,1,8,0:0:0:0:
256,192,286291,1,8,0:0:0:0:
256,192,286358,1,0,0:0:0:0:
256,192,286458,1,0,0:0:0:0:
256,192,286558,1,8,0:0:0:0:
256,192,286624,1,8,0:0:0:0:
256,192,286691,1,8,0:0:0:0:
256,192,286758,1,0,0:0:0:0:
256,192,286858,1,0,0:0:0:0:
256,192,286958,5,12,0:0:0:0:
256,192,287258,1,0,0:0:0:0:
256,192,287558,1,0,0:0:0:0:
256,192,287658,1,0,0:0:0:0:
256,192,287758,1,8,0:0:0:0:
256,192,288158,1,0,0:0:0:0:
256,192,288558,1,12,0:0:0:0:
256,192,288858,1,0,0:0:0:0:
256,192,289158,1,0,0:0:0:0:
256,192,289258,1,0,0:0:0:0:
256,192,289358,1,8,0:0:0:0:
256,192,289558,1,0,0:0:0:0:
256,192,289758,1,8,0:0:0:0:
256,192,289958,1,0,0:0:0:0:
256,192,290158,1,12,0:0:0:0:
256,192,290458,1,4,0:0:0:0:
256,192,290758,1,4,0:0:0:0:
256,192,290958,1,12,0:0:0:0:
256,192,291258,1,12,0:0:0:0:
256,192,291558,1,12,0:0:0:0:
256,192,291758,1,0,0:0:0:0:
256,192,291958,1,8,0:0:0:0:
256,192,292158,1,0,0:0:0:0:
256,192,292258,1,0,0:0:0:0:
256,192,292358,1,8,0:0:0:0:
256,192,292458,1,0,0:0:0:0:
256,192,292558,1,8,0:0:0:0:
256,192,292658,1,0,0:0:0:0:
256,192,292758,1,8,0:0:0:0:
256,192,292858,1,8,0:0:0:0:
256,192,292958,1,8,0:0:0:0:
256,192,293058,1,0,0:0:0:0:
256,192,293158,1,0,0:0:0:0:
256,192,293258,1,0,0:0:0:0:
256,192,293358,1,12,0:0:0:0:
256,192,293658,1,0,0:0:0:0:
256,192,293958,1,0,0:0:0:0:
256,192,294024,1,0,0:0:0:0:
256,192,294091,1,0,0:0:0:0:
256,192,294158,1,8,0:0:0:0:
256,192,294558,1,8,0:0:0:0:
256,192,294758,1,0,0:0:0:0:
256,192,294858,1,0,0:0:0:0:
256,192,294958,1,12,0:0:0:0:
256,192,295258,1,4,0:0:0:0:
256,192,295558,1,12,0:0:0:0:
256,192,295958,1,0,0:0:0:0:
256,192,296158,1,8,0:0:0:0:
256,192,296258,1,8,0:0:0:0:
256,192,296358,1,0,0:0:0:0:
256,192,296458,1,0,0:0:0:0:
256,192,296558,1,8,0:0:0:0:
256,192,296758,1,0,0:0:0:0:
256,192,296958,1,8,0:0:0:0:
256,192,297158,1,0,0:0:0:0:
256,192,297258,1,0,0:0:0:0:
256,192,297358,1,8,0:0:0:0:
256,192,297558,1,0,0:0:0:0:
256,192,297758,1,8,0:0:0:0:
256,192,297958,1,0,0:0:0:0:
256,192,298024,1,0,0:0:0:0:
256,192,298091,1,0,0:0:0:0:
256,192,298158,1,8,0:0:0:0:
256,192,298458,1,4,0:0:0:0:
256,192,298758,1,12,0:0:0:0:
256,192,299158,1,0,0:0:0:0:
256,192,299358,1,8,0:0:0:0:
256,192,299458,1,0,0:0:0:0:
256,192,299558,1,0,0:0:0:0:
256,192,299758,1,8,0:0:0:0:
256,192,299824,1,8,0:0:0:0:
256,192,299891,1,8,0:0:0:0:
256,192,299958,1,0,0:0:0:0:
256,192,300058,1,0,0:0:0:0:
256,192,300158,1,8,0:0:0:0:
256,192,300224,1,8,0:0:0:0:
256,192,300291,1,8,0:0:0:0:
256,192,300358,1,0,0:0:0:0:
256,192,300458,1,0,0:0:0:0:
256,192,300558,1,8,0:0:0:0:
256,192,300624,1,8,0:0:0:0:
256,192,300691,1,8,0:0:0:0:
256,192,300758,1,0,0:0:0:0:
256,192,300858,1,0,0:0:0:0:
256,192,300958,1,8,0:0:0:0:
256,192,301358,5,0,0:0:0:0:
256,192,301558,1,8,0:0:0:0:
256,192,301758,1,0,0:0:0:0:
256,192,301858,1,0,0:0:0:0:
256,192,301958,1,8,0:0:0:0:
256,192,302158,1,0,0:0:0:0:
256,192,302258,1,8,0:0:0:0:
256,192,302358,1,8,0:0:0:0:
256,192,302458,1,0,0:0:0:0:
256,192,302558,1,8,0:0:0:0:
256,192,302658,1,0,0:0:0:0:
256,192,302758,1,8,0:0:0:0:
256,192,302958,1,0,0:0:0:0:
256,192,303158,1,8,0:0:0:0:
256,192,303358,1,8,0:0:0:0:
256,192,303458,1,0,0:0:0:0:
256,192,303558,1,8,0:0:0:0:
256,192,303758,1,8,0:0:0:0:
256,192,303858,1,8,0:0:0:0:
256,192,303958,1,0,0:0:0:0:
256,192,304058,1,8,0:0:0:0:
256,192,304158,1,8,0:0:0:0:
256,192,304258,1,0,0:0:0:0:
256,192,304358,1,8,0:0:0:0:
256,192,304558,1,0,0:0:0:0:
256,192,304758,1,8,0:0:0:0:
256,192,304958,1,0,0:0:0:0:
256,192,305058,1,0,0:0:0:0:
256,192,305158,1,8,0:0:0:0:
256,192,305358,1,0,0:0:0:0:
256,192,305458,1,8,0:0:0:0:
256,192,305558,1,8,0:0:0:0:
256,192,305658,1,0,0:0:0:0:
256,192,305758,1,8,0:0:0:0:
256,192,305858,1,0,0:0:0:0:
256,192,305958,1,8,0:0:0:0:
256,192,306158,1,0,0:0:0:0:
256,192,306358,1,8,0:0:0:0:
256,192,306558,1,8,0:0:0:0:
256,192,306658,1,0,0:0:0:0:
256,192,306758,1,8,0:0:0:0:
256,192,306958,1,0,0:0:0:0:
256,192,307058,1,8,0:0:0:0:
256,192,307158,1,8,0:0:0:0:
256,192,307258,1,8,0:0:0:0:
256,192,307358,1,0,0:0:0:0:
256,192,307458,1,8,0:0:0:0:
256,192,307558,1,8,0:0:0:0:
256,192,307658,1,8,0:0:0:0:
256,192,307758,1,4,0:0:0:0:
256,192,307958,1,8,0:0:0:0:
256,192,308058,1,8,0:0:0:0:
256,192,308158,1,0,0:0:0:0:
256,192,308258,1,0,0:0:0:0:
256,192,308358,1,8,0:0:0:0:
256,192,308458,1,0,0:0:0:0:
256,192,308558,1,8,0:0:0:0:
256,192,308658,1,8,0:0:0:0:
256,192,308758,1,0,0:0:0:0:
256,192,308858,1,0,0:0:0:0:
256,192,308958,1,8,0:0:0:0:
256,192,309058,1,0,0:0:0:0:
256,192,309158,1,8,0:0:0:0:
256,192,309258,1,8,0:0:0:0:
256,192,309358,1,0,0:0:0:0:
256,192,309458,1,0,0:0:0:0:
256,192,309558,1,8,0:0:0:0:
256,192,309658,1,0,0:0:0:0:
256,192,309758,1,8,0:0:0:0:
256,192,309858,1,8,0:0:0:0:
256,192,309958,1,0,0:0:0:0:
256,192,310058,1,0,0:0:0:0:
256,192,310158,1,8,0:0:0:0:
256,192,310258,1,8,0:0:0:0:
256,192,310358,1,8,0:0:0:0:
256,192,310458,1,0,0:0:0:0:
256,192,310558,1,8,0:0:0:0:
256,192,310658,1,8,0:0:0:0:
256,192,310758,1,0,0:0:0:0:
256,192,310858,1,8,0:0:0:0:
256,192,310958,1,0,0:0:0:0:
256,192,311158,1,8,0:0:0:0:
256,192,311258,1,8,0:0:0:0:
256,192,311358,1,0,0:0:0:0:
256,192,311458,1,0,0:0:0:0:
256,192,311558,1,8,0:0:0:0:
256,192,311658,1,0,0:0:0:0:
256,192,311758,1,8,0:0:0:0:
256,192,311858,1,8,0:0:0:0:
256,192,311958,1,0,0:0:0:0:
256,192,312058,1,8,0:0:0:0:
256,192,312158,1,8,0:0:0:0:
256,192,312258,1,0,0:0:0:0:
256,192,312358,1,8,0:0:0:0:
256,192,312458,1,8,0:0:0:0:
256,192,312558,1,0,0:0:0:0:
256,192,312658,1,0,0:0:0:0:
256,192,312758,1,8,0:0:0:0:
256,192,312858,1,0,0:0:0:0:
256,192,312958,1,8,0:0:0:0:
256,192,313058,1,8,0:0:0:0:
256,192,313158,1,0,0:0:0:0:
256,192,313258,1,0,0:0:0:0:
256,192,313358,1,8,0:0:0:0:
256,192,313458,1,8,0:0:0:0:
256,192,313558,1,0,0:0:0:0:
256,192,313658,1,8,0:0:0:0:
256,192,313758,1,8,0:0:0:0:
256,192,313858,1,8,0:0:0:0:
256,192,313958,1,0,0:0:0:0:
256,192,314158,1,8,0:0:0:0:
256,192,314224,1,8,0:0:0:0:
256,192,314291,1,8,0:0:0:0:
256,192,314358,1,0,0:0:0:0:
256,192,314458,1,0,0:0:0:0:
256,192,314558,1,8,0:0:0:0:
256,192,314624,1,8,0:0:0:0:
256,192,314691,1,8,0:0:0:0:
256,192,314758,1,0,0:0:0:0:
256,192,314858,1,0,0:0:0:0:
256,192,314958,1,8,0:0:0:0:
256,192,315024,1,8,0:0:0:0:
256,192,315091,1,8,0:0:0:0:
256,192,315158,1,0,0:0:0:0:
256,192,315258,1,0,0:0:0:0:
256,192,315358,1,8,0:0:0:0:
256,192,315558,1,4,0:0:0:0:
