osu file format v14

[General]
AudioFilename: audio.mp3
AudioLeadIn: 0
PreviewTime: 264258
Countdown: 0
SampleSet: Soft
StackLeniency: 0.4
Mode: 0
LetterboxInBreaks: 0
EpilepsyWarning: 1
WidescreenStoryboard: 1

[Editor]
Bookmarks: 125958
DistanceSpacing: 0.4
BeatDivisor: 8
GridSize: 8
TimelineZoom: 3.299999

[Metadata]
Title:FIRE BIRD
TitleUnicode:FIRE BIRD
Artist:Roselia
ArtistUnicode:Roselia
Creator:GIDZ
Version:RAGE OF THE FLAMING PHOENIX
Source:BanG Dream! 2nd Season
Tags:KW KwAIMSuckASFuk バンドリ! ガールズバンドパーティ! Bandori! Girls Band Party! ガルパ Garupa insert original song 9th single Ringing Bloom album Bandori project Girl Party Garupa! ロゼリア Rozeria 湊友希那 Minato Yukina 氷川紗夜 Hikawa Sayo 今井リサ Imai Lisa 宇田川あこ Udagawa Ako 白金燐子 Shirokane Rinko 相羽あいな Aiba Aina Aiai 工藤晴香 Kudō Haruka Kudo Kudou Kudoharu Kdhr 遠藤ゆりか Endō Yurika Endo Endou Yurishii 桜川めぐ Sakuragawa Megu Meguchii 明坂聡美 Akesaka Satomi Akeko 中島由貴 Nakashima Yuki Shimayuki 志崎樺音 Shizaki Kanon Nonchan Non-chan Anime Video Game Japanese
BeatmapID:2338526
BeatmapSetID:1119368

[Difficulty]
HPDrainRate:6
CircleSize:4
OverallDifficulty:9
ApproachRate:9.8
SliderMultiplier:1.4
SliderTickRate:1

[Events]
//Background and Video events
0,0,"background.jpg",0,0
//Break Periods
2,35307,38449
2,127158,132633
2,259958,263833
//Storyboard Layer 0 (Background)
//Storyboard Layer 1 (Fail)
//Storyboard Layer 2 (Pass)
//Storyboard Layer 3 (Foreground)
//Storyboard Layer 4 (Overlay)
//Storyboard Sound Samples

[TimingPoints]
-1311,750,4,2,1,60,1,0
1314,-100,4,2,11,60,0,0
1501,-100,4,2,12,60,0,0
1689,-100,4,2,13,60,0,0
2439,-100,4,2,99,60,0,0
2814,-100,4,2,12,60,0,0
3001,-100,4,2,15,60,0,0
3189,-100,4,2,16,60,0,0
4314,-100,4,2,17,60,0,0
4689,-100,4,2,18,60,0,0
5439,-100,4,2,19,60,0,0
5814,-100,4,2,20,60,0,0
6001,-100,4,2,21,60,0,0
6189,-100,4,2,22,60,0,0
6939,-100,4,2,19,60,0,0
7314,-100,4,2,15,60,0,0
7501,-100,4,2,20,60,0,0
7689,-100,4,2,24,60,0,0
8439,-100,4,2,26,60,0,0
8814,-100,4,2,27,60,0,0
9001,-100,4,2,15,60,0,0
9189,-100,4,2,28,60,0,0
9564,-100,4,2,29,60,0,0
9939,-100,4,2,30,60,0,0
10314,-100,4,2,31,60,0,0
10501,-100,4,2,15,60,0,0
10689,-100,4,2,32,60,0,0
11439,-100,4,2,33,60,0,0
11814,-100,4,2,26,60,0,0
12189,-100,4,2,33,60,0,0
12564,-100,4,2,26,60,0,0
12939,-100,4,2,32,60,0,0
13314,-100,4,2,99,60,0,0
13501,-100,4,2,12,60,0,0
13689,-100,4,2,35,60,0,0
14064,-100,4,2,36,60,0,0
14439,-100,4,2,99,60,0,0
14814,-100,4,2,43,60,0,0
15001,-100,4,2,15,60,0,0
15189,-100,4,2,38,60,0,0
15564,-100,4,2,36,60,0,0
15939,-100,4,2,38,60,0,0
16314,-100,4,2,39,60,0,0
16689,-100,4,2,40,60,0,0
17439,-100,4,2,42,60,0,0
17814,-100,4,2,44,60,0,0
18001,-100,4,2,21,60,0,0
18189,-100,4,2,45,60,0,0
18564,-100,4,2,41,60,0,0
18939,-100,4,2,42,60,0,0
19314,-100,4,2,46,60,0,0
19501,-100,4,2,20,60,0,0
19689,-100,4,2,47,60,0,0
20439,-100,4,2,32,60,0,0
20814,-100,4,2,48,60,0,0
21001,-100,4,2,97,60,0,0
21189,-100,4,2,50,60,0,0
21564,-100,4,2,51,60,0,0
21939,-100,4,2,52,60,0,0
22314,-100,4,2,53,60,0,0
22501,-100,4,2,54,60,0,0
22689,-100,4,2,55,60,0,0
23064,-100,4,2,36,60,0,0
23439,779.220779220779,4,2,56,60,1,0
23828,-100,4,2,36,60,0,0
24218,810.810810810811,4,2,56,60,1,0
24218,-71.4285714285714,4,2,56,60,0,0
24623,-100,4,2,36,60,0,0
25028,821.917808219178,4,2,57,60,1,0
25438,761.421319796954,4,2,58,60,1,0
25628,952.380952380952,4,2,59,60,1,0
25866,857.142857142857,4,2,60,60,1,0
26294,-100,4,2,36,60,0,0
26723,869.565217391304,4,2,56,60,1,0
27157,-100,4,2,36,60,0,0
27592,933.125972006221,4,2,56,60,1,0
28058,-100,4,2,36,60,0,0
28525,-100,4,2,62,60,0,0
28991,952.380952380952,4,2,99,60,1,0
29467,1410.10575793184,4,2,63,60,1,0
29467,-50,4,2,63,60,0,0
29555,-50,4,2,63,5,0,0
35107,-50,4,2,64,60,0,0
38958,400,4,2,1,60,1,0
40558,-41.6666666666667,4,2,1,70,0,0
41158,-133.333333333333,4,2,1,70,0,0
41958,-50,4,2,1,70,0,0
42158,-41.6666666666667,4,2,1,70,0,0
44358,-133.333333333333,4,2,1,70,0,0
45158,-50,4,2,1,70,0,0
45358,-41.6666666666667,4,2,1,70,0,0
46558,-200,4,2,1,70,0,0
46858,-200,4,2,1,5,0,0
46958,-38.4615384615385,4,2,1,60,0,0
53358,-45.4545454545455,4,2,1,60,0,0
64558,-66.6666666666667,4,2,1,60,0,0
65358,-50,4,2,1,60,0,0
66158,-100,4,2,1,50,0,0
75358,-50,4,2,1,50,0,0
75758,-50,4,2,1,50,0,0
77358,-33.3333333333333,4,2,1,70,0,0
77558,-100,4,2,1,50,0,0
78158,-66.6666666666667,4,2,1,55,0,0
78958,-50,4,2,1,60,0,0
79758,-38.4615384615385,4,2,1,65,0,0
80558,-45.4545454545455,4,2,1,70,0,0
81358,-38.4615384615385,4,2,1,70,0,0
81758,-33.3333333333333,4,2,1,70,0,0
82958,-333.333333333333,4,2,1,70,0,0
82983,-333.333333333333,4,2,1,20,0,0
83758,-33.3333333333334,4,2,1,70,0,1
93358,-29.4117647058824,4,2,1,70,0,1
93658,-26.3157894736843,4,2,1,70,0,1
94158,-29.4117647058824,4,2,1,70,0,1
94458,-26.3157894736843,4,2,1,70,0,1
94958,-33.3333333333334,4,2,1,70,0,1
106158,-50,4,2,1,60,0,0
110958,-41.6666666666667,4,2,1,60,0,0
112558,-100,4,2,1,60,0,0
114158,-38.4615384615385,4,2,1,70,0,0
114758,-200,4,2,1,70,0,0
115758,-38.4615384615385,4,2,1,70,0,0
117958,-200,4,2,1,70,0,0
118558,-38.4615384615385,4,2,1,70,0,0
120158,-200,4,2,1,70,0,0
120458,-200,4,2,1,5,0,0
120558,-38.4615384615385,4,2,1,60,0,0
126358,-50,4,2,1,60,0,0
126958,-50,4,2,1,25,0,0
133358,-133.333333333333,4,2,1,40,0,0
136558,-45.4545454545455,4,2,1,60,0,0
139758,-100,4,2,1,60,0,0
149158,-50,4,2,1,60,0,0
151358,-100,4,2,1,40,0,0
151758,-50,4,2,1,45,0,0
152058,-50,4,2,1,50,0,0
152558,-66.6666666666667,4,2,1,55,0,0
152958,-40,4,2,1,60,0,0
153258,-40,4,2,1,65,0,0
153758,-50,4,2,1,70,0,0
154158,-66.6666666666667,4,2,1,60,0,0
154558,-38.4615384615385,4,2,1,50,0,0
155758,-38.4615384615385,4,2,1,60,0,0
156958,-200,4,2,1,70,0,0
157358,-33.3333333333334,4,2,1,70,0,1
166958,-29.4117647058824,4,2,1,70,0,1
167258,-26.3157894736843,4,2,1,70,0,1
167758,-29.4117647058824,4,2,1,70,0,1
168058,-26.3157894736843,4,2,1,70,0,1
168558,-50,4,2,1,70,0,1
170158,-33.3333333333333,4,2,1,70,0,1
179758,-50,4,2,1,60,0,0
183824,-50,4,2,1,5,0,0
184058,-50,4,2,1,60,0,0
184124,-50,4,2,1,5,0,0
184358,-50,4,2,1,60,0,0
184424,-50,4,2,1,5,0,0
184558,-41.6666666666667,4,2,1,60,0,0
186158,-100,4,2,1,60,0,0
186758,-50,4,2,1,60,0,0
198958,-38.4615384615385,4,2,1,70,0,0
200558,-38.4615384615385,4,2,1,70,0,1
206958,-33.3333333333333,4,2,1,70,0,1
218958,-33.3333333333333,4,2,1,70,0,1
219758,-33.3333333333333,4,2,1,60,0,0
220358,-33.3333333333333,4,2,96,40,0,0
221358,-133.333333333333,4,2,97,40,0,0
221558,-133.333333333333,4,2,95,40,0,0
221758,-133.333333333333,4,2,94,40,0,0
221958,-133.333333333333,4,2,97,40,0,0
222558,-133.333333333333,4,2,93,40,0,0
222958,-133.333333333333,4,2,87,40,0,0
223158,-133.333333333333,4,2,92,40,0,0
223358,-133.333333333333,4,2,84,40,0,0
223558,-133.333333333333,4,2,70,40,0,0
224558,-133.333333333333,4,2,87,40,0,0
224758,-133.333333333333,4,2,89,40,0,0
224958,-133.333333333333,4,2,69,40,0,0
225158,-133.333333333333,4,2,88,40,0,0
225558,-133.333333333333,4,2,93,40,0,0
225758,-133.333333333333,4,2,85,40,0,0
225958,-133.333333333333,4,2,95,40,0,0
226058,-133.333333333333,4,2,83,40,0,0
226158,-100,4,2,97,40,0,0
226558,-100,4,2,83,40,0,0
226758,-100,4,2,94,40,0,0
226958,-100,4,2,97,40,0,0
227958,-100,4,2,83,40,0,0
228358,-100,4,2,94,40,0,0
228558,-100,4,2,84,40,0,0
228958,-100,4,2,82,40,0,0
229358,-100,4,2,80,40,0,0
229958,-100,4,2,82,40,0,0
230158,-100,4,2,97,40,0,0
230758,-100,4,2,84,40,0,0
230858,-100,4,2,82,40,0,0
230958,-100,4,2,80,50,0,0
231158,-100,4,2,97,50,0,0
231358,-100,4,2,84,50,0,0
231558,-100,4,2,80,50,0,0
231758,-100,4,2,82,50,0,0
231958,-100,4,2,95,50,0,0
232158,-100,4,2,94,50,0,0
232358,-100,4,2,82,50,0,0
232558,-100,4,2,84,60,0,0
233558,-100,4,2,94,60,0,0
233758,-100,4,2,84,60,0,0
233958,-100,4,2,80,60,0,0
234058,-100,4,2,82,60,0,0
234758,-100,4,2,79,60,0,0
234958,-100,4,2,93,60,0,0
235558,-100,4,2,94,60,0,0
235758,-100,4,2,82,60,0,0
236058,-100,4,2,97,60,0,0
236358,-100,4,2,97,60,0,0
236558,-100,4,2,82,60,0,0
236858,-100,4,2,78,60,0,0
237158,-100,4,2,80,60,0,0
237358,-100,4,2,77,70,0,0
237558,-100,4,2,76,60,0,0
237758,-100,4,2,75,60,0,0
238158,-100,4,2,84,60,0,0
238758,-100,4,2,97,60,0,0
238958,-100,4,2,84,60,0,0
239958,-100,4,2,94,60,0,0
240158,-100,4,2,84,60,0,0
240358,-100,4,2,80,60,0,0
240458,-100,4,2,82,60,0,0
240758,-100,4,2,72,60,0,0
240958,-100,4,2,68,60,0,0
241158,-100,4,2,67,60,0,0
241358,-100,4,2,82,60,0,0
241558,-100,4,2,97,60,0,0
241758,-100,4,2,84,60,0,0
241958,-100,4,2,82,60,0,0
242158,-200,4,2,80,70,0,0
242958,-200,4,2,82,60,0,0
243758,-200,4,2,84,60,0,0
244358,-76.9230769230769,4,2,1,40,0,0
245358,-66.6666666666667,4,2,1,50,0,0
254958,-100,4,2,1,50,0,0
255758,-50,4,2,1,50,0,0
256558,-33.3333333333333,4,2,1,50,0,0
257358,-50,4,2,1,70,0,0
258158,-33.3333333333333,4,2,1,60,0,0
264358,-50,4,2,1,50,0,0
264558,-50,4,2,1,50,0,0
265658,-50,4,2,1,5,0,0
265758,-50,4,2,1,50,0,0
271258,-50,4,2,1,5,0,0
271358,-50,4,2,1,50,0,0
271658,-50,4,2,1,5,0,0
271758,-50,4,2,1,50,0,0
272058,-50,4,2,1,5,0,0
272158,-50,4,2,1,50,0,0
272458,-50,4,2,1,5,0,0
272558,-50,4,2,1,50,0,0
272858,-50,4,2,1,5,0,0
272958,-50,4,2,1,50,0,0
273258,-50,4,2,1,5,0,0
273358,-50,4,2,1,50,0,0
276958,-200,4,2,1,60,0,0
277358,-33.3333333333334,4,2,1,70,0,1
286158,-38.4615384615386,4,2,1,70,0,1
286958,-50.0000000000002,4,2,1,60,0,0
293358,-200,4,2,1,60,0,0
293958,-50,4,2,1,60,0,0
294958,-38.4615384615386,4,2,1,60,0,0
295558,-200,4,2,1,60,0,0
295958,-38.4615384615385,4,2,1,60,0,0
298758,-200,4,2,1,60,0,0
299158,-38.4615384615385,4,2,1,60,0,0
300958,-28.5714285714286,4,2,1,60,0,0
301358,-38.4615384615386,4,2,1,60,0,0
307758,-35.7142857142858,4,2,1,60,0,0
310158,-33.3333333333334,4,2,1,60,0,0
311758,-31.2500000000001,4,2,1,60,0,0
312558,-29.4117647058824,4,2,1,60,0,0
315558,-76.9230769230769,4,2,1,60,0,0
315658,-76.9230769230769,4,2,1,5,0,0
319358,-50,4,2,1,20,0,0

[Colours]
Combo1 : 128,255,128
Combo2 : 128,128,255
Combo3 : 255,233,115
Combo4 : 255,128,128

[HitObjects]
380,59,1314,6,0,P|365:52|343:57,1,35,2|2,0:0|0:0,0:0:0:0:
54,173,1689,6,0,B|105:215|129:136|196:173,1,140,2|2,0:0|0:0,0:0:0:0:
162,238,2814,2,0,P|153:263|158:284,1,35,2|2,0:0|0:0,0:0:0:0:
377,213,3189,6,0,P|341:203|300:210,1,70,2|0,0:0|0:0,0:0:0:0:
293,281,3939,2,0,P|329:291|370:284,1,70,2|2,0:0|0:0,0:0:0:0:
471,120,4689,6,0,L|472:276,1,140,2|2,0:0|0:0,0:0:0:0:
374,127,5814,1,2,0:0:0:0:
374,127,6001,1,2,0:0:0:0:
256,40,6189,5,2,0:0:0:0:
104,70,6564,1,0,0:0:0:0:
256,344,6939,1,2,0:0:0:0:
408,314,7314,2,0,P|438:302|453:301,1,35,2|2,0:0|0:0,0:0:0:0:
256,344,7689,6,0,B|215:323|177:350|177:350|147:328|153:306|185:307,1,140,2|2,0:0|0:0,0:0:0:0:
314,257,8814,2,0,P|318:240|326:224,1,35,2|2,0:0|0:0,0:0:0:0:
194,166,9189,2,0,P|201:201|191:234,2,70,2|2|2,0:0|0:0|0:0,0:0:0:0:
122,57,10314,2,0,P|126:73|134:89,1,35,2|2,0:0|0:0,0:0:0:0:
370,85,10689,6,0,B|319:58|298:121|234:78,1,140,2|2,0:0|0:0,0:0:0:0:
341,162,11814,1,2,0:0:0:0:
453,115,12189,2,0,P|464:78|451:43,1,70,2|2,0:0|0:0,0:0:0:0:
278,21,12939,1,2,0:0:0:0:
392,260,13314,6,0,B|378:249|378:249|343:258,1,35,2|2,0:0|0:0,0:0:0:0:
248,334,13689,6,0,P|280:345|313:323,1,70,2|0,0:0|0:0,0:0:0:0:
272,252,14439,1,2,0:0:0:0:
73,296,14814,1,2,0:0:0:0:
73,296,15001,1,2,0:0:0:0:
69,196,15189,1,2,0:0:0:0:
155,352,15564,1,2,0:0:0:0:
69,196,15939,1,2,0:0:0:0:
272,252,16314,1,2,0:0:0:0:
43,52,16689,6,0,P|99:85|168:52,1,140,2|2,0:0|0:0,0:0:0:0:
249,138,17814,2,0,P|272:128|302:135,1,35,2|2,0:0|0:0,0:0:0:0:
174,147,18189,1,2,0:0:0:0:
273,30,18564,1,2,0:0:0:0:
427,57,18939,2,0,P|391:67|372:108,1,70,2|2,0:0|0:0,0:0:0:0:
410,175,19501,1,2,0:0:0:0:
410,175,19689,6,0,B|415:219|453:235|453:235|459:268|418:298,1,140,2|2,0:0|0:0,0:0:0:0:
276,220,20814,2,0,P|296:214|330:220,1,35,2|2,0:0|0:0,0:0:0:0:
249,138,21189,1,2,0:0:0:0:
326,307,21564,1,2,0:0:0:0:
249,138,21939,1,2,0:0:0:0:
159,293,22314,1,2,0:0:0:0:
159,293,22501,1,2,0:0:0:0:
159,293,22689,6,0,B|139:280|139:280|139:228,1,70,2|2,0:0|0:0,0:0:0:0:
58,97,23439,2,0,L|131:88,1,70,2|2,0:0|0:0,0:0:0:0:
391,58,24218,6,0,L|287:44,1,97.9999970092774,2|2,0:0|0:0,0:0:0:0:
276,220,25028,5,2,0:0:0:0:
456,136,25438,5,2,0:0:0:0:
456,136,25628,1,2,0:0:0:0:
456,136,25866,2,0,P|424:159|434:194,1,70,2|2,0:0|0:0,0:0:0:0:
276,220,26723,2,0,P|297:242|286:279,1,70,2|2,0:0|0:0,0:0:0:0:
402,316,27592,6,0,L|499:310,1,70,2|2,0:0|0:0,0:0:0:0:
73,331,28525,2,0,L|12:318,1,35,2|0,0:0|0:0,0:0:0:0:
21,242,28991,2,0,L|82:255,1,35,2|0,0:0|0:0,0:0:0:0:
147,321,29467,6,0,B|65:286|71:202|71:202|125:219|160:191|99:157|118:94|118:94|168:107|198:148|230:130|183:74|233:11|233:11|306:61|260:130|314:127|337:68|394:68|394:68|420:123|362:155|379:180|415:179|458:160|458:160|479:307|362:336,1,1120,2|2,0:0|0:0,0:0:0:0:
373,334,38958,5,2,0:3:0:0:
298,328,39358,1,2,0:3:0:0:
228,330,39758,5,2,0:3:0:0:
157,316,39958,1,2,0:3:0:0:
88,340,40158,1,2,0:3:0:0:
68,271,40358,5,0,3:0:0:0:
121,226,40458,1,0,3:0:0:0:
105,145,40558,2,0,P|36:129|52:198,1,167.999994873047,8|0,0:0|0:0,0:0:0:0:
227,223,40858,2,0,P|242:154|173:170,1,167.999994873047,8|0,0:0|0:0,0:0:0:0:
157,316,41158,6,0,B|213:284|211:343|275:311,1,105.000004005432,12|8,0:0|3:0,0:0:0:0:
322,255,41758,1,8,0:0:0:0:
322,255,41858,1,8,0:0:0:0:
322,255,41958,2,8,P|296:244|261:248,2,46.6666666666667,8|8|8,0:3|0:3|0:3,0:3:0:0:
397,306,42158,6,0,P|412:267|402:216,1,83.9999974365235,12|0,0:0|0:0,0:0:0:0:
341,166,42358,1,0,3:0:0:0:
316,168,42458,1,0,3:0:0:0:
396,97,42558,2,0,P|438:92|477:107,1,83.9999974365235,12|0,0:0|0:0,0:0:0:0:
313,44,42758,2,0,P|274:29|223:39,1,83.9999974365235,0|0,3:0|0:0,0:0:0:0:
171,84,42958,5,8,0:0:0:0:
168,103,43058,1,8,0:3:0:0:
107,156,43158,5,4,0:3:0:0:
104,137,43258,1,4,0:3:0:0:
37,193,43358,5,8,0:0:0:0:
26,278,43458,1,8,0:0:0:0:
76,346,43558,1,8,0:0:0:0:
161,350,43658,1,8,0:0:0:0:
119,271,43758,6,0,P|143:202|202:245,1,167.999994873047,8|0,0:0|0:0,0:0:0:0:
329,355,44058,2,0,P|326:282|257:305,1,167.999994873047,8|0,0:0|0:0,0:0:0:0:
282,175,44358,6,0,B|334:145|334:198|401:171,1,105.000004005432,12|8,0:0|0:0,0:0:0:0:
463,272,44958,1,8,0:0:0:0:
463,272,45058,1,8,0:0:0:0:
463,272,45158,2,8,L|463:323,2,46.6666666666667,8|8|8,0:3|0:3|0:3,0:3:0:0:
492,198,45358,6,0,L|492:100,1,83.9999974365235,12|0,0:0|0:0,0:0:0:0:
435,50,45558,1,0,3:0:0:0:
429,25,45658,1,0,3:0:0:0:
368,106,45758,2,0,P|329:118|292:98,1,83.9999974365235,12|0,0:0|0:0,0:0:0:0:
214,141,45958,1,0,3:0:0:0:
208,166,46058,1,0,3:0:0:0:
55,232,46158,5,8,0:0:0:0:
104,172,46258,1,0,3:0:0:0:
133,244,46358,1,4,0:3:0:0:
55,232,46458,1,4,0:3:0:0:
144,100,46558,6,0,B|152:79|152:79|144:50,1,52.5,8|0,0:0|0:0,0:0:0:0:
55,232,46958,6,0,L|55:333,1,90.9999958343508,6|0,0:0|0:0,0:0:0:0:
224,262,47158,2,0,P|255:231|299:233,1,90.9999958343508,8|0,0:0|0:0,0:0:0:0:
422,267,47358,1,0,3:0:0:0:
355,312,47458,1,0,3:0:0:0:
448,252,47558,2,0,P|450:207|419:176,1,90.9999958343508,8|0,0:0|0:0,0:0:0:0:
133,244,47758,2,0,P|130:288|161:319,1,90.9999958343508,0|0,3:0|0:0,0:0:0:0:
337,164,47958,5,8,0:0:0:0:
337,164,48058,2,0,L|331:64,1,90.9999958343508,0|0,3:0|0:0,0:0:0:0:
57,38,48258,1,0,3:0:0:0:
57,38,48358,2,0,L|63:138,1,90.9999958343508,8|0,0:0|0:0,0:0:0:0:
449,128,48558,6,0,L|455:38,1,90.9999958343508,4|0,3:0|0:0,0:0:0:0:
182,60,48758,2,0,L|188:160,1,90.9999958343508,8|0,0:0|0:0,0:0:0:0:
372,240,48958,2,0,P|329:217|276:236,1,90.9999958343508,0|0,3:0|0:0,0:0:0:0:
280,323,49158,2,0,P|323:346|376:327,1,90.9999958343508,8|0,0:0|0:0,0:0:0:0:
133,244,49358,6,0,P|90:267|37:248,1,90.9999958343508,4|0,3:0|0:0,0:0:0:0:
281,61,49558,2,0,P|324:38|377:57,1,90.9999958343508,8|0,0:0|0:0,0:0:0:0:
441,206,49758,1,0,3:0:0:0:
372,240,49858,1,0,3:0:0:0:
465,202,49958,2,0,P|488:159|469:106,1,90.9999958343508,8|0,0:0|0:0,0:0:0:0:
182,60,50158,6,0,P|169:106|171:151,1,90.9999958343508,4|0,3:0|0:0,0:0:0:0:
211,223,50358,1,10,0:0:0:0:
221,246,50458,1,2,0:0:0:0:
301,278,50558,5,0,3:0:0:0:
248,352,50658,1,2,0:0:0:0:
168,307,50758,1,10,0:0:0:0:
82,337,50858,1,2,0:0:0:0:
33,238,50958,6,0,L|37:148,1,90.9999958343508,4|0,3:0|0:0,0:0:0:0:
363,46,51158,2,0,L|359:136,1,90.9999958343508,8|0,0:0|0:0,0:0:0:0:
181,206,51358,1,0,3:0:0:0:
263,171,51458,1,0,3:0:0:0:
154,217,51558,2,0,L|158:127,1,90.9999958343508,8|0,0:0|0:0,0:0:0:0:
363,46,51758,5,8,0:0:0:0:
380,41,51858,1,8,0:0:0:0:
398,39,51958,1,8,0:0:0:0:
415,42,52058,1,8,0:0:0:0:
495,124,52158,5,4,3:0:0:0:
478,119,52258,1,4,3:0:0:0:
460,117,52358,1,4,3:0:0:0:
443,120,52458,1,4,3:0:0:0:
464,205,52558,5,8,0:3:0:0:
464,205,52658,1,8,0:3:0:0:
457,234,52758,5,8,0:0:0:0:
385,303,52858,1,8,0:0:0:0:
287,279,52958,1,8,0:0:0:0:
265,181,53058,1,8,0:0:0:0:
317,95,53158,1,8,0:0:0:0:
417,93,53258,1,8,0:0:0:0:
371,192,53358,6,0,L|254:182,1,77.0000023498536,6|0,0:0|0:0,0:0:0:0:
163,94,53558,2,0,P|206:91|238:113,1,77.0000023498536,8|0,0:0|0:0,0:0:0:0:
140,325,53758,1,0,3:0:0:0:
140,325,53858,1,0,3:0:0:0:
140,325,53958,2,0,P|97:328|65:306,1,77.0000023498536,8|0,0:0|0:0,0:0:0:0:
66,164,54158,6,0,P|109:161|141:183,1,77.0000023498536,4|0,3:0|0:0,0:0:0:0:
371,192,54358,2,0,P|387:150|371:105,1,77.0000023498536,8|0,0:0|0:0,0:0:0:0:
216,264,54558,1,0,3:0:0:0:
216,264,54658,1,0,3:0:0:0:
216,264,54758,2,0,P|249:282|286:278,1,77.0000023498536,8|0,0:0|0:0,0:0:0:0:
233,31,54958,6,0,L|233:107,1,77.0000023498536,4|0,3:0|0:0,0:0:0:0:
371,268,55158,2,0,L|370:165,1,77.0000023498536,8|0,0:0|0:0,0:0:0:0:
66,87,55358,1,0,3:0:0:0:
66,87,55458,1,0,3:0:0:0:
66,87,55558,2,0,L|66:164,1,77.0000023498536,8|0,0:0|0:0,0:0:0:0:
299,201,55758,6,0,P|259:180|228:187,1,77.0000023498536,4|0,3:0|0:0,0:0:0:0:
19,221,55958,2,0,P|59:242|90:235,1,77.0000023498536,8|0,0:0|0:0,0:0:0:0:
176,358,56158,1,0,3:0:0:0:
176,358,56258,1,0,3:0:0:0:
176,358,56358,2,0,P|197:318|190:287,1,77.0000023498536,8|0,0:0|0:0,0:0:0:0:
156,108,56558,6,0,L|248:107,1,77.0000023498536,4|0,3:0|0:0,0:0:0:0:
364,77,56758,2,0,L|456:76,1,77.0000023498536,8|0,0:0|0:0,0:0:0:0:
313,270,56958,1,0,3:0:0:0:
313,270,57058,1,0,3:0:0:0:
313,270,57158,2,0,P|292:230|299:199,1,77.0000023498536,8|0,0:0|0:0,0:0:0:0:
478,160,57358,6,0,P|499:200|492:231,1,77.0000023498536,4|0,3:0|0:0,0:0:0:0:
232,107,57558,2,0,P|211:67|218:36,1,77.0000023498536,8|0,0:0|0:0,0:0:0:0:
364,329,57758,2,0,P|324:350|293:343,1,77.0000023498536,0|0,3:0|0:0,0:0:0:0:
19,221,57958,2,0,P|59:200|90:207,1,77.0000023498536,8|0,0:0|0:0,0:0:0:0:
190,288,58158,5,0,3:0:0:0:
171,291,58258,1,2,0:0:0:0:
170,213,58358,5,10,0:0:0:0:
188,211,58458,1,2,0:0:0:0:
265,204,58558,5,0,3:0:0:0:
259,158,58658,1,2,0:0:0:0:
221,134,58758,1,10,0:0:0:0:
174,136,58858,1,2,0:0:0:0:
101,153,58958,5,0,3:0:0:0:
99,106,59058,1,8,0:0:0:0:
123,68,59158,1,8,0:0:0:0:
169,62,59258,1,8,0:0:0:0:
245,47,59358,5,8,3:2:0:0:
251,30,59458,1,8,3:0:0:0:
330,106,59558,5,4,3:0:0:0:
324,89,59658,1,4,3:0:0:0:
478,160,59758,6,0,P|440:168|404:157,1,77.0000023498536,4|0,0:2|0:0,0:0:0:0:
264,203,59958,2,0,P|301:211|338:201,1,77.0000023498536,8|0,0:0|0:0,0:0:0:0:
455,255,60158,1,0,3:0:0:0:
434,297,60258,1,0,3:0:0:0:
455,338,60358,2,0,P|417:346|381:335,1,77.0000023498536,8|0,0:0|0:0,0:0:0:0:
117,254,60558,6,0,P|154:243|197:255,1,77.0000023498536,4|0,3:0|0:0,0:0:0:0:
290,349,60758,2,0,P|252:357|216:346,1,77.0000023498536,8|0,0:0|0:0,0:0:0:0:
61,178,60958,1,0,3:0:0:0:
74,135,61058,1,0,3:0:0:0:
57,92,61158,2,0,P|94:81|137:93,1,77.0000023498536,8|0,0:0|0:0,0:0:0:0:
328,30,61358,6,0,L|251:30,1,77.0000023498536,4|0,3:0|0:0,0:0:0:0:
224,115,61558,1,10,0:0:0:0:
229,136,61658,1,2,0:0:0:0:
190,251,61758,2,0,L|197:164,1,77.0000023498536,0|0,3:0|0:0,0:0:0:0:
265,240,61958,1,10,0:0:0:0:
270,261,62058,1,2,0:0:0:0:
220,331,62158,5,8,0:0:0:0:
288,339,62258,1,8,0:0:0:0:
346,302,62358,1,8,0:0:0:0:
347,232,62458,1,8,0:0:0:0:
305,176,62558,1,8,0:0:0:0:
341,116,62658,1,8,0:0:0:0:
406,94,62758,1,8,0:0:0:0:
465,129,62858,1,8,0:0:0:0:
399,176,62958,5,0,3:0:0:0:
414,198,63558,5,0,3:0:0:0:
414,198,63658,1,0,3:0:0:0:
414,198,63758,2,0,L|416:269,4,38.5000011749268,8|0|0|0|0,3:0|0:0|0:0|0:0|0:0,0:0:0:0:
321,103,64058,2,0,L|319:64,4,38.5000011749268,8|0|0|0|0,3:0|0:0|0:0|0:0|0:0,0:0:0:0:
260,177,64358,1,8,0:0:0:0:
251,200,64458,1,0,3:0:0:0:
239,103,64558,6,0,P|193:81|140:100,1,105.000004005432,4|0,0:0|3:0,0:0:0:0:
72,49,64858,2,0,P|50:95|69:148,1,105.000004005432,0|0,3:0|3:0,0:0:0:0:
11,211,65158,2,0,P|57:233|110:214,1,105.000004005432,8|0,0:0|0:0,0:0:0:0:
254,341,65558,5,8,0:0:0:0:
254,341,65658,1,8,0:0:0:0:
213,277,65758,5,8,3:0:0:0:
254,341,65858,1,8,3:0:0:0:
296,276,65958,1,8,3:0:0:0:
335,341,66058,1,8,3:0:0:0:
378,276,66158,6,0,P|396:209|454:234,1,140,4|0,0:0|0:0,0:0:0:0:
395,170,66758,1,0,3:0:0:0:
400,149,66858,1,0,3:0:0:0:
411,131,66958,2,0,P|415:72|347:65,1,140,8|0,0:0|0:0,0:0:0:0:
128,54,67758,6,0,P|162:64|200:51,1,70,0|0,3:0|0:0,0:0:0:0:
194,54,68058,2,0,P|184:88|197:126,1,70,0|0,3:0|0:0,0:0:0:0:
261,88,68358,1,0,3:0:0:0:
272,105,68458,1,0,3:0:0:0:
272,125,68558,2,0,P|267:166|237:182,1,70,8|0,0:0|0:0,0:0:0:0:
242,257,68958,2,0,P|201:252|185:222,1,70,8|0,3:0|0:0,0:0:0:0:
172,219,69258,1,2,0:0:0:0:
24,330,69358,6,0,B|97:295|91:356|178:329,1,140,4|0,0:0|0:0,0:0:0:0:
93,285,69958,1,0,3:0:0:0:
97,264,70058,1,0,3:0:0:0:
86,245,70158,2,0,P|56:187|88:122,1,140,8|0,0:0|0:0,0:0:0:0:
438,157,70958,6,0,L|361:154,1,70,0|0,3:0|0:0,0:0:0:0:
368,154,71258,2,0,L|371:77,1,70,0|0,3:0|0:0,0:0:0:0:
399,70,71558,1,0,3:0:0:0:
477,271,71758,1,8,0:0:0:0:
274,335,71958,1,0,3:0:0:0:
274,335,72058,1,0,3:0:0:0:
274,335,72158,6,0,P|288:300|331:307,1,70,8|0,0:0|0:0,0:0:0:0:
334,305,72458,1,2,0:0:0:0:
253,220,72558,6,0,B|186:193|185:247|116:217,1,140,4|0,0:0|0:0,0:0:0:0:
123,74,73158,1,0,3:0:0:0:
123,74,73258,1,0,3:0:0:0:
123,74,73358,2,0,P|153:91|154:128,1,70,8|0,0:0|0:0,0:0:0:0:
31,249,73758,2,0,P|34:282|63:298,1,70,0|0,3:0|0:0,0:0:0:0:
216,305,74158,6,0,P|186:287|149:292,1,70,0|0,3:0|0:0,0:0:0:0:
152,290,74458,2,0,P|170:260|165:223,1,70,0|0,3:0|0:0,0:0:0:0:
157,211,74758,1,0,3:0:0:0:
166,361,74958,1,8,0:0:0:0:
257,192,75158,1,0,3:0:0:0:
363,309,75358,5,8,3:0:0:0:
355,287,75458,1,8,3:0:0:0:
440,308,75558,5,8,3:0:0:0:
448,330,75658,1,8,3:0:0:0:
418,223,75758,6,0,P|373:189|388:111,1,140,6|0,0:0|0:0,0:0:0:0:
287,30,76058,2,0,P|253:75|175:60,1,140,4|0,3:0|0:0,0:0:0:0:
94,161,76358,2,0,P|129:177|131:225,1,70,4|0,3:0|0:0,0:0:0:0:
50,249,76558,5,8,0:0:0:0:
116,361,76758,5,8,3:0:0:0:
138,354,76824,1,8,3:0:0:0:
160,348,76891,1,8,3:0:0:0:
182,341,76958,1,8,0:0:0:0:
254,192,77358,5,4,0:0:0:0:
254,192,77558,6,0,P|230:185|207:191,1,35,8|0,0:0|0:0,0:0:0:0:
326,156,77758,2,0,P|333:132|327:109,1,35,8|0,0:0|0:0,0:0:0:0:
378,221,77958,2,0,P|402:228|425:222,1,35,8|0,0:0|0:0,0:0:0:0:
202,191,78158,6,0,P|234:186|259:194,1,52.5000020027161,8|0,0:0|0:0,0:0:0:0:
326,104,78358,2,0,P|331:136|323:161,1,52.5000020027161,8|0,0:0|0:0,0:0:0:0:
429,221,78558,2,0,P|397:226|372:218,1,52.5000020027161,8|0,0:0|0:0,0:0:0:0:
300,303,78758,2,0,P|295:271|303:246,1,52.5000020027161,8|0,0:0|0:0,0:0:0:0:
326,104,78958,6,0,P|362:121|404:114,1,70,8|0,0:0|0:0,0:0:0:0:
429,221,79158,2,0,P|412:257|419:299,1,70,8|0,0:0|0:0,0:0:0:0:
300,303,79358,2,0,P|264:286|222:293,1,70,8|0,0:0|0:0,0:0:0:0:
202,191,79558,2,0,P|219:155|212:113,1,70,8|0,0:0|0:0,0:0:0:0:
391,118,79758,6,0,L|502:119,1,90.9999958343508,8|0,0:0|0:0,0:0:0:0:
414,286,79958,2,0,L|413:397,1,90.9999958343508,8|0,0:0|0:0,0:0:0:0:
234,288,80158,2,0,L|123:287,1,90.9999958343508,8|0,0:0|0:0,0:0:0:0:
216,125,80358,2,0,L|217:14,1,90.9999958343508,8|0,0:0|0:0,0:0:0:0:
481,118,80558,5,12,0:0:0:0:
387,40,80758,5,8,0:0:0:0:
312,66,80858,1,8,0:0:0:0:
312,139,80959,2,8,L|312:216,3,77.0000023498536
392,209,81358,6,8,L|391:118,3,90.9999958343508
313,112,81758,6,8,L|312:216,3,105.000004005432
216,227,82158,5,8,3:0:0:0:
216,125,82258,1,8,3:0:0:0:
216,227,82358,1,8,3:0:0:0:
216,125,82458,1,8,3:0:0:0:
134,250,82558,5,4,3:0:0:0:
136,109,82658,1,4,3:0:0:0:
134,250,82758,1,4,3:0:0:0:
136,109,82858,1,4,3:0:0:0:
136,351,82958,6,0,L|128:351,14,5.24999983978272,8|0|0|0|0|0|0|0|0|0|0|0|0|0|0,0:0|0:0|0:0|0:0|0:0|0:0|0:0|0:0|0:0|0:0|0:0|0:0|0:0|0:0|0:0,0:0:0:0:
143,328,83758,6,0,L|36:328,1,105.000004005432,4|0,3:1|0:0,0:0:0:0:
154,182,83958,1,8,0:0:0:0:
225,224,84058,2,0,P|238:174|216:128,1,105.000004005432,0|0,3:0|0:0,0:0:0:0:
46,26,84258,1,0,3:0:0:0:
125,52,84358,2,0,L|230:52,1,105.000004005432,8|0,0:0|0:0,0:0:0:0:
486,191,84558,6,0,L|379:191,1,105.000004005432,0|0,3:0|0:0,0:0:0:0:
328,16,84758,2,0,P|350:62|337:112,1,105.000004005432,8|0,0:0|0:0,0:0:0:0:
346,294,84958,1,0,3:0:0:0:
310,217,85058,1,0,3:0:0:0:
361,315,85158,2,0,L|466:315,1,105.000004005432,8|0,0:0|0:0,0:0:0:0:
248,328,85358,6,0,L|143:328,1,105.000004005432,0|0,3:0|0:0,0:0:0:0:
19,202,85558,1,8,0:0:0:0:
73,267,85658,1,2,0:0:0:0:
0,178,85758,2,0,L|105:178,1,105.000004005432,0|0,3:0|0:0,0:0:0:0:
209,44,85958,1,8,0:0:0:0:
155,109,86058,1,2,0:0:0:0:
228,21,86158,6,0,L|123:21,1,105.000004005432,0|0,3:0|0:0,0:0:0:0:
222,188,86358,2,0,P|258:222|317:211,1,105.000004005432,8|0,0:0|0:0,0:0:0:0:
415,44,86558,2,0,P|379:10|320:21,1,105.000004005432,0|0,3:0|0:0,0:0:0:0:
291,131,86758,2,0,P|326:137|298:102,1,105.000004005432,8|0,0:0|0:0,0:0:0:0:
163,320,86958,6,0,B|185:260|254:269|254:269|247:327|305:367,1,210.000008010865,4|8,3:0|0:0,0:0:0:0:
336,283,87258,1,2,0:0:0:0:
386,350,87358,2,0,B|427:323|420:265|420:265|489:256|511:316,1,210.000008010865,0|8,3:0|0:0,0:0:0:0:
336,283,87658,1,2,0:0:0:0:
456,190,87758,6,0,P|405:173|362:197,1,105.000004005432,4|0,3:0|0:0,0:0:0:0:
253,269,87958,2,0,P|204:286|159:262,1,105.000004005432,8|0,0:0|0:0,0:0:0:0:
116,153,88158,1,0,3:0:0:0:
83,230,88258,1,0,3:0:0:0:
127,129,88358,2,0,P|172:105|220:122,1,105.000004005432,8|0,0:0|0:0,0:0:0:0:
454,56,88558,6,0,B|356:67|299:140|299:140|307:104,1,210.000008010865,4|8,3:0|0:0,0:0:0:0:
253,44,88858,1,2,0:0:0:0:
71,66,88958,2,0,B|169:77|226:150|226:150|220:123,1,210.000008010865,0|8,3:0|0:0,0:0:0:0:
253,44,89258,1,2,0:0:0:0:
305,112,89358,5,8,3:0:0:0:
312,143,89458,1,8,0:0:0:0:
277,208,89558,5,8,0:0:0:0:
270,239,89658,1,8,0:0:0:0:
346,295,89758,5,8,0:0:0:0:
403,318,89858,1,8,0:0:0:0:
429,259,89958,1,8,3:0:0:0:
372,234,90058,1,8,3:0:0:0:
286,340,90158,6,0,L|181:327,1,105.000004005432,4|0,3:2|0:0,0:0:0:0:
25,254,90358,2,0,L|129:241,1,105.000004005432,8|0,0:0|0:0,0:0:0:0:
170,130,90558,1,0,3:0:0:0:
200,208,90658,1,0,3:0:0:0:
162,109,90758,2,0,P|117:82|70:95,1,105.000004005432,8|0,0:0|0:0,0:0:0:0:
253,44,90958,6,0,P|298:17|345:30,1,105.000004005432,4|0,3:0|0:0,0:0:0:0:
453,109,91158,2,0,P|466:158|439:201,1,105.000004005432,8|0,0:0|0:0,0:0:0:0:
343,292,91358,2,0,P|293:305|250:278,1,105.000004005432,0|0,3:0|0:0,0:0:0:0:
311,148,91558,2,0,P|344:177|300:177,1,105.000004005432,8|0,0:0|0:0,0:0:0:0:
162,109,91758,6,0,P|117:136|70:123,1,105.000004005432,4|0,3:0|0:0,0:0:0:0:
21,339,91958,2,0,P|66:312|113:325,1,105.000004005432,8|0,0:0|0:0,0:0:0:0:
250,278,92158,1,0,3:0:0:0:
201,344,92258,1,0,3:0:0:0:
261,266,92358,2,0,L|375:266,1,105.000004005432,8|0,0:0|0:0,0:0:0:0:
450,30,92558,6,0,L|336:30,1,105.000004005432,4|0,3:0|0:0,0:0:0:0:
162,109,92758,2,0,L|57:109,1,105.000004005432,8|0,0:0|0:0,0:0:0:0:
311,148,92958,2,0,L|425:148,1,105.000004005432,0|0,3:0|0:0,0:0:0:0:
166,228,93158,1,10,0:0:0:0:
166,228,93258,1,2,0:0:0:0:
166,228,93358,6,0,B|106:243|66:186|66:186|31:221|14:266|67:313,1,238.00000453949,12|0,0:0|0:0,0:0:0:0:
261,266,93658,2,0,B|296:294|279:339|244:374|244:374|204:317|117:331,1,265.999992897034,12|0,0:0|0:0,0:0:0:0:
311,148,93958,2,0,B|298:133|286:109|286:109|290:161|249:182,1,132.999996448517,12|0,0:0|0:0,0:0:0:0:
354,278,94158,6,0,B|361:317|361:317|515:312|515:312|504:270,1,238.00000453949,12|0,0:0|0:0,0:0:0:0:
460,38,94458,2,0,B|472:91|411:123|411:123|451:136|451:136|386:177|436:242,1,265.999992897034,12|0,0:0|0:0,0:0:0:0:
337,53,94758,2,0,P|372:20|357:65,1,132.999996448517,12|0,0:0|0:0,0:0:0:0:
292,109,94958,5,0,3:0:0:0:
289,124,95058,1,8,0:0:0:0:
284,139,95158,1,8,0:0:0:0:
279,154,95258,1,8,0:0:0:0:
279,154,95358,5,8,0:0:0:0:
211,104,95458,1,8,0:0:0:0:
127,93,95558,1,8,0:0:0:0:
56,139,95658,1,8,0:0:0:0:
133,191,95758,5,8,3:0:0:0:
169,170,95858,1,8,3:0:0:0:
195,203,95958,1,4,3:0:0:0:
157,223,96058,1,4,3:0:0:0:
87,255,96158,5,10,0:0:0:0:
95,338,96258,1,10,0:0:0:0:
174,295,96358,1,10,0:0:0:0:
189,377,96458,1,10,0:0:0:0:
393,275,96558,6,0,P|352:242|304:254,1,105.000004005432,4|0,3:1|0:0,0:0:0:0:
310,147,96758,2,0,P|348:114|398:125,1,105.000004005432,8|0,0:0|0:0,0:0:0:0:
485,198,96958,1,0,3:0:0:0:
475,281,97058,1,0,3:0:0:0:
487,171,97158,2,0,L|486:53,1,105.000004005432,8|0,0:0|0:0,0:0:0:0:
279,51,97358,6,0,P|238:77|182:62,1,105.000004005432,4|0,3:0|0:0,0:0:0:0:
66,274,97558,1,8,0:0:0:0:
70,197,97658,2,0,P|111:171|167:186,1,105.000004005432,0|0,3:0|0:0,0:0:0:0:
288,326,97858,1,0,3:0:0:0:
304,253,97958,2,0,P|263:227|207:242,1,105.000004005432,8|0,0:0|0:0,0:0:0:0:
108,342,98158,6,0,L|224:337,1,105.000004005432,4|0,3:0|0:0,0:0:0:0:
365,304,98358,2,0,L|481:299,1,105.000004005432,8|0,0:0|0:0,0:0:0:0:
462,86,98558,1,0,3:0:0:0:
391,131,98658,1,0,3:0:0:0:
486,61,98758,2,0,L|370:56,1,105.000004005432,8|0,0:0|0:0,0:0:0:0:
80,69,98958,6,0,L|185:64,1,105.000004005432,4|0,3:0|0:0,0:0:0:0:
287,158,99158,2,0,P|314:204|300:258,1,105.000004005432,8|0,0:0|0:0,0:0:0:0:
45,285,99358,1,0,3:0:0:0:
108,342,99458,1,0,3:0:0:0:
20,257,99558,2,0,L|136:252,1,105.000004005432,8|0,0:0|0:0,0:0:0:0:
476,236,99758,6,0,B|503:284|457:331|457:331|380:309|405:235,1,210.000008010865,4|8,3:0|0:0,0:0:0:0:
419,172,100058,1,2,0:0:0:0:
367,95,100158,2,0,B|342:52|388:5|388:5|465:27|446:80,1,210.000008010865,0|8,3:0|0:0,0:0:0:0:
419,172,100458,1,2,0:0:0:0:
313,220,100558,6,0,L|206:215,1,105.000004005432,4|0,3:0|0:0,0:0:0:0:
3,346,100758,2,0,L|110:341,1,105.000004005432,8|0,0:0|0:0,0:0:0:0:
121,260,100958,1,0,3:0:0:0:
39,240,101058,1,0,3:0:0:0:
152,265,101158,2,0,P|120:219|134:168,1,105.000004005432,8|0,0:0|0:0,0:0:0:0:
203,115,101358,6,0,P|121:172|75:92,1,210.000008010865,4|8,3:1|0:0,0:0:0:0:
260,43,101658,1,2,0:0:0:0:
315,115,101758,2,0,P|397:172|443:92,1,210.000008010865,0|8,3:0|0:0,0:0:0:0:
260,43,102058,1,2,0:0:0:0:
73,97,102158,6,0,P|73:46|116:20,1,105.000004005432,0|0,3:0|0:0,0:0:0:0:
205,216,102358,2,0,P|179:173|129:173,1,105.000004005432,8|0,0:0|0:0,0:0:0:0:
21,309,102558,2,0,P|48:265|98:266,1,105.000004005432,0|0,3:0|3:0,0:0:0:0:
276,279,102758,5,8,0:0:0:0:
179,331,102858,1,8,0:0:0:0:
332,345,102958,6,0,B|289:332|276:278|276:278|248:336|178:330,1,210.000008010865,6|0,0:0|0:0,0:0:0:0:
323,209,103258,2,0,B|366:222|379:276|379:276|407:218|477:224,1,210.000008010865,8|0,0:0|0:0,0:0:0:0:
197,244,103558,2,0,P|183:194|210:150,1,105.000004005432,8|0,0:0|0:0,0:0:0:0:
413,60,103758,2,0,P|426:109|399:153,1,105.000004005432,0|0,3:0|0:0,0:0:0:0:
178,330,103958,2,0,L|48:325,1,105.000004005432,8|0,0:0|0:0,0:0:0:0:
103,125,104158,2,0,L|108:-5,1,105.000004005432,0|0,3:0|0:0,0:0:0:0:
308,60,104358,2,0,L|413:60,1,105.000004005432,8|0,0:0|0:0,0:0:0:0:
476,223,104558,6,0,P|467:273|427:304,1,105.000004005432,0|0,3:0|0:0,0:0:0:0:
178,330,104758,1,8,0:0:0:0:
118,239,104858,1,2,0:0:0:0:
68,352,104958,2,0,L|185:345,1,105.000004005432,0|0,3:0|0:0,0:0:0:0:
322,208,105158,2,0,P|315:157|275:126,1,105.000004005432,8|0,0:0|0:0,0:0:0:0:
213,262,105358,5,8,0:0:0:0:
245,254,105458,1,8,0:0:0:0:
305,321,105558,5,8,3:0:0:0:
274,330,105658,1,8,3:0:0:0:
386,359,105758,5,4,3:0:0:0:
418,361,105858,1,4,3:0:0:0:
445,349,105958,1,4,3:0:0:0:
461,321,106058,1,4,3:0:0:0:
461,248,106158,6,0,B|429:173|429:173|487:57,2,210,6|0|2,0:0|0:0|0:0,0:0:0:0:
51,248,106958,2,0,B|83:173|83:173|25:57,1,210,8|0,0:0|0:0,0:0:0:0:
25,58,107358,1,0,3:0:0:0:
198,62,107758,6,0,P|255:83|321:45,1,140,4|0,3:0|0:0,0:0:0:0:
320,46,108058,2,0,P|299:103|337:169,1,140,0|0,3:0|0:0,0:0:0:0:
357,177,108358,1,0,3:0:0:0:
151,134,108558,1,8,0:0:0:0:
293,272,108758,1,0,3:0:0:0:
293,272,108824,1,0,3:0:0:0:
293,272,108891,1,0,3:0:0:0:
293,272,108958,2,0,P|242:225|176:242,1,140,8|0,0:0|0:0,0:0:0:0:
161,260,109258,1,2,0:0:0:0:
357,177,109358,6,0,P|408:130|474:147,1,140,12|0,0:0|0:0,0:0:0:0:
495,217,109658,2,0,P|444:264|378:247,1,140,8|0,0:0|0:0,0:0:0:0:
357,177,109958,2,0,P|362:149|337:106,1,70,8|0,0:0|0:0,0:0:0:0:
27,102,110158,2,0,P|101:34|205:58,2,210,8|8|8,0:0|0:0|0:0,0:0:0:0:
126,222,110958,6,0,L|131:139,1,83.9999974365235,0|0,3:0|0:0,0:0:0:0:
287,158,111158,2,0,L|282:241,1,83.9999974365235,8|0,0:0|0:0,0:0:0:0:
243,342,111358,1,2,0:0:0:0:
210,336,111458,1,2,0:0:0:0:
177,329,111558,1,10,0:0:0:0:
144,323,111658,1,2,0:0:0:0:
111,318,111758,2,0,L|24:319,1,83.9999974365235
131,138,111958,1,8,0:0:0:0:
282,241,112158,1,8,0:0:0:0:
315,235,112258,1,8,0:0:0:0:
348,228,112358,1,8,3:0:0:0:
381,222,112458,1,8,3:0:0:0:
412,215,112558,6,0,P|426:127|336:156,1,210,6|0,0:0|0:0,0:0:0:0:
481,31,113358,1,4,3:0:0:0:
173,131,113958,5,0,3:0:0:0:
138,69,114058,1,0,3:0:0:0:
68,159,114158,6,0,L|201:149,1,90.9999958343508,12|0,0:0|0:0,0:0:0:0:
222,247,114358,5,0,3:0:0:0:
103,233,114458,2,0,L|236:223,1,90.9999958343508,12|0,0:0|0:0,0:0:0:0:
246,323,114658,5,0,3:0:0:0:
101,312,114758,2,0,L|171:307,1,70,12|8,0:0|3:0,0:0:0:0:
297,263,115358,5,8,0:0:0:0:
309,235,115458,1,8,0:0:0:0:
397,235,115558,5,8,3:0:0:0:
385,263,115658,1,8,3:0:0:0:
319,355,115758,6,0,P|367:343|424:357,1,90.9999958343508,6|0,0:0|0:0,0:0:0:0:
496,157,115958,5,8,0:0:0:0:
467,70,116058,1,8,3:0:0:0:
412,142,116158,2,0,P|367:148|323:136,1,90.9999958343508,6|0,0:0|0:0,0:0:0:0:
233,115,116358,1,8,0:0:0:0:
272,196,116458,1,8,3:0:0:0:
183,176,116558,2,0,P|139:164|94:170,1,90.9999958343508,6|0,0:0|0:0,0:0:0:0:
14,278,116758,1,8,0:0:0:0:
97,241,116858,1,8,3:0:0:0:
19,194,116958,2,0,P|12:149|24:105,1,90.9999958343508,6|0,0:0|0:0,0:0:0:0:
100,67,117158,1,8,0:0:0:0:
100,67,117258,1,8,0:0:0:0:
250,83,117358,6,0,B|235:39|188:34|188:34|155:74|100:67,1,181.999991668702,14|0,0:0|0:0,0:0:0:0:
323,136,117658,2,0,B|337:92|384:87|384:87|417:127|472:120,1,181.999991668702,12|0,0:0|0:0,0:0:0:0:
241,167,117958,2,0,L|162:167,1,70,12|0,0:0|0:0,0:0:0:0:
241,167,118558,5,8,0:0:0:0:
320,239,118658,2,0,L|368:239,2,45.4999979171754,0|0|0,3:0|3:0|3:0,3:0:0:0:
320,239,118858,1,4,3:0:0:0:
228,282,118958,6,0,P|193:308|143:300,1,90.9999958343508,8|0,0:0|0:0,0:0:0:0:
147,302,119158,2,0,P|182:276|232:284,1,90.9999958343508,0|0,3:0|0:0,0:0:0:0:
60,297,119358,2,0,P|34:262|42:212,1,90.9999958343508,8|0,0:0|0:0,0:0:0:0:
320,239,119558,2,0,P|346:274|338:324,1,90.9999958343508,0|0,3:0|0:0,0:0:0:0:
142,159,119758,5,8,3:0:0:0:
58,144,119891,5,8,3:0:0:0:
65,120,119958,1,0,3:0:0:0:
81,100,120024,1,0,3:0:0:0:
102,87,120091,1,0,3:0:0:0:
127,79,120158,6,0,L|187:79,1,52.5,8|0,0:0|0:0,0:0:0:0:
354,34,120558,6,0,P|309:22|262:37,1,90.9999958343508,4|0,3:0|0:0,0:0:0:0:
233,238,120758,2,0,P|278:250|325:235,1,90.9999958343508,8|0,0:0|0:0,0:0:0:0:
446,152,120958,1,0,3:0:0:0:
464,81,121058,1,0,3:0:0:0:
439,178,121158,2,0,L|440:277,1,90.9999958343508,8|0,0:0|0:0,0:0:0:0:
268,124,121358,6,0,L|267:25,1,90.9999958343508,4|0,3:0|0:0,0:0:0:0:
319,238,121558,2,0,L|320:337,1,90.9999958343508,8|0,0:0|0:0,0:0:0:0:
147,345,121758,1,0,3:0:0:0:
215,319,121858,1,0,3:0:0:0:
121,353,121958,2,0,P|98:315|111:267,1,90.9999958343508,8|0,0:0|0:0,0:0:0:0:
169,25,122158,6,0,P|191:62|178:110,1,90.9999958343508,4|0,3:0|0:0,0:0:0:0:
43,208,122358,2,0,P|20:170|33:122,1,90.9999958343508,8|0,0:0|0:0,0:0:0:0:
198,184,122558,1,0,3:0:0:0:
125,194,122658,1,0,3:0:0:0:
224,184,122758,2,0,L|326:184,1,90.9999958343508,8|0,0:0|0:0,0:0:0:0:
464,81,122958,6,0,L|362:81,1,90.9999958343508,4|0,3:0|0:0,0:0:0:0:
390,257,123158,2,0,P|412:218|401:175,1,90.9999958343508,8|0,0:0|0:0,0:0:0:0:
301,106,123358,5,0,3:0:0:0:
273,102,123458,1,0,3:0:0:0:
305,18,123558,5,8,0:0:0:0:
333,14,123658,1,8,0:0:0:0:
432,11,123758,6,0,P|469:42|458:87,1,90.9999958343508,6|0,0:0|0:0,0:0:0:0:
401,175,123958,1,10,0:0:0:0:
328,179,124058,1,2,0:0:0:0:
307,248,124158,1,0,3:0:0:0:
340,312,124258,1,2,0:0:0:0:
283,358,124358,1,10,0:0:0:0:
212,340,124458,1,2,0:0:0:0:
210,267,124558,1,0,3:0:0:0:
162,212,124658,1,2,0:0:0:0:
97,250,124758,1,10,0:0:0:0:
27,227,124858,1,2,0:0:0:0:
3,158,124958,1,0,3:0:0:0:
41,95,125058,1,2,0:0:0:0:
113,105,125158,1,10,0:0:0:0:
78,169,125258,1,2,0:0:0:0:
3,158,125358,5,10,0:0:0:0:
200,151,125558,1,8,0:0:0:0:
222,159,125624,1,8,0:0:0:0:
245,154,125691,1,8,0:0:0:0:
267,144,125758,6,0,B|312:166|312:166|368:142,1,90.9999958343508,8|0,0:0|3:0,0:0:0:0:
424,87,125924,2,0,L|424:26,2,60.6666638895672,0|0|0,3:0|3:0|3:0,3:0:0:0:
496,152,126158,1,0,3:0:0:0:
472,172,126258,1,0,3:0:0:0:
448,195,126358,6,0,L|464:281,1,70,4|0,3:0|3:0,0:0:0:0:
379,242,126558,2,0,L|395:328,1,70,4|0,3:0|3:0,0:0:0:0:
310,286,126758,2,0,L|326:372,1,70,4|0,3:0|3:0,0:0:0:0:
239,349,126958,1,0,0:0:0:0:
438,79,133158,5,2,0:0:0:0:
438,79,133258,1,2,0:0:0:0:
438,79,133358,2,0,P|414:128|426:182,1,105.000004005432,2|0,0:0|0:0,0:0:0:0:
383,247,133958,1,2,0:0:0:0:
383,247,134058,2,0,P|371:328|325:262,1,183.750007009506,2|0,0:0|0:0,0:0:0:0:
57,143,134958,6,0,P|56:67|118:101,1,157.500006008148,2|0,0:0|0:0,0:0:0:0:
170,139,135658,1,2,0:0:0:0:
186,138,135758,1,2,0:0:0:0:
27,218,136158,1,2,0:0:0:0:
198,279,136358,1,2,0:0:0:0:
198,279,136458,1,2,0:0:0:0:
27,218,136558,5,4,3:0:0:0:
254,334,137158,1,0,3:0:0:0:
314,286,137258,1,0,3:0:0:0:
387,307,137358,6,0,P|397:261|386:221,1,77.0000023498536,8|0,0:0|0:0,0:0:0:0:
341,154,137558,5,0,3:0:0:0:
494,108,137658,2,0,P|448:98|408:109,1,77.0000023498536,8|0,0:0|0:0,0:0:0:0:
341,154,137858,5,0,3:0:0:0:
282,6,137958,2,0,P|272:52|283:92,1,77.0000023498536,8|0,0:0|0:0,0:0:0:0:
198,279,138158,6,0,P|219:206|202:113,1,154.000004699707,4|0,0:0|3:0,0:0:0:0:
131,120,138458,2,0,P|110:193|127:286,1,154.000004699707,8|0,0:0|3:0,0:0:0:0:
197,38,138758,2,0,L|99:33,1,77.0000023498536,8|0,0:0|0:0,0:0:0:0:
51,83,138958,5,8,0:0:0:0:
46,105,139058,1,8,0:0:0:0:
5,167,139158,5,8,3:0:0:0:
10,189,139258,1,8,3:0:0:0:
41,257,139358,5,8,3:0:0:0:
36,279,139458,1,8,3:0:0:0:
0,344,139558,5,4,3:0:0:0:
5,366,139658,1,4,3:0:0:0:
96,348,139758,6,0,P|155:310|231:325,1,140,6|0,0:0|3:0,0:0:0:0:
416,36,140558,2,0,P|357:74|281:59,1,140,8|0,0:0|3:0,0:0:0:0:
345,187,141358,6,0,P|405:176|444:224,1,105,0|0,3:0|0:0,0:0:0:0:
449,228,141758,1,0,3:0:0:0:
231,234,141958,1,0,3:0:0:0:
231,234,142058,1,0,3:0:0:0:
231,234,142158,2,0,L|140:230,1,70,8|0,0:0|3:0,0:0:0:0:
137,225,142458,1,8,3:3:0:0:
137,225,142558,6,0,P|132:208|121:194,1,35,8|0,3:3|3:0,3:0:0:0:
151,68,142758,2,0,P|134:72|120:83,1,35,8|0,3:3|3:0,3:0:0:0:
96,348,142958,6,0,P|155:310|231:325,1,140,6|0,0:0|3:0,0:0:0:0:
416,36,143758,2,0,P|357:74|281:59,1,140,8|0,0:0|3:0,0:0:0:0:
345,187,144558,6,0,P|405:176|444:224,1,105,0|0,3:0|0:0,0:0:0:0:
449,228,144958,1,0,3:0:0:0:
213,59,145158,1,0,3:0:0:0:
213,59,145258,1,0,3:0:0:0:
213,59,145358,2,0,P|174:52|143:81,1,70,8|0,0:0|0:0,0:0:0:0:
139,93,145658,1,8,0:0:0:0:
139,93,145758,1,8,0:0:0:0:
96,348,145958,1,8,0:0:0:0:
96,348,146058,1,8,0:0:0:0:
96,348,146158,6,0,P|155:310|231:325,1,140,6|0,0:0|3:0,0:0:0:0:
416,36,146958,2,0,P|357:74|281:59,1,140,8|0,0:0|3:0,0:0:0:0:
64,184,147758,6,0,L|145:181,1,70,0|0,3:0|0:0,0:0:0:0:
153,191,148058,2,0,L|236:191,1,70,0|0,3:0|0:0,0:0:0:0:
389,241,148358,1,0,3:0:0:0:
389,241,148458,1,0,3:0:0:0:
389,241,148558,2,0,P|358:260|319:239,1,70,8|0,0:0|3:0,0:0:0:0:
338,150,148958,5,8,0:0:0:0:
347,131,149058,1,8,0:0:0:0:
434,120,149158,5,8,3:0:0:0:
425,139,149258,1,8,3:0:0:0:
483,210,149358,5,6,0:0:0:0:
257,329,149658,1,6,0:0:0:0:
38,195,149958,1,6,0:0:0:0:
258,302,150158,5,8,0:0:0:0:
241,204,150358,1,8,3:0:0:0:
248,198,150424,1,8,3:0:0:0:
257,198,150491,1,8,3:0:0:0:
266,200,150558,1,12,0:0:0:0:
254,74,150958,5,4,0:0:0:0:
328,237,151158,1,2,0:0:0:0:
444,47,151358,2,0,P|417:31|376:37,1,70,2|8,0:0|0:0,0:0:0:0:
33,118,151758,1,8,0:0:0:0:
38,195,151858,1,8,3:0:0:0:
254,74,152058,1,8,0:0:0:0:
226,162,152158,2,0,L|227:92,1,70,4|0,3:0|0:0,0:0:0:0:
341,111,152358,1,8,0:0:0:0:
352,137,152458,1,8,0:0:0:0:
328,237,152558,6,8,L|293:237,3,35.0000013351441,8|8|8|8,0:3|0:3|0:3|0:3,0:3:0:0:
390,282,152958,5,8,0:0:0:0:
403,212,153058,1,8,0:3:0:0:
472,220,153158,1,4,0:3:0:0:
462,289,153258,1,4,0:3:0:0:
328,237,153358,5,4,0:3:0:0:
256,336,153558,1,4,0:3:0:0:
256,336,153658,1,4,0:3:0:0:
256,336,153758,1,8,0:0:0:0:
121,294,153958,1,8,0:0:0:0:
121,294,154058,1,8,0:0:0:0:
121,294,154158,6,0,B|76:260|76:260|106:207,1,105.000004005432,14|0,0:0|0:0,0:0:0:0:
121,202,154458,1,2,0:0:0:0:
143,112,154558,2,0,L|137:18,1,90.9999958343508,8|0,0:3|0:0,0:0:0:0:
49,143,154758,1,8,0:3:0:0:
221,3,154958,5,6,0:3:0:0:
225,39,155058,1,4,0:3:0:0:
227,75,155158,1,4,0:3:0:0:
231,111,155258,1,4,0:3:0:0:
49,143,155358,5,8,0:0:0:0:
257,195,155558,2,0,P|300:170|347:178,1,90.9999958343508,0|0,3:0|3:0,0:0:0:0:
443,212,155758,5,10,0:0:0:0:
443,212,155824,1,8,0:0:0:0:
443,212,155891,1,8,0:0:0:0:
443,212,155958,1,8,0:0:0:0:
443,212,156024,1,8,0:0:0:0:
443,212,156091,1,8,0:0:0:0:
444,256,156158,5,10,0:3:0:0:
444,256,156224,1,8,0:3:0:0:
444,256,156291,1,8,0:3:0:0:
444,256,156358,1,8,0:3:0:0:
444,256,156424,1,8,0:3:0:0:
444,256,156491,1,8,0:3:0:0:
434,285,156558,6,0,L|435:346,5,60.6666638895672,2|0|0|0|0|0,3:0|3:0|3:0|3:0|3:0|3:0,3:0:0:0:
370,360,156958,6,0,L|328:358,1,35,10|0,0:0|0:0,0:0:0:0:
314,374,157258,1,2,0:0:0:0:
208,316,157358,6,0,P|243:283|300:301,1,105.000004005432,4|0,3:1|0:0,0:0:0:0:
121,261,157558,2,0,P|86:228|29:246,1,105.000004005432,8|0,0:0|0:0,0:0:0:0:
256,159,157758,1,0,3:0:0:0:
344,103,157858,1,0,3:0:0:0:
351,207,157958,2,0,P|302:219|264:185,1,105.000004005432,8|0,0:0|0:0,0:0:0:0:
10,98,158158,6,0,P|68:14|151:60,1,210.000008010865,4|8,3:0|0:0,0:0:0:0:
243,100,158458,2,0,P|290:114|349:100,1,105.000004005432,2|0,0:0|3:0,0:0:0:0:
413,28,158658,1,0,3:0:0:0:
413,28,158758,2,0,P|443:71|443:129,1,105.000004005432,8|0,0:0|0:0,0:0:0:0:
351,207,158958,6,0,B|365:260|334:303|334:303|365:260|427:249,1,210.000008010865,4|8,3:0|0:0,0:0:0:0:
448,233,159258,1,2,0:0:0:0:
385,352,159358,2,0,L|274:346,1,105.000004005432,0|0,3:0|0:0,0:0:0:0:
161,241,159558,2,0,L|272:235,1,105.000004005432,8|0,0:0|0:0,0:0:0:0:
100,345,159758,5,0,3:0:0:0:
201,318,159858,1,0,3:0:0:0:
74,350,159958,2,0,P|46:307|56:244,1,105.000004005432,8|0,0:0|0:0,0:0:0:0:
162,99,160158,1,0,3:0:0:0:
61,126,160258,1,0,3:0:0:0:
188,94,160358,2,0,P|216:137|206:200,1,105.000004005432,8|0,0:0|0:0,0:0:0:0:
351,207,160558,6,0,B|407:182|467:219|467:219|453:169|380:156,1,210.000008010865,4|8,3:1|0:0,0:0:0:0:
308,117,160858,1,2,0:0:0:0:
404,76,160958,2,0,B|452:69|466:19|466:19|406:56|350:31,1,210.000008010865,0|8,3:0|0:0,0:0:0:0:
308,117,161258,1,2,0:0:0:0:
163,58,161358,6,0,P|200:28|255:32,1,105.000004005432,0|0,3:0|0:0,0:0:0:0:
351,207,161558,2,0,P|381:244|377:299,1,105.000004005432,8|0,0:0|0:0,0:0:0:0:
152,347,161758,1,0,3:0:0:0:
245,298,161858,1,0,3:0:0:0:
122,347,161958,2,0,P|92:310|96:255,1,105.000004005432,8|0,0:0|0:0,0:0:0:0:
104,23,162158,6,0,B|158:57|143:102|143:102|80:116|59:186,1,210.000008010865,4|8,3:0|0:0,0:0:0:0:
162,208,162458,1,2,0:0:0:0:
265,192,162558,2,0,B|211:158|225:112|225:112|288:98|305:40,1,210.000008010865,0|8,3:0|0:0,0:0:0:0:
205,5,162858,1,2,0:0:0:0:
321,38,162958,5,0,3:0:0:0:
354,28,163058,1,0,3:0:0:0:
427,5,163158,5,8,0:0:0:0:
460,16,163258,1,8,0:0:0:0:
489,169,163358,5,8,3:0:0:0:
408,145,163458,1,8,3:0:0:0:
469,87,163558,1,4,3:0:0:0:
489,169,163658,1,4,3:0:0:0:
433,221,163758,6,0,P|389:189|329:203,1,105.000004005432,6|0,0:0|0:0,0:0:0:0:
122,347,163958,2,0,L|235:343,1,105.000004005432,8|0,0:0|0:0,0:0:0:0:
427,317,164158,1,0,3:0:0:0:
334,366,164258,1,0,3:0:0:0:
411,296,164358,2,0,L|298:292,1,105.000004005432,8|0,0:0|0:0,0:0:0:0:
68,221,164558,6,0,P|112:195|169:213,1,105.000004005432,4|0,3:0|0:0,0:0:0:0:
404,113,164758,2,0,P|360:87|303:105,1,105.000004005432,8|0,0:0|0:0,0:0:0:0:
298,376,164958,2,0,L|294:272,1,105.000004005432,0|0,3:0|0:0,0:0:0:0:
207,107,165158,2,0,L|202:1,1,105.000004005432,8|0,0:0|0:0,0:0:0:0:
48,102,165358,6,0,P|92:118|111:67,1,105.000004005432,4|0,3:0|0:0,0:0:0:0:
469,141,165558,2,0,P|425:157|406:106,1,105.000004005432,8|0,0:0|0:0,0:0:0:0:
244,209,165758,1,0,3:0:0:0:
310,127,165858,1,0,3:0:0:0:
222,233,165958,2,0,L|228:347,1,105.000004005432,8|0,0:0|0:0,0:0:0:0:
397,316,166158,6,0,L|516:304,1,105.000004005432,4|0,3:0|0:0,0:0:0:0:
122,270,166358,2,0,L|3:258,1,105.000004005432,8|0,0:0|0:0,0:0:0:0:
310,127,166558,5,8,0:0:0:0:
153,192,166658,1,8,0:0:0:0:
207,107,166758,5,8,0:0:0:0:
207,107,166858,1,8,0:0:0:0:
207,107,166958,6,0,B|195:11|148:19|148:19|150:69|264:41,1,238.00000453949,12|0,0:0|0:0,0:0:0:0:
402,136,167258,2,0,B|357:154|310:126|310:126|236:177|234:223|271:251|313:237|309:194|276:205,1,265.999992897034,12|0,0:0|0:0,0:0:0:0:
368,45,167558,2,0,B|397:9|426:6|426:6|417:44|450:69,1,132.999996448517,12|0,0:0|0:0,0:0:0:0:
440,325,167758,6,0,B|497:291|497:291|460:215|460:215|386:261,1,238.00000453949,12|0,0:0|0:0,0:0:0:0:
197,327,168058,2,0,B|220:308|249:327|249:327|266:310|266:310|297:353|347:347|347:347|307:329|290:275,1,265.999992897034,12|0,0:0|0:0,0:0:0:0:
188,203,168358,2,0,B|214:191|230:164|230:164|214:191|226:238,1,132.999996448517,12|0,0:0|0:0,0:0:0:0:
120,268,168558,6,0,L|18:253,1,70,12|0,0:0|0:0,0:0:0:0:
165,133,168758,5,8,0:0:0:0:
173,116,168824,1,8,0:0:0:0:
188,104,168891,1,8,0:0:0:0:
206,99,168958,1,8,3:0:0:0:
224,100,169024,1,8,3:0:0:0:
241,105,169091,1,8,3:0:0:0:
257,113,169158,2,0,P|293:120|337:104,1,70,0|0,3:0|3:0,0:0:0:0:
469,219,169358,5,4,3:0:0:0:
379,165,169458,1,4,3:0:0:0:
287,217,169558,1,8,0:0:0:0:
274,249,169658,5,4,3:0:0:0:
366,197,169758,1,2,0:0:0:0:
456,252,169858,1,8,0:0:0:0:
461,285,169958,5,12,3:0:0:0:
371,230,170058,1,8,0:0:0:0:
279,282,170158,6,0,P|243:314|182:301,1,105.000004005432,6|0,0:0|0:0,0:0:0:0:
71,192,170358,2,0,P|103:228|90:289,1,105.000004005432,8|0,0:0|0:0,0:0:0:0:
77,305,170558,1,0,3:0:0:0:
185,217,170658,1,0,3:0:0:0:
65,109,170758,2,0,L|171:93,1,105.000004005432,8|0,0:0|0:0,0:0:0:0:
351,187,170958,6,0,P|267:234|240:146,1,210.000008010865,4|8,3:0|0:0,0:0:0:0:
259,132,171258,1,2,0:0:0:0:
380,47,171358,2,0,L|274:31,1,105.000004005432,0|0,3:0|0:0,0:0:0:0:
65,109,171558,2,0,L|168:93,1,105.000004005432,8|0,0:0|0:0,0:0:0:0:
351,187,171758,6,0,P|443:213|400:294,1,210.000008010865,4|8,3:0|0:0,0:0:0:0:
210,332,172058,2,0,P|236:239|317:282,1,210.000008010865,2|0,0:0|0:0,0:0:0:0:
314,306,172358,1,8,0:0:0:0:
213,214,172458,1,2,0:0:0:0:
302,111,172558,6,0,P|321:62|299:18,1,105.000004005432,4|0,3:0|0:0,0:0:0:0:
61,15,172758,2,0,P|42:64|64:108,1,105.000004005432,8|0,0:0|0:0,0:0:0:0:
137,234,172958,1,0,3:0:0:0:
84,126,173058,1,0,3:0:0:0:
29,254,173158,2,0,L|137:254,1,105.000004005432,10|0,0:0|0:0,0:0:0:0:
203,311,173358,6,0,P|224:264|213:214,1,105.000004005432,4|0,3:0|0:0,0:0:0:0:
173,13,173558,2,0,P|152:60|165:110,1,105.000004005432,8|0,0:0|0:0,0:0:0:0:
404,83,173758,1,0,3:0:0:0:
302,111,173858,1,0,3:0:0:0:
435,73,173958,2,0,P|456:121|436:179,1,105.000004005432,8|0,0:0|0:0,0:0:0:0:
314,306,174158,6,0,L|200:307,1,105.000004005432,4|0,3:0|0:0,0:0:0:0:
20,252,174358,2,0,P|68:223|123:238,1,105.000004005432,8|0,0:0|0:0,0:0:0:0:
398,254,174558,1,0,3:0:0:0:
304,209,174658,1,0,3:0:0:0:
422,263,174758,2,0,P|451:215|436:160,1,105.000004005432,8|0,0:0|0:0,0:0:0:0:
96,113,174958,6,0,P|105:26|169:88,1,210.000008010865,4|8,3:1|0:0,0:0:0:0:
188,182,175258,1,2,0:0:0:0:
215,284,175358,2,0,P|206:197|142:259,1,210.000008010865,0|8,3:0|0:0,0:0:0:0:
150,351,175658,1,2,0:0:0:0:
263,354,175758,5,0,3:0:0:0:
296,346,175858,1,0,3:0:0:0:
401,342,175958,5,8,0:0:0:0:
434,334,176058,1,0,3:0:0:0:
341,282,176158,5,8,0:0:0:0:
442,256,176258,1,8,0:0:0:0:
358,189,176358,1,8,0:0:0:0:
459,158,176458,1,8,0:0:0:0:
298,121,176558,6,0,B|366:93|380:-17|380:-17|416:77|504:80,2,315.000012016297,6|10|10,0:0|0:0|0:0,0:0:0:0:
280,139,177258,1,2,0:0:0:0:
204,84,177358,6,0,P|163:57|105:71,1,105.000004005432,0|0,3:0|0:0,0:0:0:0:
124,196,177558,2,0,P|75:205|44:256,1,105.000004005432,8|0,0:0|0:0,0:0:0:0:
324,322,177758,6,0,P|365:349|423:335,1,105.000004005432,0|0,3:0|0:0,0:0:0:0:
404,210,177958,2,0,P|452:200|483:149,1,105.000004005432,8|0,0:0|0:0,0:0:0:0:
204,84,178158,6,0,P|159:167|191:284,1,210.000008010865,0|8,3:0|0:0,0:0:0:0:
258,282,178458,2,0,P|303:199|271:82,1,210.000008010865,0|0,3:0|0:0,0:0:0:0:
277,90,178758,1,8,0:0:0:0:
36,260,178958,5,2,0:0:0:0:
36,260,179058,2,8,L|29:328,2,52.5000020027161
71,181,179258,5,8,0:3:0:0:
26,109,179358,1,8,0:3:0:0:
77,42,179458,1,4,0:3:0:0:
157,65,179558,1,4,0:3:0:0:
162,148,179658,1,4,0:3:0:0:
227,206,179758,6,0,B|265:153|293:222|361:249|405:148|328:116|289:151|330:185,2,210,4|2|2,0:2|0:0|0:0,0:0:0:0:
503,58,180558,2,0,B|499:134|415:137|415:137|461:205|382:207|408:278,1,280,8|4,0:0|3:0,0:0:0:0:
419,60,181358,6,0,L|252:36,1,140,4|0,3:0|0:0,0:0:0:0:
263,25,181658,2,0,L|124:44,1,140,0|0,3:0|0:0,0:0:0:0:
110,63,181958,2,0,L|36:48,1,70,0|0,3:0|0:0,0:0:0:0:
321,175,182158,6,0,L|177:183,1,140,8|0,0:0|3:0,0:0:0:0:
169,167,182458,1,2,0:0:0:0:
204,278,182558,2,0,P|232:259|274:267,1,70,8|0,0:0|0:0,0:0:0:0:
250,352,182758,1,0,3:0:0:0:
226,348,182858,1,0,3:0:0:0:
321,175,182958,6,0,B|381:263|381:263|326:352,2,210,14|10|10,0:0|0:0|0:0,0:0:0:0:
132,290,183758,6,0,L|125:368,1,70,8|0,0:0|0:0,0:0:0:0:
418,59,184058,6,0,L|409:136,1,70,8|0,0:0|0:0,0:0:0:0:
204,278,184358,6,0,L|196:354,1,70,8|0,0:0|0:0,0:0:0:0:
341,89,184558,6,0,L|252:87,1,83.9999974365235,0|0,3:0|0:0,0:0:0:0:
73,203,184758,2,0,P|112:180|155:191,1,83.9999974365235,8|0,0:0|0:0,0:0:0:0:
379,263,184958,2,0,P|340:240|297:251,1,83.9999974365235,0|0,3:0|0:0,0:0:0:0:
326,351,185158,5,10,0:0:0:0:
438,321,185258,1,2,0:0:0:0:
468,216,185358,1,2,3:0:0:0:
404,160,185458,1,2,0:0:0:0:
328,150,185558,1,10,0:0:0:0:
281,175,185658,1,2,0:0:0:0:
234,236,185758,5,8,0:0:0:0:
235,270,185858,1,8,0:0:0:0:
237,304,185958,1,8,0:0:0:0:
238,338,186058,1,8,0:0:0:0:
148,186,186158,6,0,L|156:379,1,175,12|0,0:0|0:0,0:0:0:0:
116,118,186758,6,8,L|49:122,2,46.6666666666667,8|8|8,0:3|0:3|0:3,0:3:0:0:
138,22,186958,1,8,0:3:0:0:
349,72,187758,6,0,P|417:198|373:323,1,280,4|0,3:1|0:0,0:0:0:0:
279,336,188358,1,0,3:0:0:0:
279,336,188458,1,0,3:0:0:0:
279,336,188558,2,0,P|211:210|255:85,1,280,8|0,0:0|0:0,0:0:0:0:
96,211,189358,6,0,P|125:266|88:332,1,140,0|0,3:0|0:0,0:0:0:0:
75,192,189658,2,0,P|46:137|83:71,1,140,0|0,3:0|0:0,0:0:0:0:
172,175,189958,1,0,3:0:0:0:
172,175,190058,1,0,3:0:0:0:
172,175,190158,2,0,P|205:116|176:55,3,140,8|2|2|2,0:0|0:0|0:0|0:0,0:0:0:0:
45,269,190958,6,0,B|83:245|119:283|119:283|162:253|162:253|201:289|256:269,1,210,6|0,0:0|0:0,0:0:0:0:
230,275,191358,1,2,0:0:0:0:
306,342,191558,1,0,3:0:0:0:
345,353,191658,1,0,3:0:0:0:
387,346,191758,2,0,P|447:244|410:161,1,210,8|0,0:0|0:0,0:0:0:0:
373,164,192158,1,0,3:0:0:0:
45,269,192558,6,0,B|23:229|23:229|48:190|48:190|27:144,1,140,0|0,3:0|0:0,0:0:0:0:
116,235,192858,2,0,B|159:215|159:215|198:240|198:240|238:218,1,140,0|0,3:0|0:0,0:0:0:0:
198,146,193158,1,0,3:0:0:0:
191,127,193224,1,0,3:0:0:0:
196,108,193291,1,0,3:0:0:0:
204,90,193358,6,0,B|289:50|289:50|276:78|288:105,1,140,12|0,0:0|0:0,0:0:0:0:
440,90,193758,2,0,B|355:130|355:130|367:101|360:85,1,140,12|0,0:0|0:0,0:0:0:0:
399,224,194158,6,0,B|435:296|369:345|369:345|293:303|324:226,1,280,4|0,3:1|0:0,0:0:0:0:
113,224,194758,1,0,3:0:0:0:
113,224,194858,1,0,3:0:0:0:
113,224,194958,2,0,B|76:296|142:345|142:345|218:303|187:226,1,280,8|0,0:0|0:0,0:0:0:0:
58,54,195758,6,0,B|108:35|108:35|189:59|189:59|261:32,2,210,4|4|4,3:0|3:0|3:0,0:0:0:0:
46,79,196458,1,2,0:0:0:0:
110,138,196558,2,0,L|210:137,1,70,12|0,0:0|0:0,0:0:0:0:
402,246,196758,2,0,L|302:247,1,70,0|0,3:0|0:0,0:0:0:0:
310,46,196958,2,0,L|311:146,1,70,0|0,3:0|0:0,0:0:0:0:
202,338,197158,2,0,L|201:238,1,70,0|0,3:0|0:0,0:0:0:0:
310,115,197358,6,0,P|403:65|361:167,1,280,6|0,0:0|0:0,0:0:0:0:
209,276,197958,1,0,3:0:0:0:
209,276,198058,1,0,3:0:0:0:
209,276,198158,2,0,P|175:286|135:276,1,70,8|0,0:0|0:0,0:0:0:0:
59,241,198358,5,8,0:3:0:0:
88,205,198424,1,8,0:3:0:0:
91,158,198491,1,8,0:3:0:0:
76,113,198558,1,8,0:3:0:0:
68,328,198758,1,8,0:3:0:0:
254,150,198958,5,8,3:0:0:0:
19,174,199258,1,8,3:0:0:0:
335,321,199558,1,8,3:0:0:0:
171,34,199758,5,8,3:0:0:0:
71,332,200058,1,8,3:0:0:0:
424,172,200358,1,8,3:0:0:0:
254,150,200558,6,0,P|296:119|346:129,1,90.9999958343508,6|0,0:0|0:0,0:0:0:0:
345,204,200758,1,8,0:0:0:0:
339,233,200858,1,2,0:0:0:0:
271,293,200958,5,0,3:0:0:0:
194,243,201058,1,2,0:0:0:0:
116,291,201158,1,8,0:0:0:0:
32,253,201258,1,2,0:0:0:0:
57,171,201358,5,0,3:0:0:0:
89,159,201458,1,2,0:0:0:0:
119,81,201558,2,0,P|79:69|29:82,1,90.9999958343508,8|0,0:0|0:0,0:0:0:0:
308,31,201758,5,0,3:0:0:0:
276,43,201858,1,2,0:0:0:0:
245,120,201958,2,0,P|285:132|335:119,1,90.9999958343508,8|0,0:0|0:0,0:0:0:0:
456,111,202158,6,0,P|401:173|435:262,1,181.999991668702,0|8,3:0|0:0,0:0:0:0:
219,267,202458,2,0,P|274:205|240:116,1,181.999991668702,0|0,3:0|3:0,0:0:0:0:
379,331,202758,2,0,P|339:312|298:328,1,90.9999958343508,8|0,0:0|0:0,0:0:0:0:
112,189,202958,6,0,P|151:169|193:185,1,90.9999958343508,0|0,3:0|0:0,0:0:0:0:
214,354,203158,1,8,0:0:0:0:
214,354,203358,5,0,3:0:0:0:
116,344,203458,1,0,3:0:0:0:
176,266,203558,1,8,0:0:0:0:
363,79,203758,6,0,P|374:168|349:260,1,181.999991668702,6|8,0:0|0:0,0:0:0:0:
265,254,204058,2,0,P|253:164|278:72,1,181.999991668702,0|0,3:0|3:0,0:0:0:0:
200,32,204358,5,8,0:0:0:0:
165,23,204458,1,8,0:0:0:0:
89,72,204558,2,0,L|91:173,1,90.9999958343508,0|0,3:0|0:0,0:0:0:0:
236,261,204758,2,0,P|203:234|159:246,1,90.9999958343508,8|0,0:0|0:0,0:0:0:0:
5,227,204958,2,0,P|38:254|82:242,1,90.9999958343508,0|0,3:0|0:0,0:0:0:0:
119,317,205158,5,8,0:0:0:0:
23,359,205258,1,8,0:0:0:0:
214,354,205358,2,0,L|436:340,1,181.999991668702,6|8,0:0|0:0,0:0:0:0:
430,328,205658,1,2,0:0:0:0:
351,256,205758,5,0,3:0:0:0:
359,221,205858,1,0,3:0:0:0:
440,209,205958,5,8,0:0:0:0:
448,244,206058,1,8,0:0:0:0:
373,133,206158,5,2,0:0:0:0:
373,133,206258,2,8,L|380:72,2,45.4999979171754
262,140,206458,5,8,0:0:0:0:
186,61,206558,1,8,0:0:0:0:
79,86,206658,1,8,0:0:0:0:
43,189,206758,1,8,0:0:0:0:
121,264,206858,1,8,0:0:0:0:
174,180,206958,6,0,B|202:129|262:141|262:141|278:204|346:205,1,210.000008010865,6|8,0:0|0:0,0:0:0:0:
447,108,207358,5,0,3:0:0:0:
337,127,207458,1,0,3:0:0:0:
477,111,207558,2,0,L|477:215,1,105.000004005432,8|0,0:0|0:0,0:0:0:0:
437,335,207758,5,0,3:0:0:0:
352,329,207958,5,8,0:0:0:0:
274,338,208158,6,0,B|242:327|208:333|208:333|267:308,1,105.000004005432,0|0,3:0|0:0,0:0:0:0:
437,335,208358,2,0,B|399:301|399:301|350:331,1,105.000004005432,8|0,0:0|0:0,0:0:0:0:
295,253,208558,6,0,B|234:238|234:238|155:272|155:272|93:252,1,210.000008010865,6|8,0:0|0:0,0:0:0:0:
10,247,208858,2,0,B|50:152|50:152|157:187,1,210.000008010865,0|0,3:0|3:0,0:0:0:0:
182,176,209158,1,8,0:0:0:0:
379,53,209358,6,0,P|332:24|274:33,1,105.000004005432,0|0,3:0|0:0,0:0:0:0:
34,49,209558,2,0,L|143:48,1,105.000004005432,8|0,0:0|0:0,0:0:0:0:
266,108,209758,1,0,3:0:0:0:
182,176,209858,1,0,3:0:0:0:
274,227,209958,2,0,P|325:230|368:202,1,105.000004005432,8|0,0:0|0:0,0:0:0:0:
490,82,210158,6,0,B|448:117|448:117|464:173,1,105.000004005432,0|0,3:0|0:0,0:0:0:0:
445,198,210358,2,0,B|487:233|487:233|471:289,1,105.000004005432,10|0,0:0|0:0,0:0:0:0:
372,368,210558,5,0,3:0:0:0:
308,321,210658,2,0,B|343:279|343:279|399:295,1,105.000004005432,2|8,0:0|0:0,0:0:0:0:
217,279,210858,1,2,0:0:0:0:
170,343,210958,2,0,B|128:308|128:308|144:252,1,105.000004005432,0|0,3:0|0:0,0:0:0:0:
254,124,211158,1,8,0:0:0:0:
318,171,211258,2,0,B|283:213|283:213|227:197,1,105.000004005432,2|0,0:0|3:0,0:0:0:0:
109,148,211458,1,2,0:0:0:0:
45,101,211558,2,0,B|80:59|80:59|136:75,1,105.000004005432,8|0,0:0|0:0,0:0:0:0:
217,42,211758,5,0,3:0:0:0:
257,33,211858,1,2,0:0:0:0:
319,71,211958,5,8,0:0:0:0:
359,80,212058,1,2,0:0:0:0:
433,45,212158,5,0,3:0:0:0:
473,36,212258,1,2,0:0:0:0:
495,110,212358,5,8,0:0:0:0:
486,150,212458,1,2,0:0:0:0:
402,183,212558,5,0,3:0:0:0:
411,223,212658,1,2,0:0:0:0:
463,298,212758,5,8,0:0:0:0:
376,303,212858,1,8,0:0:0:0:
323,196,212958,5,8,0:0:0:0:
254,260,213058,1,8,0:0:0:0:
254,124,213158,1,8,0:3:0:0:
254,124,213358,5,8,0:0:0:0:
149,118,213458,1,8,0:0:0:0:
44,104,213558,1,8,0:0:0:0:
148,99,213658,1,8,0:0:0:0:
254,260,213958,5,8,0:0:0:0:
149,266,214058,1,8,0:0:0:0:
44,280,214158,1,8,0:0:0:0:
148,285,214258,1,8,0:0:0:0:
386,245,214558,5,8,0:0:0:0:
433,151,214658,1,8,0:0:0:0:
494,236,214758,1,8,0:0:0:0:
448,330,214858,1,8,0:0:0:0:
149,118,215158,5,8,0:0:0:0:
102,24,215258,1,8,0:0:0:0:
41,109,215358,1,8,0:0:0:0:
87,203,215458,1,8,0:0:0:0:
254,338,215758,6,0,P|324:280|436:318,1,210.000008010865,12|0,0:0|0:0,0:0:0:0:
258,46,216058,2,0,P|188:104|76:66,1,210.000008010865,12|0,0:0|0:0,0:0:0:0:
255,195,216358,1,12,0:0:0:0:
255,195,216558,5,8,0:0:0:0:
281,176,216658,1,8,0:0:0:0:
313,169,216758,1,8,0:0:0:0:
346,177,216858,1,8,0:0:0:0:
487,261,216958,5,8,0:3:0:0:
461,242,217058,1,8,0:3:0:0:
409,83,217158,5,0,3:0:0:0:
428,109,217258,1,0,3:0:0:0:
435,141,217358,1,0,3:0:0:0:
427,174,217458,1,0,3:0:0:0:
310,263,217558,5,0,3:0:0:0:
398,310,217658,1,0,3:0:0:0:
310,263,217758,1,0,3:0:0:0:
398,310,217858,1,0,3:0:0:0:
255,195,217958,5,4,3:0:0:0:
167,242,218058,1,4,3:0:0:0:
255,195,218158,1,4,3:0:0:0:
167,242,218258,1,4,3:0:0:0:
282,48,218358,5,8,0:0:0:0:
226,110,218458,1,8,0:0:0:0:
384,64,218558,5,8,0:0:0:0:
329,125,218658,1,8,0:0:0:0:
440,125,218758,5,8,0:3:0:0:
468,135,218858,1,8,0:3:0:0:
391,190,218958,6,0,B|294:233|294:233|381:315,1,210.000008010865,12|0,0:0|0:0,0:0:0:0:
185,363,219258,2,0,B|282:320|282:320|207:249,1,210.000008010865,12|0,0:0|0:0,0:0:0:0:
99,215,219558,6,0,B|62:223|62:223|33:203|33:203|3:214,1,105.000004005432,12|0,0:0|0:0,0:0:0:0:
85,336,219758,5,6,0:0:0:0:
79,353,220358,5,2,0:0:0:0:
313,27,221358,2,0,L|371:29,2,52.5000020027161,2|2|2,0:0|0:0|0:0,0:0:0:0:
217,212,221958,2,0,P|195:138|230:70,1,157.500006008148,2|2,0:0|0:0,0:0:0:0:
365,28,222958,6,0,L|313:27,2,52.5000020027161,2|2|2,0:0|0:0|0:0,0:0:0:0:
443,238,223558,2,0,P|465:164|430:95,1,157.500006008148,2|0,0:0|0:0,0:0:0:0:
353,310,224558,5,2,0:0:0:0:
274,310,224758,1,2,0:0:0:0:
195,310,224958,1,2,0:0:0:0:
116,310,225158,2,0,L|108:194,1,105.000004005432,2|2,0:0|0:0,0:0:0:0:
195,310,225758,1,2,0:0:0:0:
81,128,225958,1,2,0:0:0:0:
81,128,226058,1,2,0:0:0:0:
81,128,226158,6,0,B|71:93|88:71|88:71|126:101|172:72,1,140,2|2,0:0|0:0,0:0:0:0:
219,162,226758,1,2,0:0:0:0:
332,152,226958,2,0,P|281:109|221:147,1,140,2|0,0:0|0:0,0:0:0:0:
127,4,227758,5,2,0:0:0:0:
231,5,227958,1,2,0:0:0:0:
335,5,228158,1,2,0:0:0:0:
439,1,228358,1,2,0:0:0:0:
423,148,228558,2,0,L|421:8,1,140,2|2,0:0|0:0,0:0:0:0:
434,285,229358,6,0,B|380:300|348:249|348:249|299:292|248:254,1,210,2|2,0:0|0:0,0:0:0:0:
250,255,230158,1,2,0:0:0:0:
79,92,230758,1,2,0:0:0:0:
79,92,230858,1,2,0:0:0:0:
79,92,230958,5,2,0:0:0:0:
176,53,231158,1,2,0:0:0:0:
216,149,231358,1,2,0:0:0:0:
119,191,231558,1,2,0:0:0:0:
433,92,231758,5,2,0:0:0:0:
336,53,231958,1,2,0:0:0:0:
296,149,232158,1,2,0:0:0:0:
393,191,232358,1,2,0:0:0:0:
393,191,232458,1,0,0:0:0:0:
393,191,232558,6,0,P|364:295|444:212,1,280,2|2,0:0|0:0,0:0:0:0:
454,338,233558,1,2,0:0:0:0:
355,373,233758,1,2,0:0:0:0:
279,300,233958,1,2,0:0:0:0:
279,300,234058,6,0,B|207:287|146:340|146:340|168:294|137:235,1,245,2|2,0:0|0:0,0:0:0:0:
140,242,234958,1,2,0:0:0:0:
67,81,235558,1,2,0:0:0:0:
194,86,235758,6,0,P|140:59|94:66,1,105,2|0,0:0|0:0,0:0:0:0:
128,146,236358,1,2,0:0:0:0:
236,23,236558,5,2,0:0:0:0:
382,30,236858,1,2,0:0:0:0:
439,168,237158,1,2,0:0:0:0:
236,23,237358,5,2,0:0:0:0:
382,30,237558,1,2,0:0:0:0:
439,168,237758,1,2,0:0:0:0:
86,236,238158,6,0,B|116:241|137:219|137:219|166:246|166:246|194:218|233:240,1,140,2|0,0:0|0:0,0:0:0:0:
81,330,238758,1,2,0:0:0:0:
81,330,238858,1,2,0:0:0:0:
81,330,238958,6,0,P|46:330|20:298,1,70,2|0,0:0|0:0,0:0:0:0:
86,236,239258,2,0,P|61:211|65:170,1,70,2|0,0:0|0:0,0:0:0:0:
131,107,239558,1,2,0:0:0:0:
290,141,239758,6,0,L|365:144,2,70,2|2|2,0:0|0:0|0:0,0:0:0:0:
400,77,240358,1,2,0:0:0:0:
400,77,240458,2,0,P|443:116|433:167,1,105,2|2,0:0|0:0,0:0:0:0:
358,287,240958,1,2,0:0:0:0:
253,275,241158,1,2,0:0:0:0:
155,357,241358,2,0,L|234:349,1,70,2|2,0:0|0:0,0:0:0:0:
140,267,241758,1,2,0:0:0:0:
35,255,241958,1,2,0:0:0:0:
71,116,242158,6,0,B|115:95|115:95|134:139|95:193,2,140,2|2|2,0:0|0:0|0:0,0:0:0:0:
79,125,244358,1,0,3:0:0:0:
79,125,244458,1,0,3:0:0:0:
79,125,244558,6,0,B|132:132|154:81|154:81|192:123|192:123|226:98|226:98|264:113|264:113|296:66|349:91,1,318.499985420228,8|0,0:0|0:0,0:0:0:0:
351,95,245358,6,0,L|343:227,1,105.000004005432,6|0,0:0|3:0,0:0:0:0:
213,305,245958,1,0,3:0:0:0:
213,305,246058,1,0,3:0:0:0:
213,305,246158,2,0,P|259:310|290:266,1,105.000004005432,8|0,0:0|0:0,0:0:0:0:
418,347,246458,2,0,P|423:301|379:270,1,105.000004005432,0|0,3:0|0:0,0:0:0:0:
428,202,246758,2,0,P|449:188|475:191,1,52.5000020027161,8|0,0:0|0:0,0:0:0:0:
258,196,246958,6,0,L|131:190,1,105.000004005432,0|0,3:0|0:0,0:0:0:0:
149,214,247258,2,0,L|22:208,1,105.000004005432,0|0,3:0|0:0,0:0:0:0:
69,50,247558,1,0,3:0:0:0:
69,50,247658,1,0,3:0:0:0:
69,50,247758,2,0,P|107:87|86:143,1,105.000004005432,8|0,0:0|0:0,0:0:0:0:
258,196,248158,2,0,P|248:146|285:112,1,105.000004005432,0|0,3:0|0:0,0:0:0:0:
475,191,248558,6,0,P|420:202|360:185,1,105.000004005432,6|2,0:0|0:0,0:0:0:0:
373,191,249158,1,0,3:0:0:0:
361,70,249358,2,0,P|399:13|475:65,1,157.500006008148,8|0,0:0|0:0,0:0:0:0:
470,72,249758,1,2,0:0:0:0:
284,33,249958,1,2,0:0:0:0:
65,96,250158,6,0,L|206:94,1,105.000004005432,0|0,3:0|0:0,0:0:0:0:
187,110,250458,2,0,L|189:251,1,105.000004005432,0|0,3:0|0:0,0:0:0:0:
144,281,250758,1,0,3:0:0:0:
267,148,250958,1,8,0:0:0:0:
144,281,251158,1,0,3:0:0:0:
316,329,251358,1,8,0:0:0:0:
442,203,251558,1,0,3:0:0:0:
442,203,251658,1,0,3:0:0:0:
442,203,251758,6,0,P|354:218|393:133,1,210.000008010865,6|0,0:0|0:0,0:0:0:0:
284,33,252358,1,0,3:0:0:0:
284,33,252558,2,0,P|236:18|180:23,2,105.000004005432,8|2|0,0:0|0:0|0:0,0:0:0:0:
23,133,253158,1,8,0:0:0:0:
23,133,253258,1,2,0:0:0:0:
23,133,253358,6,0,P|71:118|127:123,1,105.000004005432,0|0,3:0|0:0,0:0:0:0:
170,202,253758,2,0,L|165:313,1,105.000004005432,0|0,3:0|0:0,0:0:0:0:
341,287,254158,2,0,P|293:263|243:289,1,105.000004005432,8|0,0:0|0:0,0:0:0:0:
246,312,254458,1,2,0:0:0:0:
303,365,254558,2,0,L|374:360,1,52.5000020027161,8|0,3:0|0:0,0:0:0:0:
424,304,254758,2,0,L|476:300,1,52.5000020027161,8|0,0:3|0:0,0:0:0:0:
479,178,254958,5,8,0:0:0:0:
443,79,255158,1,8,0:3:0:0:
344,114,255358,1,8,0:3:0:0:
378,213,255558,1,8,0:3:0:0:
33,178,255758,5,8,0:3:0:0:
69,79,255958,1,8,0:3:0:0:
168,114,256158,1,8,0:3:0:0:
134,213,256358,1,8,0:3:0:0:
256,341,256558,5,4,3:0:0:0:
256,43,256758,1,4,3:0:0:0:
134,213,256958,1,4,3:0:0:0:
378,213,257158,1,4,3:0:0:0:
69,79,257358,5,8,0:0:0:0:
443,79,257558,1,8,0:0:0:0:
30,293,257758,1,8,0:0:0:0:
482,293,257958,1,8,0:0:0:0:
256,341,258158,5,8,0:0:0:0:
283,325,258258,1,8,0:0:0:0:
313,325,258358,1,8,0:0:0:0:
340,340,258458,1,8,0:0:0:0:
187,300,258558,5,8,0:0:0:0:
215,257,258658,1,8,0:0:0:0:
212,206,258758,1,8,0:0:0:0:
171,173,258858,1,8,0:0:0:0:
297,245,258958,5,8,0:0:0:0:
360,207,259058,1,8,0:0:0:0:
375,135,259158,1,8,0:0:0:0:
358,63,259258,1,8,0:0:0:0:
234,70,259358,5,8,0:0:0:0:
287,147,259458,1,8,0:0:0:0:
57,141,259558,5,8,0:0:0:0:
110,64,259658,1,8,0:0:0:0:
171,173,259758,5,12,0:0:0:0:
171,173,264358,5,0,3:0:0:0:
171,173,264458,1,0,3:0:0:0:
171,173,264558,2,0,B|211:143|255:173|255:173|302:123|359:134|368:205|311:231|269:172,1,280,12|0,0:0|0:0,0:0:0:0:
210,238,265158,1,2,0:0:0:0:
464,72,265358,6,0,B|358:124|358:36|252:83,1,210,2|0,0:0|0:0,0:0:0:0:
261,79,265758,1,0,3:0:0:0:
65,149,266158,6,0,P|172:172|75:219,1,280,6|0,0:0|0:0,0:0:0:0:
168,20,266758,1,8,0:0:0:0:
155,332,267158,5,8,0:3:0:0:
324,310,267358,1,8,0:3:0:0:
492,293,267558,1,4,0:3:0:0:
404,213,267758,6,0,P|370:150|482:192,1,280,6|0,0:0|0:0,0:0:0:0:
108,213,268558,2,0,P|142:150|30:192,1,280,6|0,0:0|0:0,0:0:0:0:
38,327,269158,1,0,3:0:0:0:
38,327,269258,1,0,3:0:0:0:
38,327,269358,6,0,P|109:224|215:297,1,280,6|0,0:0|0:0,0:0:0:0:
229,158,269958,1,2,0:0:0:0:
475,206,270158,2,0,P|396:265|311:211,1,210,4|0,0:0|0:0,0:0:0:0:
311,212,270558,1,8,0:0:0:0:
395,67,270958,5,8,3:0:0:0:
395,67,271158,2,0,L|481:40,1,70,0|0,3:0|0:0,0:0:0:0:
243,22,271358,5,8,3:0:0:0:
243,22,271558,2,0,L|329:49,1,70,0|0,3:0|0:0,0:0:0:0:
89,54,271758,5,8,3:0:0:0:
89,54,271958,2,0,L|175:27,1,70,0|0,3:0|0:0,0:0:0:0:
53,180,272158,5,8,3:0:0:0:
53,180,272358,2,0,L|26:94,1,70,0|0,3:0|0:0,0:0:0:0:
14,327,272558,5,8,3:0:0:0:
14,327,272758,2,0,L|41:241,1,70,0|0,3:0|0:0,0:0:0:0:
175,370,272958,5,8,3:0:0:0:
175,370,273158,2,0,L|89:343,1,70,0|0,3:0|0:0,0:0:0:0:
342,354,273358,5,0,3:0:0:0:
418,106,273558,1,8,3:0:0:0:
170,30,273758,1,8,3:0:0:0:
94,278,273958,1,4,3:0:0:0:
448,286,274158,6,0,B|381:304|332:270|332:270|362:301|341:354,2,210,12|12|12,0:0|0:0|0:0,0:0:0:0:
94,278,274958,2,0,B|161:296|210:262|210:262|180:293|201:346,2,210,12|12|12,0:0|0:0|0:0,0:0:0:0:
397,209,275758,5,12,0:0:0:0:
352,23,275958,1,8,0:0:0:0:
288,52,276058,1,8,0:0:0:0:
219,36,276158,1,8,3:0:0:0:
149,38,276258,1,8,3:0:0:0:
101,89,276358,1,8,3:0:0:0:
114,157,276458,1,8,3:0:0:0:
181,176,276558,1,4,3:0:0:0:
191,245,276658,1,4,3:0:0:0:
137,290,276758,1,4,3:0:0:0:
78,252,276858,1,4,3:0:0:0:
47,323,276958,6,0,L|51:375,1,52.5,8|0,0:0|0:0,0:0:0:0:
215,331,277358,6,6,P|254:299|311:311,1,105.000004005432,6|0,0:0|0:0,0:0:0:0:
467,189,277558,2,0,P|428:221|371:209,1,105.000004005432,8|0,0:0|0:0,0:0:0:0:
219,222,277758,1,0,3:0:0:0:
302,157,277858,1,0,3:0:0:0:
191,245,277958,2,0,P|159:206|171:149,1,105.000004005432,8|0,0:0|0:0,0:0:0:0:
313,72,278158,6,0,B|254:68|223:115|223:115|168:125|116:79,1,210.000008010865,0|8,3:0|0:0,0:0:0:0:
105,66,278458,1,2,0:0:0:0:
0,274,278558,2,0,P|50:289|73:228,1,105.000004005432,0|0,3:0|0:0,0:0:0:0:
219,221,278758,1,8,0:0:0:0:
305,306,278858,1,2,0:0:0:0:
375,125,278958,6,0,P|481:126|481:212,1,210.000008010865,0|8,3:0|0:0,0:0:0:0:
465,233,279258,1,2,0:0:0:0:
320,195,279358,2,0,P|293:155|301:91,1,105.000004005432,0|0,3:0|0:0,0:0:0:0:
191,245,279558,2,0,P|164:285|172:349,1,105.000004005432,8|0,0:0|0:0,0:0:0:0:
378,250,279758,5,0,3:0:0:0:
263,282,279858,1,0,3:0:0:0:
166,154,279958,2,0,B|116:131|116:131|61:153,1,105.000004005432,8|0,0:0|0:0,0:0:0:0:
85,309,280158,1,0,3:0:0:0:
191,245,280258,1,0,3:0:0:0:
298,347,280358,2,0,P|333:302|326:245,1,105.000004005432,8|0,0:0|0:0,0:0:0:0:
219,98,280558,6,0,P|254:72|319:74,1,105.000004005432,0|0,3:0|0:0,0:0:0:0:
466,188,280758,2,0,P|492:223|490:288,1,105.000004005432,8|0,0:0|0:0,0:0:0:0:
319,353,280958,1,0,3:0:0:0:
423,344,281058,1,0,3:0:0:0:
294,346,281158,2,0,P|245:327|195:341,1,105.000004005432,8|0,0:0|0:0,0:0:0:0:
55,261,281358,6,0,L|167:257,1,105.000004005432,0|0,3:0|0:0,0:0:0:0:
317,176,281558,2,0,L|313:64,1,105.000004005432,8|0,0:0|0:0,0:0:0:0:
120,53,281758,1,0,3:0:0:0:
220,22,281858,1,0,3:0:0:0:
88,61,281958,2,0,L|91:165,1,105.000004005432,8|0,0:0|0:0,0:0:0:0:
237,270,282158,6,0,B|231:327|293:346|293:346|339:294|305:241,1,210.000008010865,6|8,0:0|0:0,0:0:0:0:
405,296,282458,1,2,0:0:0:0:
504,172,282558,2,0,B|509:116|447:97|447:97|402:149|431:194,1,210.000008010865,0|8,3:0|0:0,0:0:0:0:
405,296,282858,1,2,0:0:0:0:
310,250,282958,5,0,3:0:0:0:
315,215,283058,1,8,0:0:0:0:
347,147,283158,5,8,0:0:0:0:
342,112,283258,1,8,0:0:0:0:
266,38,283358,5,8,0:0:0:0:
163,15,283458,1,8,0:0:0:0:
92,92,283558,1,8,0:0:0:0:
127,190,283658,1,8,0:0:0:0:
223,245,283758,6,0,L|215:355,1,105.000004005432,6|0,0:0|0:0,0:0:0:0:
139,347,283958,1,8,0:0:0:0:
236,216,284058,1,8,0:0:0:0:
302,325,284158,2,0,P|346:340|396:315,1,105.000004005432,0|0,3:0|0:0,0:0:0:0:
130,262,284358,2,0,P|86:277|36:252,1,105.000004005432,8|0,0:0|0:0,0:0:0:0:
52,26,284558,6,0,B|54:84|107:94|107:94|141:149|79:206,1,210.000008010865,0|8,3:0|0:0,0:0:0:0:
64,176,284858,1,2,0:0:0:0:
131,18,284958,2,0,L|238:18,1,105.000004005432,0|0,3:0|0:0,0:0:0:0:
316,178,285158,2,0,P|298:127|316:71,1,105.000004005432,8|0,0:0|0:0,0:0:0:0:
465,201,285358,6,0,P|477:251|459:299,1,105.000004005432,0|0,3:0|0:0,0:0:0:0:
302,325,285558,2,0,L|195:325,1,105.000004005432,8|0,0:0|0:0,0:0:0:0:
88,196,285758,1,0,3:0:0:0:
9,281,285858,1,0,3:0:0:0:
105,176,285958,2,0,P|123:125|105:69,1,105.000004005432,8|0,0:0|0:0,0:0:0:0:
198,32,286158,5,8,0:0:0:0:
221,38,286224,1,8,0:0:0:0:
244,31,286291,1,8,0:0:0:0:
285,12,286358,5,8,0:3:0:0:
308,5,286425,1,8,0:3:0:0:
331,11,286491,1,8,0:3:0:0:
364,39,286558,5,4,3:0:0:0:
387,45,286624,1,4,3:0:0:0:
410,38,286691,1,4,3:0:0:0:
444,11,286758,5,4,3:0:0:0:
475,96,286858,1,4,3:0:0:0:
409,160,286958,6,0,P|372:247|461:290,2,210,4|2|2,0:0|0:0|0:0,0:0:0:0:
103,160,287758,6,0,P|140:247|51:290,1,210,8|0,0:0|0:0,0:0:0:0:
76,153,288158,2,0,P|39:66|128:23,1,210,0|0,3:0|0:0,0:0:0:0:
201,78,288558,6,0,L|364:71,1,140,0|0,3:0|0:0,0:0:0:0:
358,88,288858,2,0,L|521:81,1,140,0|0,3:0|0:0,0:0:0:0:
466,147,289158,1,0,3:0:0:0:
435,207,289258,1,0,3:0:0:0:
479,286,289358,6,0,P|431:239|354:276,1,140,8|0,0:0|3:0,0:0:0:0:
141,340,289758,2,0,P|188:293|253:311,1,140,8|0,0:0|0:0,0:0:0:0:
262,336,290058,1,2,0:0:0:0:
283,190,290158,6,0,B|210:126|210:126|265:13,2,210,10|10|10,0:0|0:0|0:0,0:0:0:0:
88,254,290958,5,10,0:0:0:0:
435,207,291258,1,10,0:0:0:0:
88,254,291558,2,0,L|16:247,1,70,10|0,0:0|0:0,0:0:0:0:
66,159,291758,5,0,3:0:0:0:
92,94,291858,1,2,0:0:0:0:
161,94,291958,1,8,0:0:0:0:
184,159,292058,1,2,0:0:0:0:
248,186,292158,1,0,3:0:0:0:
292,131,292258,1,2,0:0:0:0:
276,62,292358,1,8,0:0:0:0:
331,19,292458,1,2,0:0:0:0:
394,48,292558,1,0,3:0:0:0:
426,110,292658,1,2,0:0:0:0:
379,162,292758,1,8,0:0:0:0:
402,227,292858,1,10,0:0:0:0:
438,306,292958,5,8,3:0:0:0:
410,303,293058,1,8,3:0:0:0:
383,302,293158,1,4,3:0:0:0:
355,299,293258,1,4,3:0:0:0:
243,343,293358,6,0,P|224:301|234:254,1,87.5,6|0,0:0|0:0,0:0:0:0:
130,287,293958,6,8,L|74:295,2,46.6666666666667,8|8|8,0:3|0:3|0:3,0:3:0:0:
157,195,294158,1,4,3:0:0:0:
157,195,294758,5,0,3:0:0:0:
157,195,294858,1,0,3:0:0:0:
157,195,294958,2,0,B|109:162|109:162|156:113|128:48,1,181.999991668702,12|0,0:0|0:0,0:0:0:0:
384,48,295258,2,0,B|356:113|403:162|403:162|355:195,1,181.999991668702,12|0,0:0|0:0,0:0:0:0:
230,132,295558,6,0,P|252:122|278:130,1,52.5,12|0,0:0|0:0,0:0:0:0:
276,251,295958,5,0,3:0:0:0:
253,242,296024,1,0,3:0:0:0:
229,245,296091,1,0,3:0:0:0:
208,261,296158,5,8,0:0:0:0:
256,337,296258,1,8,0:3:0:0:
343,288,296358,1,4,3:0:0:0:
433,330,296458,1,4,3:0:0:0:
458,220,296558,6,0,L|460:310,1,90.9999958343508,14|0,0:0|0:0,0:0:0:0:
228,39,296758,1,0,3:0:0:0:
228,39,296858,1,0,3:0:0:0:
228,39,296958,2,0,L|225:129,1,90.9999958343508,14|0,0:0|0:0,0:0:0:0:
477,31,297158,1,0,3:0:0:0:
477,31,297258,1,0,3:0:0:0:
477,31,297358,6,0,L|479:121,1,90.9999958343508,14|0,0:0|0:0,0:0:0:0:
355,174,297558,2,0,L|357:83,1,90.9999958343508,0|0,3:0|0:0,0:0:0:0:
228,39,297758,2,0,L|225:129,1,90.9999958343508,8|0,0:0|0:0,0:0:0:0:
95,166,297958,2,0,L|92:75,1,90.9999958343508,0|0,3:0|0:0,0:0:0:0:
28,277,298158,6,0,B|85:255|120:315|120:315|159:282|154:232,1,181.999991668702,12|8,0:0|0:0,0:0:0:0:
339,317,298458,2,0,B|283:338|248:278|248:278|209:311|214:339,1,181.999991668702,8|0,0:0|0:0,0:0:0:0:
321,246,298758,6,0,P|346:233|372:246,1,52.5,12|0,0:0|0:0,0:0:0:0:
425,306,299158,5,0,3:0:0:0:
445,291,299224,1,0,3:0:0:0:
455,269,299291,1,0,3:0:0:0:
452,243,299358,5,8,0:0:0:0:
387,166,299458,1,8,0:3:0:0:
470,111,299558,1,4,3:0:0:0:
413,28,299658,1,4,3:0:0:0:
328,81,299758,5,0,3:0:0:0:
306,90,299824,1,0,3:0:0:0:
290,108,299891,2,0,L|219:110,3,60.6666638895672,0|0|0|0,3:0|3:0|3:0|3:0,3:0:0:0:
215,129,300158,5,0,3:0:0:0:
199,146,300224,1,0,3:0:0:0:
194,170,300291,2,0,L|193:234,3,60.6666638895672,0|0|0|0,3:0|3:0|3:0|3:0,3:0:0:0:
209,248,300558,5,8,3:0:0:0:
226,231,300624,1,8,3:0:0:0:
247,219,300691,1,8,3:3:0:0:
271,216,300758,1,8,3:3:0:0:
294,217,300824,1,8,3:3:0:0:
315,228,300891,1,8,3:3:0:0:
275,295,300958,5,8,0:0:0:0:
163,309,301358,6,0,P|124:288|70:295,1,90.9999958343508,6|0,1:2|0:0,0:0:0:0:
38,127,301558,2,0,P|77:106|131:113,1,90.9999958343508,8|0,0:0|0:0,0:0:0:0:
236,226,301758,1,0,3:0:0:0:
150,193,301858,1,0,3:0:0:0:
265,238,301958,2,0,P|286:198|282:153,1,90.9999958343508,8|0,0:0|0:0,0:0:0:0:
204,21,302158,6,0,P|243:42|297:35,1,90.9999958343508,4|0,3:0|0:0,0:0:0:0:
437,209,302358,1,8,0:0:0:0:
459,119,302458,2,0,P|420:98|366:105,1,90.9999958343508,0|0,3:0|0:0,0:0:0:0:
122,109,302658,1,0,3:0:0:0:
100,199,302758,2,0,P|139:220|193:213,1,90.9999958343508,8|0,0:0|0:0,0:0:0:0:
437,209,302958,6,0,L|436:323,1,90.9999958343508,4|0,3:0|0:0,0:0:0:0:
313,347,303158,1,8,0:0:0:0:
222,334,303258,1,2,0:0:0:0:
343,353,303358,2,0,L|342:262,1,90.9999958343508,0|0,3:0|0:0,0:0:0:0:
204,21,303558,2,0,L|203:135,1,90.9999958343508,8|0,0:0|0:0,0:0:0:0:
428,194,303758,6,0,P|390:171|343:183,1,90.9999958343508,4|0,3:0|0:0,0:0:0:0:
100,199,303958,2,0,P|138:222|185:210,1,90.9999958343508,8|0,0:0|0:0,0:0:0:0:
379,93,304158,1,0,3:0:0:0:
291,118,304258,1,0,3:0:0:0:
407,85,304358,2,0,P|430:47|418:0,1,90.9999958343508,8|0,0:0|0:0,0:0:0:0:
113,23,304558,6,0,L|221:20,1,90.9999958343508,4|0,3:0|0:0,0:0:0:0:
300,220,304758,2,0,L|209:217,1,90.9999958343508,8|0,0:0|0:0,0:0:0:0:
44,110,304958,1,0,3:0:0:0:
9,194,305058,1,0,3:0:0:0:
56,271,305158,2,0,L|55:366,1,90.9999958343508,8|0,0:0|0:0,0:0:0:0:
310,319,305358,6,0,P|266:296|215:310,1,90.9999958343508,4|0,3:0|0:0,0:0:0:0:
348,144,305558,1,8,0:0:0:0:
300,220,305658,1,2,0:0:0:0:
378,268,305758,2,0,P|422:291|473:277,1,90.9999958343508,0|0,3:0|0:0,0:0:0:0:
503,19,305958,2,0,P|459:-4|408:10,1,90.9999958343508,8|0,0:0|0:0,0:0:0:0:
154,164,306158,6,0,B|124:199|124:199|135:251,1,90.9999958343508,4|0,3:0|0:0,0:0:0:0:
415,172,306358,2,0,B|445:137|445:137|434:85,1,90.9999958343508,8|0,0:0|0:0,0:0:0:0:
254,42,306558,1,0,3:0:0:0:
168,73,306658,1,0,3:0:0:0:
89,26,306758,2,0,L|-8:21,1,90.9999958343508,8|0,0:0|0:0,0:0:0:0:
43,108,306958,5,4,3:0:0:0:
43,131,307058,1,8,0:0:0:0:
121,164,307158,5,8,0:0:0:0:
168,179,307258,1,8,0:0:0:0:
203,252,307358,1,8,0:0:0:0:
155,332,307458,1,8,0:0:0:0:
51,335,307558,1,8,0:0:0:0:
18,212,307658,1,8,0:0:0:0:
121,164,307758,5,2,3:0:0:0:
168,179,307858,1,0,0:0:0:0:
210,154,307958,1,8,0:0:0:0:
254,174,308058,1,0,0:0:0:0:
317,128,308158,5,2,3:0:0:0:
332,151,308258,1,0,0:0:0:0:
341,176,308358,1,8,0:0:0:0:
342,202,308458,1,0,0:0:0:0:
292,262,308558,5,2,3:0:0:0:
301,309,308658,1,0,0:0:0:0:
348,319,308758,1,8,0:0:0:0:
321,360,308858,1,0,0:0:0:0:
413,357,308958,5,2,3:0:0:0:
428,337,309058,1,0,0:0:0:0:
430,310,309158,1,8,0:0:0:0:
454,310,309258,1,0,0:0:0:0:
503,212,309358,5,2,3:0:0:0:
462,236,309458,1,0,0:0:0:0:
416,217,309558,1,8,0:0:0:0:
423,168,309658,1,0,0:0:0:0:
479,105,309758,5,2,3:0:0:0:
480,79,309858,1,0,0:0:0:0:
394,25,309958,1,8,0:0:0:0:
393,51,310058,1,0,0:0:0:0:
338,132,310158,1,2,3:0:0:0:
339,106,310258,1,0,0:0:0:0:
267,36,310358,1,8,0:0:0:0:
266,62,310458,1,0,0:0:0:0:
197,129,310558,5,2,3:0:0:0:
179,115,310658,1,0,0:0:0:0:
195,99,310758,1,8,0:0:0:0:
212,116,310858,1,0,0:0:0:0:
161,27,310958,5,2,3:0:0:0:
86,65,311058,1,2,0:0:0:0:
92,148,311158,1,8,0:0:0:0:
162,193,311258,1,2,0:0:0:0:
193,270,311358,1,2,3:0:0:0:
145,339,311458,1,2,0:0:0:0:
61,349,311558,1,8,0:0:0:0:
20,275,311658,1,2,0:0:0:0:
109,254,311758,5,2,3:0:0:0:
213,294,311858,1,2,0:0:0:0:
322,270,311958,1,8,0:0:0:0:
395,185,312058,1,2,0:0:0:0:
398,73,312158,1,2,3:0:0:0:
296,25,312258,1,2,0:0:0:0:
202,86,312358,1,8,0:0:0:0:
219,196,312458,1,2,0:0:0:0:
344,276,312558,5,2,3:0:0:0:
366,284,312658,1,2,0:0:0:0:
389,285,312758,1,8,0:0:0:0:
412,282,312858,1,2,0:0:0:0:
481,191,312958,5,2,3:0:0:0:
482,169,313058,1,2,0:0:0:0:
491,147,313158,2,0,P|450:123|375:139,1,119.000002269745,8|0,0:0|0:0,0:0:0:0:
140,269,313358,1,8,0:0:0:0:
131,247,313458,2,0,P|172:223|247:239,1,119.000002269745,2|0,0:0|3:0,0:0:0:0:
387,350,313658,1,8,0:0:0:0:
365,359,313758,2,0,P|341:318|357:243,1,119.000002269745
253,159,313958,1,8,0:0:0:0:
220,151,314058,1,8,0:0:0:0:
152,120,314158,6,8,L|48:131,2,79.3333348464966,8|8|8,3:0|0:3|0:3,0:3:0:0:
215,44,314358,2,8,L|319:55,2,79.3333348464966,8|8|8,3:0|0:3|0:3,0:3:0:0:
105,9,314558,2,8,L|1:20,2,79.3333348464966
253,159,314758,2,8,L|357:148,2,79.3333348464966,8|8|8,3:0|0:3|0:3,0:3:0:0:
212,238,314958,5,8,0:3:0:0:
211,253,315024,1,8,0:3:0:0:
211,268,315091,1,8,0:3:0:0:
211,283,315158,1,8,0:3:0:0:
212,298,315224,1,8,0:3:0:0:
212,313,315291,1,8,0:3:0:0:
231,339,315358,5,8,0:0:0:0:
451,201,315558,6,0,B|494:172|505:113|447:79|447:79|391:101|380:156|436:233|436:233|351:261|306:215|207:156|193:77|270:42|270:42|339:77|333:147|253:217|201:244|75:190|30:130|68:65|68:65|135:59|176:139|116:223|116:223|8:267|10:351|92:384|166:341|181:267|95:220|9:245,1,1728.99992085266,6|2,0:0|0:0,0:0:0:0:
