osu file format v14

[General]
AudioFilename: audio.mp3
AudioLeadIn: 0
PreviewTime: 74798
Countdown: 0
SampleSet: Soft
StackLeniency: 0.7
Mode: 0
LetterboxInBreaks: 0
WidescreenStoryboard: 1

[Editor]
DistanceSpacing: 0.8
BeatDivisor: 4
GridSize: 4
TimelineZoom: 2.2

[Metadata]
Title:Determination Symphony
TitleUnicode:Determination Symphony
Artist:Roselia
ArtistUnicode:Roselia
Creator:Underdogs
Version:Hard
Source:バンドリ!ガールズバンドパーティ!
Tags:Karia eLy BanG Dream! Garupa Bandori ONENESS ロゼリア ガルパ Girls Band Party! 湊友希那 Minato Yukina 相羽あいな Aiba Aina 宇田川あこ Udagawa Ako 櫻川めぐ Sakuragawa Megu 白金燐子 Shirokane Rinko 明坂聡美 Akesaka Satomi 氷川紗夜 Hikawa Sayo 工藤晴香 Kudou Haruka 今井リサ Imai Risa 遠藤ゆりか Endou Yurika
BeatmapID:1475850
BeatmapSetID:690206

[Difficulty]
HPDrainRate:5
CircleSize:3.8
OverallDifficulty:5
ApproachRate:8
SliderMultiplier:1.4
SliderTickRate:1

[Events]
//Background and Video events
0,0,"bg.jpg",0,0
//Break Periods
//Storyboard Layer 0 (Background)
//Storyboard Layer 1 (Fail)
//Storyboard Layer 2 (Pass)
//Storyboard Layer 3 (Foreground)
//Storyboard Sound Samples

[TimingPoints]
2544,315.789473684211,4,2,2,60,1,0
2544,-133.333333333333,4,2,2,60,0,0
7438,-100,4,2,1,80,0,0
30333,-133.333333333333,4,2,1,70,0,0
39175,-133.333333333333,4,2,1,45,0,0
39333,-100,4,2,2,45,0,0
39965,-100,4,2,1,80,0,0
50544,-100,4,2,1,70,0,0
70754,-100,4,2,2,50,0,0
75649,-100,4,2,1,80,0,1
79912,-100,4,2,2,80,0,1
80544,-100,4,2,1,80,0,1
101070,-100,4,2,2,80,0,1
103438,-100,4,2,1,75,0,0
126333,-133.333333333333,4,2,2,75,0,0

[Colours]
Combo1 : 249,47,138
Combo2 : 151,82,254
Combo3 : 69,254,213
Combo4 : 107,111,254

[HitObjects]
240,144,2544,6,0,P|264:116|256:44,2,105.000004005432,0|0|0,0:0|0:0|0:0,0:0:0:0:
184,80,3491,1,2,0:0:0:0:
116,128,3807,1,2,0:0:0:0:
128,212,4122,1,2,0:0:0:0:
212,224,4438,1,2,0:0:0:0:
240,144,4754,1,2,0:0:0:0:
298,280,5070,6,0,B|306:317|306:317|289:384,2,105.000004005432,2|2|2,0:0|0:0|0:0,0:0:0:0:
398,165,6017,2,0,B|390:128|390:128|407:61,2,105.000004005432,2|2|2,0:0|0:0|0:0,0:0:0:0:
229,163,6965,6,0,L|163:155,2,52.5000020027161,2|0|0,0:0|0:0|0:0,0:0:0:0:
274,54,7438,6,0,B|227:69|227:69|192:56|192:56|110:71,1,140,4|0,0:1|0:0,0:0:0:0:
56,114,7912,1,8,0:0:0:0:
96,200,8070,2,0,L|106:279,1,70,0|2,0:0|0:0,0:0:0:0:
168,329,8386,1,2,0:0:0:0:
211,251,8544,2,0,L|209:164,1,70,8|0,0:0|0:0,0:0:0:0:
271,121,8859,5,2,0:0:0:0:
344,184,9017,2,0,B|370:224|370:224|354:342,1,140,2|0,0:0|0:0,0:0:0:0:
443,345,9491,2,0,L|452:258,1,70,2|2,0:0|0:0,0:0:0:0:
488,195,9807,1,8,0:0:0:0:
494,95,9965,6,0,B|440:88|412:128|412:128|398:118|358:93,1,140,4|2,0:1|0:0,0:0:0:0:
303,58,10438,1,8,0:0:0:0:
281,142,10596,2,0,L|292:231,1,70,0|2,0:0|0:0,0:0:0:0:
238,281,10912,1,2,0:0:0:0:
205,204,11070,2,0,L|194:115,1,70,8|0,0:0|0:0,0:0:0:0:
175,53,11386,5,2,0:0:0:0:
93,81,11544,2,0,P|61:123|91:199,1,140,2|2,0:0|0:0,0:0:0:0:
147,262,12017,1,8,0:0:0:0:
85,335,12175,2,0,L|19:321,2,35,2|8|8,0:0|0:0|0:0,0:0:0:0:
194,346,12491,6,0,B|253:328|253:328|343:342,1,140,4|2,0:1|0:0,0:0:0:0:
417,350,12965,2,0,P|429:328|413:266,1,70,8|0,0:0|0:0,0:0:0:0:
352,237,13280,2,0,L|205:225,1,140,2|8,0:0|0:0,0:0:0:0:
136,168,13754,1,0,0:0:0:0:
201,107,13912,6,0,L|283:99,1,70,2|2,0:0|0:0,0:0:0:0:
347,145,14228,2,0,P|358:94|337:58,1,70,8|0,0:0|0:0,0:0:0:0:
270,100,14544,1,2,0:0:0:0:
258,186,14701,1,2,0:0:0:0:
333,233,14859,1,8,0:0:0:0:
416,197,15017,6,0,B|516:191|516:191|495:240,1,140,4|2,0:1|0:0,0:0:0:0:
436,284,15491,2,0,L|356:272,1,70,8|0,0:0|0:0,0:0:0:0:
288,228,15807,2,0,L|218:238,1,70,2|2,0:0|0:0,0:0:0:0:
168,308,16122,1,8,0:0:0:0:
124,236,16280,6,0,B|100:196|100:196|112:96,1,140,2|2,0:0|0:0,0:0:0:0:
188,48,16754,1,8,0:0:0:0:
248,120,16912,1,2,0:0:0:0:
328,80,17070,1,8,0:0:0:0:
408,132,17228,2,0,L|460:124,2,35,2|8|8,0:0|0:0|0:0,0:0:0:0:
296,208,17544,6,0,B|288:264|288:264|296:296|296:296|284:352,1,140,4|2,0:1|0:0,0:0:0:0:
200,304,18017,1,8,0:0:0:0:
200,304,18175,2,0,L|112:308,1,70,0|2,0:0|0:0,0:0:0:0:
100,224,18491,1,2,0:0:0:0:
100,224,18649,2,0,L|188:220,1,70,8|0,0:0|0:0,0:0:0:0:
228,152,18965,5,2,0:0:0:0:
296,208,19122,2,0,P|344:228|420:180,1,140,2|0,0:0|0:0,0:0:0:0:
440,104,19596,2,0,L|448:28,2,70,2|2|8,0:0|0:0|0:0,0:0:0:0:
416,187,20070,6,0,B|428:231|428:231|408:331,1,140,4|2,0:1|0:0,0:0:0:0:
328,356,20544,1,8,0:0:0:0:
328,356,20701,2,0,L|232:348,1,70,0|2,0:0|0:0,0:0:0:0:
216,276,21017,1,2,0:0:0:0:
215,276,21175,2,0,L|132:280,1,70,8|0,0:0|0:0,0:0:0:0:
88,348,21491,5,2,0:0:0:0:
40,280,21649,2,0,B|20:236|20:236|32:140,1,140,2|2,0:0|0:0,0:0:0:0:
92,72,22122,1,8,0:0:0:0:
144,156,22280,2,0,L|136:220,2,35,2|8|8,0:0|0:0|0:0,0:0:0:0:
188,80,22596,6,0,B|238:72|238:72|275:79|275:79|332:72,1,140,4|2,0:1|0:0,0:0:0:0:
393,133,23070,2,0,P|398:185|375:222,1,70,8|0,0:0|0:0,0:0:0:0:
311,235,23386,2,0,P|302:201|309:167,1,70,2|2,0:0|0:0,0:0:0:0:
388,280,23701,1,8,0:0:0:0:
388,280,23859,6,0,B|492:280|492:280|464:328,1,140,2|2,0:0|0:0,0:0:0:0:
408,368,24333,2,0,L|324:360,1,70,8|0,0:0|0:0,0:0:0:0:
256,328,24649,1,2,0:0:0:0:
304,256,24807,1,2,0:0:0:0:
248,192,24965,1,8,0:0:0:0:
180,240,25122,6,0,P|112:260|48:224,1,140,4|2,0:1|0:0,0:0:0:0:
32,144,25596,2,0,L|24:64,1,70,8|0,0:0|0:0,0:0:0:0:
96,24,25912,1,2,0:0:0:0:
168,76,26070,2,0,L|161:145,1,70,2|8,0:0|0:0,0:0:0:0:
180,240,26386,6,0,P|224:208|328:224,1,140,2|2,0:0|0:0,0:0:0:0:
380,280,26859,1,8,0:0:0:0:
460,232,27017,1,2,0:0:0:0:
460,232,27096,1,2,0:0:0:0:
460,232,27175,2,0,L|468:152,1,70,8|8,0:0|0:0,0:0:0:0:
372,112,27491,2,0,L|378:181,1,70,2|2,0:0|0:0,0:0:0:0:
380,280,27807,6,0,L|216:296,1,140,4|8,0:0|0:0,0:0:0:0:
184,228,28280,2,0,P|152:276|192:360,1,140,4|8,0:0|0:0,0:0:0:0:
240,293,28754,2,0,P|272:245|232:161,1,140,4|8,0:0|0:0,0:0:0:0:
168,136,29228,6,0,L|88:144,1,70,4|0,0:0|0:0,0:0:0:0:
32,72,29544,2,0,L|36:28,2,35,0|0|4,0:0|0:0|0:0,0:0:0:0:
16,152,29859,2,0,B|12:204|12:204|20:232|20:232|16:304,1,140,8|8,0:0|0:0,0:0:0:0:
116,328,30333,6,0,L|124:392,2,52.5000020027161,2|2|8,0:0|0:0|0:0,0:0:0:0:
116,232,30807,2,0,B|160:212|160:212|232:224,1,105.000004005432,0|0,0:0|0:0,0:0:0:0:
284,280,31280,1,8,0:0:0:0:
436,172,31596,2,0,P|452:136|420:72,1,105.000004005432,0|8,0:0|0:0,0:0:0:0:
344,48,32070,2,0,L|228:56,1,105.000004005432,0|0,0:0|0:0,0:0:0:0:
196,136,32544,1,8,0:0:0:0:
36,56,32859,6,0,L|28:124,1,52.5000020027161,2|2,0:0|0:0,0:0:0:0:
12,200,33175,1,8,0:0:0:0:
100,228,33333,2,0,P|136:216|200:248,1,105.000004005432,0|0,0:0|0:0,0:0:0:0:
252,312,33807,1,8,0:0:0:0:
252,312,33965,1,0,0:0:0:0:
328,252,34122,6,0,B|348:224|348:224|332:144,1,105.000004005432,0|8,0:0|0:0,0:0:0:0:
264,88,34596,2,0,B|244:116|244:116|260:196,1,105.000004005432,0|0,0:0|0:0,0:0:0:0:
334,154,35070,1,8,0:0:0:0:
204,20,35386,6,0,L|136:32,1,52.5000020027161,2|2,0:0|0:0,0:0:0:0:
80,76,35701,2,0,L|84:192,1,105.000004005432,8|0,0:0|0:0,0:0:0:0:
144,304,36333,1,8,0:0:0:0:
212,252,36491,1,0,0:0:0:0:
248,336,36649,6,0,L|368:320,1,105.000004005432,0|8,0:0|0:0,0:0:0:0:
432,208,37280,2,0,L|440:152,1,52.5000020027161,0|0,0:0|0:0,0:0:0:0:
396,80,37596,1,8,0:0:0:0:
396,80,37912,6,0,P|352:96|288:72,1,105.000004005432,2|8,0:0|0:0,0:0:0:0:
232,24,38386,2,0,L|124:32,1,105.000004005432,0|0,0:0|0:0,0:0:0:0:
56,88,38859,1,8,0:0:0:0:
104,168,39017,1,2,0:0:0:0:
112,176,39096,1,2,0:0:0:0:
120,184,39175,6,0,L|116:248,2,52.5000020027161,8|0|0,0:0|0:0|0:0,0:0:0:0:
40,220,39649,2,0,P|44:276|120:312,1,140,2|0,0:0|0:0,0:0:0:0:
196,292,40122,2,0,L|276:288,1,70,8|8,0:0|0:0,0:0:0:0:
352,252,40438,6,0,B|336:220|320:212|320:212|328:120,1,140,4|8,0:1|0:0,0:0:0:0:
396,64,40912,2,0,P|352:36|264:60,1,140,2|2,0:0|0:0,0:0:0:0:
224,128,41386,2,0,B|188:136|188:136|140:120,1,70,8|0,0:0|0:0,0:0:0:0:
84,80,41701,6,0,L|92:-4,2,70,2|2|8,0:0|0:0|0:0,0:0:0:0:
56,160,42175,2,0,L|64:316,1,140,2|2,0:0|0:0,0:0:0:0:
136,356,42649,1,8,0:0:0:0:
212,308,42807,1,0,0:0:0:0:
212,308,42886,1,0,0:0:0:0:
212,308,42965,6,0,L|292:300,1,70,2|2,0:0|0:0,0:0:0:0:
368,280,43280,1,8,0:0:0:0:
420,352,43438,2,0,B|460:312|460:312|452:224,1,140,0|2,0:0|0:0,0:0:0:0:
376,116,43912,2,0,L|368:200,1,70,8|0,0:0|0:0,0:0:0:0:
284,220,44228,6,0,L|296:76,1,140,2|8,0:0|0:0,0:0:0:0:
208,104,44701,2,0,L|201:173,1,70,0|2,0:0|0:0,0:0:0:0:
204,264,45017,2,0,L|208:320,2,35,8|8|8,0:0|0:0|0:0,0:0:0:0:
284,220,45333,6,0,B|340:200|340:200|432:224,1,140,4|0,0:1|0:0,0:0:0:0:
472,144,45807,2,0,L|392:124,1,70,8|0,0:0|0:0,0:0:0:0:
356,48,46122,2,0,L|200:64,1,140,2|8,0:0|0:0,0:0:0:0:
124,32,46596,6,0,B|96:76|96:76|116:120|104:180,1,140,2|2,0:0|0:0,0:0:0:0:
36,232,47070,2,0,P|32:248|44:304,1,70,8|0,0:0|0:0,0:0:0:0:
128,344,47386,2,0,B|224:340|224:340|256:296,1,140,2|8,0:0|0:0,0:0:0:0:
248,212,47859,1,0,0:0:0:0:
240,200,47938,1,0,0:0:0:0:
232,188,48017,6,0,L|240:112,1,70,2|0,0:0|0:0,0:0:0:0:
292,48,48333,1,8,0:0:0:0:
384,64,48491,2,0,P|436:68|472:164,1,140,2|2,0:0|0:0,0:0:0:0:
400,208,48965,2,0,L|392:120,1,70,8|0,0:0|0:0,0:0:0:0:
384,64,49280,5,0,0:0:0:0:
316,136,49438,2,0,L|324:188,2,35,2|2|8,0:0|0:0|0:0,0:0:0:0:
270,55,49754,1,2,0:0:0:0:
263,45,49833,1,2,0:0:0:0:
255,37,49912,2,0,L|175:45,1,70,8|2,0:0|0:0,0:0:0:0:
144,138,50228,2,0,L|224:130,1,70,2|2,0:0|0:0,0:0:0:0:
90,81,50544,6,0,P|64:128|111:208,1,140,4|8,0:0|0:0,0:0:0:0:
151,258,51017,2,0,P|177:211|130:131,1,140,4|8,0:0|0:0,0:0:0:0:
72,284,51491,2,0,P|96:324|144:336,1,70,4|2,0:0|0:0,0:0:0:0:
224,324,51807,5,4,0:0:0:0:
224,324,51965,2,0,B|260:296|260:296|356:320,2,140,8|8|2,0:0|0:0|0:0,0:0:0:0:
152,256,52754,2,0,L|144:184,1,70,8|2,0:0|0:0,0:0:0:0:
80,120,53070,6,0,P|136:92|212:128,1,140,4|8,0:0|0:0,0:0:0:0:
268,185,53544,2,0,P|212:213|136:177,1,140,4|8,0:0|0:0,0:0:0:0:
204,118,54017,2,0,L|200:34,1,70,4|0,0:0|0:0,0:0:0:0:
336,24,54333,6,0,B|368:64|368:64|356:143,1,93.3333333333333,8|2,0:0|0:0,0:0:0:0:
415,191,54649,6,8,L|476:184,2,46.6666666666667,8|8|8,0:0|0:0|0:0,0:0:0:0:
330,202,54965,6,0,L|344:355,1,140,2|2,0:0|0:0,0:0:0:0:
200,272,55596,6,0,B|144:260|144:260|108:296|52:280,1,140,4|0,0:0|0:0,0:0:0:0:
84,188,56070,1,2,0:0:0:0:
84,188,56149,1,2,0:0:0:0:
84,188,56228,2,0,P|68:132|132:76,1,140,8|2,0:0|0:0,0:0:0:0:
216,104,56701,2,0,L|308:96,1,70,2|0,0:0|0:0,0:0:0:0:
312,184,57017,6,0,L|220:192,1,70,8|0,0:0|0:0,0:0:0:0:
216,280,57333,1,0,0:0:0:0:
280,352,57491,2,0,P|328:348|360:256,1,140,8|0,0:0|0:0,0:0:0:0:
256,120,58122,6,0,L|244:32,1,70,2|2,0:0|0:0,0:0:0:0:
332,12,58438,2,0,L|344:100,1,70,0|2,0:0|0:0,0:0:0:0:
328,172,58754,2,0,P|264:212|184:172,1,140,8|2,0:0|0:0,0:0:0:0:
152,128,59228,1,0,0:0:0:0:
152,128,59386,1,2,0:0:0:0:
104,216,59544,6,0,L|24:208,1,70,8|0,0:0|0:0,0:0:0:0:
56,304,59859,2,0,L|136:312,1,70,2|8,0:0|0:0,0:0:0:0:
228,288,60175,2,0,B|256:252|256:252|240:152,1,140,2|2,0:0|0:0,0:0:0:0:
168,48,60649,6,0,P|160:92|184:128,1,70,4|0,0:0|0:0,0:0:0:0:
241,158,60965,2,0,L|333:138,1,70,8|0,0:0|0:0,0:0:0:0:
372,64,61280,1,2,0:0:0:0:
372,64,61438,1,2,0:0:0:0:
432,140,61596,2,0,L|416:220,1,70,8|0,0:0|0:0,0:0:0:0:
392,284,61912,6,0,B|364:268|356:256|356:256|300:284|248:264,1,140,2|8,0:0|0:0,0:0:0:0:
184,276,62386,2,0,L|172:364,1,70,0|2,0:0|0:0,0:0:0:0:
88,348,62701,2,0,L|78:278,1,70,2|8,0:0|0:0,0:0:0:0:
36,200,63017,1,8,0:0:0:0:
32,192,63096,1,8,0:0:0:0:
28,184,63175,6,0,P|32:144|120:120,1,140,2|8,0:0|0:0,0:0:0:0:
184,180,63649,2,0,L|260:172,1,70,0|2,0:0|0:0,0:0:0:0:
296,88,63965,2,0,L|365:95,1,70,2|8,0:0|0:0,0:0:0:0:
444,140,64280,1,0,0:0:0:0:
372,208,64438,6,0,B|364:240|344:256|344:256|392:288|372:360,1,140,2|8,0:0|0:0,0:0:0:0:
292,324,64912,1,0,0:0:0:0:
208,356,65070,2,0,L|148:352,3,35,8|8|8|8,0:0|0:0|0:0|0:0,0:0:0:0:
140,328,65386,2,0,L|105:330,3,35,8|8|8|8,0:0|0:0|0:0|0:0,0:0:0:0:
44,352,65701,6,0,B|76:312|76:312|64:216,1,140,4|2,0:0|0:0,0:0:0:0:
24,144,66175,2,0,P|80:136|148:200,1,140,4|2,0:0|0:0,0:0:0:0:
184,264,66649,2,0,L|264:252,1,70,8|2,0:0|0:0,0:0:0:0:
328,172,66965,2,0,L|248:160,1,70,2|8,0:0|0:0,0:0:0:0:
364,244,67280,6,0,P|396:220|404:172,1,70,2|2,0:0|0:0,0:0:0:0:
304,110,67596,2,0,P|308:149|346:180,1,70,8|2,0:0|0:0,0:0:0:0:
448,120,67912,2,0,P|411:104|365:121,1,70,8|2,0:0|0:0,0:0:0:0:
404,192,68228,6,0,L|412:348,1,140,8|2,0:0|0:0,0:0:0:0:
336,384,68701,2,0,L|328:228,1,140,8|2,0:0|0:0,0:0:0:0:
248,196,69175,2,0,L|256:352,1,140,8|2,0:0|0:0,0:0:0:0:
172,364,69649,2,0,P|124:376|60:304,1,140,8|2,0:0|0:0,0:0:0:0:
60,220,70122,6,0,L|-12:212,2,46.6666666666667,8|8|8,0:0|0:0|0:0,0:0:0:0:
128,160,70438,6,0,L|200:152,2,46.6666666666667,2|2|2,0:0|0:0|0:0,0:0:0:0:
156,248,70754,6,0,B|208:232|208:232|240:244|240:244|300:228,2,140,4|2|2,0:0|0:0|0:0,0:0:0:0:
48,144,71701,1,0,0:0:0:0:
48,144,71859,2,0,P|28:88|80:24,2,140,2|2|2,0:0|0:0|0:0,0:0:0:0:
136,176,72649,2,0,L|212:168,1,70,0|0,0:0|0:0,0:0:0:0:
232,84,72965,2,0,L|156:92,1,70,2|0,0:0|0:0,0:0:0:0:
288,160,73280,6,0,B|388:140|388:140|368:196,2,140,2|2|2,0:0|0:0|0:0,0:0:0:0:
204,320,74228,1,0,0:0:0:0:
204,320,74386,1,2,0:0:0:0:
200,316,75649,6,0,P|156:336|80:276,1,140,4|2,1:0|0:0,0:0:0:0:
104,200,76122,1,8,0:0:0:0:
104,200,76280,2,0,P|148:180|224:240,1,140,0|2,0:0|0:0,0:0:0:0:
296,292,76754,1,8,0:0:0:0:
296,292,76912,6,0,B|352:308|352:308|440:280,1,140,0|2,0:0|0:0,0:0:0:0:
472,208,77386,2,0,P|484:168|476:136,1,70,8|0,0:0|0:0,0:0:0:0:
408,68,77701,2,0,L|320:72,1,70,2|0,0:0|0:0,0:0:0:0:
288,168,78017,2,0,L|376:172,1,70,8|8,0:0|0:0,0:0:0:0:
232,80,78333,6,0,B|180:80|180:80|156:64|156:64|72:72,1,140,2|8,0:0|0:0,0:0:0:0:
40,144,78807,2,0,L|32:228,1,70,0|2,0:0|0:0,0:0:0:0:
124,272,79122,2,0,L|117:202,1,70,2|8,0:0|0:0,0:0:0:0:
204,208,79438,6,0,B|248:244|248:244|348:224,1,140,2|2,0:0|0:0,0:0:0:0:
424,208,79912,1,2,0:0:0:0:
424,208,80070,1,0,0:0:0:0:
356,144,80228,2,0,L|352:72,1,70,2|0,0:0|0:0,0:0:0:0:
264,16,80544,2,0,L|260:85,1,70,8|8,0:0|0:0,0:0:0:0:
252,104,80780,1,8,0:0:0:0:
244,120,80859,6,0,P|188:144|108:104,1,140,4|8,0:0|0:0,0:0:0:0:
64,40,81333,1,0,0:0:0:0:
24,132,81491,2,0,L|36:216,1,70,2|2,0:0|0:0,0:0:0:0:
96,272,81807,1,8,0:0:0:0:
192,252,81965,6,0,P|248:228|328:264,1,140,0|2,0:0|0:0,0:0:0:0:
252,328,82438,1,8,0:0:0:0:
192,252,82596,2,0,B|188:208|188:208|200:176|200:176|188:104,1,140,2|2,0:0|0:0,0:0:0:0:
286,78,83070,2,0,L|278:158,1,70,8|0,0:0|0:0,0:0:0:0:
104,112,83386,6,0,P|120:60|212:32,1,140,2|8,0:0|0:0,0:0:0:0:
189,115,83859,2,0,L|197:199,1,70,2|0,0:0|0:0,0:0:0:0:
272,232,84175,2,0,L|265:301,1,70,2|8,0:0|0:0,0:0:0:0:
172,264,84491,1,2,0:0:0:0:
280,148,84649,6,0,P|324:160|352:252,1,140,2|4,0:0|0:0,0:0:0:0:
340,340,85122,1,0,0:0:0:0:
264,301,85280,1,4,0:0:0:0:
184,344,85438,2,0,L|192:392,2,35,8|8|4,0:0|0:0|0:0,0:0:0:0:
72,272,85754,1,8,0:0:0:0:
72,272,85833,1,8,0:0:0:0:
72,272,85912,6,0,L|212:236,1,140,4|8,0:0|0:0,0:0:0:0:
260,160,86386,2,0,P|276:120|260:80,1,70,0|2,0:0|0:0,0:0:0:0:
196,56,86701,2,0,P|180:96|196:136,1,70,2|8,0:0|0:0,0:0:0:0:
270,94,87017,6,0,L|418:82,1,140,2|2,0:0|0:0,0:0:0:0:
464,156,87491,2,0,B|472:192|472:192|464:228,1,70,8|0,0:0|0:0,0:0:0:0:
376,264,87807,2,0,B|368:228|368:228|376:192,1,70,2|2,0:0|0:0,0:0:0:0:
440,312,88122,2,0,P|408:340|368:340,1,70,8|0,0:0|0:0,0:0:0:0:
296,304,88438,6,0,L|140:296,1,140,2|8,0:0|0:0,0:0:0:0:
80,240,88912,1,2,0:0:0:0:
72,228,88991,1,8,0:0:0:0:
64,216,89070,2,0,L|56:128,1,70,2|2,0:0|0:0,0:0:0:0:
104,68,89386,1,8,0:0:0:0:
168,132,89544,6,0,P|204:160|284:120,1,140,2|2,0:0|0:0,0:0:0:0:
344,40,90017,2,0,L|440:48,1,70,8|0,0:0|0:0,0:0:0:0:
472,120,90333,1,8,0:0:0:0:
472,120,90491,1,8,0:0:0:0:
396,192,90649,2,0,L|392:276,1,70,8|8,0:0|0:0,0:0:0:0:
404,272,90886,1,8,0:0:0:0:
416,288,90965,6,0,B|360:304|336:300|336:300|332:332|296:356,1,140,4|8,0:0|0:0,0:0:0:0:
184,304,91438,2,0,L|256:288,1,70,0|2,0:0|0:0,0:0:0:0:
300,212,91754,1,2,0:0:0:0:
228,176,91912,2,0,L|156:192,1,70,8|2,0:0|0:0,0:0:0:0:
108,260,92228,6,0,P|76:220|104:128,1,140,4|8,0:0|0:0,0:0:0:0:
144,69,92701,2,0,P|176:109|148:201,1,140,2|2,0:0|0:0,0:0:0:0:
108,260,93175,1,8,0:0:0:0:
144,344,93333,1,2,0:0:0:0:
224,300,93491,6,0,B|312:280|312:280|320:300|356:316,1,140,4|8,0:0|0:0,0:0:0:0:
408,376,93965,2,0,P|436:328|404:240,1,140,2|2,0:0|0:0,0:0:0:0:
340,192,94438,2,0,L|336:112,1,70,8|0,0:0|0:0,0:0:0:0:
416,56,94754,5,4,0:0:0:0:
452,144,94912,1,2,0:0:0:0:
336,122,95070,2,0,L|240:114,1,70,8|0,0:0|0:0,0:0:0:0:
192,32,95386,2,0,L|288:24,1,70,2|8,0:0|0:0,0:0:0:0:
176,124,95701,1,8,0:0:0:0:
80,72,95859,6,0,B|56:60|48:40|48:40|40:164,1,140,4|2,0:0|0:0,0:0:0:0:
48,232,96333,2,0,P|80:248|140:240,1,70,8|2,0:0|0:0,0:0:0:0:
128,336,96649,2,0,P|161:324|198:276,1,70,8|2,0:0|0:0,0:0:0:0:
256,356,96965,2,0,P|271:324|264:264,1,70,8|2,0:0|0:0,0:0:0:0:
200,196,97280,6,0,L|280:188,1,70,8|2,0:0|0:0,0:0:0:0:
208,112,97596,2,0,L|288:104,1,70,8|2,0:0|0:0,0:0:0:0:
216,28,97912,2,0,L|296:20,1,70,8|2,0:0|0:0,0:0:0:0:
376,20,98228,1,8,0:0:0:0:
464,72,98386,6,0,B|484:104|484:104|464:216,1,140,4|2,0:0|0:0,0:0:0:0:
384,272,98859,2,0,L|372:192,1,70,8|2,0:0|0:0,0:0:0:0:
272,256,99175,2,0,L|285:187,1,70,8|2,0:0|0:0,0:0:0:0:
168,216,99491,2,0,L|210:147,1,70,8|2,0:0|0:0,0:0:0:0:
248,44,99807,6,0,B|204:76|204:76|104:64,1,140,8|8,0:0|0:0,0:0:0:0:
32,104,100280,1,2,0:0:0:0:
32,104,100359,1,8,0:0:0:0:
32,104,100438,2,0,L|24:196,1,70,2|2,0:0|0:0,0:0:0:0:
60,256,100754,1,2,0:0:0:0:
168,208,100912,1,4,0:0:0:0:
256,192,101070,12,4,102175,0:0:0:0:
56,320,102965,5,2,0:0:0:0:
56,320,103122,1,0,0:0:0:0:
56,320,103280,1,2,0:0:0:0:
56,320,103438,6,0,L|48:176,1,140,4|2,1:0|0:0,0:0:0:0:
120,116,103912,1,8,0:0:0:0:
176,192,104070,2,0,B|184:228|184:228|176:272,1,70,0|2,0:0|0:0,0:0:0:0:
248,324,104386,1,2,0:0:0:0:
316,256,104544,2,0,B|310:223|310:223|318:187,1,70,8|0,0:0|0:0,0:0:0:0:
404,160,104859,5,2,0:0:0:0:
376,72,105017,2,0,B|328:56|328:56|288:92|220:76,1,140,2|0,0:0|0:0,0:0:0:0:
156,44,105491,2,0,L|60:40,2,70,2|2|8,0:0|0:0|0:0,0:0:0:0:
192,144,105965,6,0,P|216:184|152:256,1,140,4|2,1:0|0:0,0:0:0:0:
92,312,106438,1,8,0:0:0:0:
176,352,106596,2,0,L|264:344,1,70,0|2,0:0|0:0,0:0:0:0:
288,260,106912,1,2,0:0:0:0:
340,344,107070,2,0,L|409:350,1,70,8|0,0:0|0:0,0:0:0:0:
492,292,107386,5,2,0:0:0:0:
424,224,107544,2,0,B|416:168|416:168|424:144|424:144|408:76,1,140,2|2,0:0|0:0,0:0:0:0:
332,32,108017,1,8,0:0:0:0:
284,112,108175,2,0,L|276:164,2,35,2|8|8,0:0|0:0|0:0,0:0:0:0:
196,36,108491,6,0,L|48:52,1,140,4|2,1:0|0:0,0:0:0:0:
24,132,108965,2,0,B|16:164|16:164|32:208,1,70,8|0,0:0|0:0,0:0:0:0:
104,240,109280,2,0,L|200:228,1,70,2|2,0:0|0:0,0:0:0:0:
248,280,109596,1,8,0:0:0:0:
232,156,109754,6,0,P|276:152|344:236,1,140,2|2,0:0|0:0,0:0:0:0:
372,316,110228,2,0,L|456:304,1,70,8|0,0:0|0:0,0:0:0:0:
488,228,110544,1,2,0:0:0:0:
416,168,110701,1,2,0:0:0:0:
472,92,110859,1,8,0:0:0:0:
400,36,111017,6,0,B|308:24|308:24|256:32,1,140,4|2,1:0|0:0,0:0:0:0:
172,48,111491,2,0,P|192:88|232:104,1,70,8|0,0:0|0:0,0:0:0:0:
280,164,111807,2,0,P|304:126|298:84,1,70,2|2,0:0|0:0,0:0:0:0:
200,176,112122,1,8,0:0:0:0:
200,176,112280,2,0,B|192:232|192:232|204:260|204:260|192:332,1,140,2|2,0:0|0:0,0:0:0:0:
280,360,112754,2,0,L|292:276,1,70,8|2,0:0|0:0,0:0:0:0:
348,228,113070,1,8,0:0:0:0:
424,280,113228,2,0,L|476:272,2,35,2|2|8,0:0|0:0|0:0,0:0:0:0:
348,228,113544,6,0,B|364:128|364:128|324:152,1,140,4|2,1:0|0:0,0:0:0:0:
240,188,114017,1,8,0:0:0:0:
240,188,114175,2,0,L|252:100,1,70,0|2,0:0|0:0,0:0:0:0:
168,64,114491,1,2,0:0:0:0:
168,64,114649,2,0,L|156:152,1,70,8|0,0:0|0:0,0:0:0:0:
136,224,114965,5,2,0:0:0:0:
184,304,115122,2,0,B|224:280|224:280|328:304,1,140,2|0,0:0|0:0,0:0:0:0:
412,324,115596,2,0,L|488:312,2,70,2|2|8,0:0|0:0|0:0,0:0:0:0:
384,200,116070,6,0,B|344:224|344:224|240:200,1,140,4|2,1:0|0:0,0:0:0:0:
144,252,116544,1,8,0:0:0:0:
144,252,116701,2,0,P|132:292|140:324,1,70,0|2,0:0|0:0,0:0:0:0:
232,356,117017,1,2,0:0:0:0:
232,356,117175,2,0,P|244:316|236:284,1,70,8|0,0:0|0:0,0:0:0:0:
172,168,117491,5,2,0:0:0:0:
252,204,117649,2,0,L|400:184,1,140,2|0,0:0|0:0,0:0:0:0:
444,108,118122,1,8,0:0:0:0:
476,224,118280,2,0,L|468:268,2,35,2|8|8,0:0|0:0|0:0,0:0:0:0:
348,260,118596,6,0,P|312:224|328:132,1,140,4|2,1:0|0:0,0:0:0:0:
368,48,119070,2,0,L|280:56,1,70,8|0,0:0|0:0,0:0:0:0:
220,104,119386,2,0,L|150:97,1,70,2|2,0:0|0:0,0:0:0:0:
80,40,119701,1,8,0:0:0:0:
32,116,119859,2,0,B|8:168|8:168|40:260,1,140,2|2,0:0|0:0,0:0:0:0:
108,304,120333,2,0,L|188:296,1,70,8|0,0:0|0:0,0:0:0:0:
232,232,120649,1,2,0:0:0:0:
308,272,120807,1,2,0:0:0:0:
280,352,120965,1,8,0:0:0:0:
177,297,121122,6,0,P|148:264|168:172,1,140,4|2,1:0|0:0,0:0:0:0:
236,128,121596,2,0,L|316:140,1,70,8|0,0:0|0:0,0:0:0:0:
360,64,121912,2,0,L|280:52,1,70,2|2,0:0|0:0,0:0:0:0:
216,20,122228,1,8,0:0:0:0:
132,64,122386,6,0,L|144:212,1,140,2|2,0:0|0:0,0:0:0:0:
204,280,122859,1,8,0:0:0:0:
296,236,123017,1,2,0:0:0:0:
304,228,123096,1,8,0:0:0:0:
312,220,123175,2,0,L|400:216,1,70,2|2,0:0|0:0,0:0:0:0:
464,324,123491,2,0,L|376:320,1,70,2|2,0:0|0:0,0:0:0:0:
460,224,123807,6,0,P|452:176|356:144,1,140,4|8,0:0|0:0,0:0:0:0:
265,246,124280,2,0,P|310:263|386:195,1,140,4|8,0:0|0:0,0:0:0:0:
344,68,124754,2,0,P|306:98|326:198,1,140,4|8,0:0|0:0,0:0:0:0:
445,131,125228,2,0,L|357:139,1,70,4|0,0:0|0:0,0:0:0:0:
308,184,125544,2,0,L|256:176,2,35,8|2|8,0:0|0:0|0:0,0:0:0:0:
208,116,125859,2,0,L|44:136,1,140,4|0,0:0|0:0,0:0:0:0:
44,216,126333,6,0,L|40:280,1,52.5000020027161,0|0,0:0|0:0,0:0:0:0:
120,244,126649,2,0,L|124:308,1,52.5000020027161,0|0,0:0|0:0,0:0:0:0:
200,256,126965,2,0,L|204:320,1,52.5000020027161,0|0,0:0|0:0,0:0:0:0:
312,344,127280,6,0,L|304:288,1,52.5000020027161,2|0,0:0|0:0,0:0:0:0:
400,308,127596,2,0,L|392:252,1,52.5000020027161,2|0,0:0|0:0,0:0:0:0:
484,272,127912,2,0,L|476:216,1,52.5000020027161,2|0,0:0|0:0,0:0:0:0:
360,132,128228,6,0,P|356:172|372:196,1,52.5000020027161,2|2,0:0|0:0,0:0:0:0:
440,148,128544,1,2,0:0:0:0:
416,60,128701,1,2,0:0:0:0:
