osu file format v14

[General]
AudioFilename: audio.mp3
AudioLeadIn: 0
PreviewTime: 72828
Countdown: 0
SampleSet: Soft
StackLeniency: 0.4
Mode: 0
LetterboxInBreaks: 0
EpilepsyWarning: 1
WidescreenStoryboard: 1

[Editor]
Bookmarks: 27118,47960,58697,63749,72592,123749
DistanceSpacing: 0.2
BeatDivisor: 4
GridSize: 32
TimelineZoom: 1

[Metadata]
Title:Determination Symphony
TitleUnicode:Determination Symphony
Artist:Roselia
ArtistUnicode:Roselia
Creator:Lortus
Version:Promise
Source:バンドリ!ガールズバンドパーティ!
Tags:bang dream! girls band party 氷川紗夜 湊友希那 今井リサ 宇田川あこ 白金燐子
BeatmapID:1994628
BeatmapSetID:955102

[Difficulty]
HPDrainRate:6
CircleSize:4
OverallDifficulty:8.5
ApproachRate:9.7
SliderMultiplier:2
SliderTickRate:1

[Events]
//Background and Video events
0,0,"sayo.jpg",0,0
//Break Periods
//Storyboard Layer 0 (Background)
//Storyboard Layer 1 (Fail)
//Storyboard Layer 2 (Pass)
//Storyboard Layer 3 (Foreground)
//Storyboard Sound Samples

[TimingPoints]
592,315.789473684211,4,2,0,8,1,0
592,-333.333333333333,4,2,0,8,0,0
1539,-333.333333333333,4,2,0,12,0,0
2486,-133.333333333333,4,2,0,12,0,0
3118,-133.333333333333,4,2,0,16,0,0
4697,-133.333333333333,4,2,0,20,0,0
5013,-200,4,2,1,20,0,0
5486,-76.9230769230769,4,2,1,70,0,1
5565,-76.9230769230769,4,2,1,70,0,0
5723,-83.3333333333333,4,2,1,70,0,0
25855,-100,4,2,1,70,0,0
26328,-90.9090909090909,4,2,1,70,0,0
26802,-83.3333333333333,4,2,1,70,0,0
27276,-66.6666666666667,4,2,1,70,0,0
27907,-62.5,4,2,1,70,0,0
28697,-142.857142857143,4,2,1,60,0,0
37381,-333.333333333334,4,2,0,20,0,0
38170,-333.333333333334,4,2,1,70,0,0
38486,-100,4,2,1,70,0,0
48592,-111.111111111111,4,2,1,70,0,0
58223,-142.857142857143,4,2,1,70,0,0
58697,-99.9999999999999,4,2,1,70,0,0
63749,-90.9090909090909,4,2,1,70,0,0
69118,-500,4,2,2,20,0,0
71170,-500,4,2,0,20,0,0
71328,-500,4,2,1,20,0,0
71486,-500,4,2,2,20,0,0
71644,-333.333333333333,4,2,2,20,0,0
73697,-83.3333333333333,4,2,3,71,0,1
74013,-90.9090909090909,4,2,1,71,0,1
83013,-76.9230769230769,4,2,1,71,0,0
83328,-90.9090909090909,4,2,1,71,0,0
83960,-83.3333333333333,4,2,1,71,0,1
84197,-90.9090909090909,4,2,1,71,0,1
96434,-71.4285714285714,4,2,1,71,0,1
98802,-71.4285714285714,4,2,0,71,0,1
98960,-500,4,2,1,71,0,0
100223,-100,4,2,1,71,0,1
100302,-100,4,2,1,71,0,0
101013,-200,4,2,1,35,0,0
101486,-76.9230769230769,4,2,1,70,0,1
101565,-76.9230769230769,4,2,1,70,0,0
101802,-83.3333333333333,4,2,1,70,0,0
121855,-100,4,2,1,70,0,0
122328,-90.9090909090909,4,2,1,70,0,0
122802,-83.3333333333333,4,2,1,70,0,0
123276,-66.6666666666667,4,2,1,70,0,0
123907,-62.5,4,2,1,70,0,0
124381,-333.333333333333,4,2,0,8,0,0
125328,-333.333333333333,4,2,0,12,0,0
126276,-333.333333333333,4,2,0,16,0,0
126749,-333.333333333333,4,2,0,20,0,0
126907,-333.333333333333,4,2,1,5,0,0

[Colours]
Combo1 : 231,129,223
Combo2 : 56,233,210
Combo3 : 134,20,163
Combo4 : 238,35,30
Combo5 : 164,164,164

[HitObjects]
113,333,592,5,2,0:0:0:0:
116,319,749,1,0,0:0:0:0:
194,291,907,1,2,0:0:0:0:
193,276,1064,1,0,0:0:0:0:
269,239,1223,1,2,0:0:0:0:
264,224,1380,1,0,0:0:0:0:
469,343,1539,5,2,0:0:0:0:
472,327,1697,1,0,0:0:0:0:
362,217,1855,1,2,0:0:0:0:
378,214,2013,1,0,0:0:0:0:
384,38,2170,1,2,0:0:0:0:
399,43,2328,1,0,0:0:0:0:
491,120,2486,6,0,L|403:139,1,75.0000028610231,2|0,0:0|0:0,0:0:0:0:
245,58,2802,2,0,L|171:42,1,75.0000028610231,2|0,0:0|0:0,0:0:0:0:
35,11,3118,5,2,0:0:0:0:
40,40,3276,1,0,0:0:0:0:
10,220,3434,1,2,0:0:0:0:
32,201,3592,1,0,0:0:0:0:
247,91,3749,1,2,0:0:0:0:
219,81,3907,1,0,0:0:0:0:
174,264,4065,6,0,L|157:366,1,75.0000028610231,2|0,0:0|0:0,0:0:0:0:
123,177,4381,2,0,L|135:103,1,75.0000028610231,2|0,0:0|0:0,0:0:0:0:
434,211,4697,5,2,0:0:0:0:
449,210,4855,1,2,0:0:0:0:
193,159,5013,6,2,L|172:161,1,12.5,2|0,0:1|3:0,0:1:0:0:
284,252,5170,6,2,L|299:250,1,12.5,2|0,0:1|3:0,0:1:0:0:
184,345,5328,6,2,L|163:348,1,12.5,2|0,0:1|3:0,0:1:0:0:
405,308,5486,6,0,B|457:297|457:297|481:129,1,194.999991073609,4|0,1:3|3:0,0:0:0:0:
488,57,5802,2,0,L|403:79,1,59.9999981689454,2|0,0:0|3:0,0:0:0:0:
229,194,5960,2,0,L|306:173,1,59.9999981689454,8|0,0:0|3:0,0:0:0:0:
389,148,6118,1,2,0:0:0:0:
298,63,6276,1,2,0:0:0:0:
258,273,6434,1,2,0:0:0:0:
397,199,6592,1,8,0:0:0:0:
211,92,6749,1,2,0:0:0:0:
194,256,6907,5,2,0:0:0:0:
340,130,7065,1,2,0:0:0:0:
141,169,7223,1,8,0:0:0:0:
368,237,7381,1,2,0:0:0:0:
216,82,7539,1,2,0:0:0:0:
115,283,7697,1,2,0:0:0:0:
57,100,7855,1,8,0:0:0:0:
274,261,8013,6,0,L|470:286,1,179.999994506836,4|0,1:0|3:0,0:0:0:0:
452,283,8328,2,0,L|379:304,1,59.9999981689454,2|0,0:0|3:0,0:0:0:0:
167,360,8486,2,0,L|181:288,1,59.9999981689454,8|0,0:0|3:0,0:0:0:0:
210,102,8644,1,2,0:0:0:0:
310,325,8802,1,2,0:0:0:0:
384,145,8960,1,2,0:0:0:0:
150,202,9118,2,0,L|168:288,1,59.9999981689454,8|0,0:0|3:0,0:0:0:0:
407,343,9276,1,2,0:0:0:0:
239,220,9434,6,0,L|223:158,1,59.9999981689454,2|0,0:0|3:0,0:0:0:0:
186,15,9592,1,2,0:0:0:0:
319,249,9749,2,0,L|331:174,1,59.9999981689454,12|0,0:0|3:0,0:0:0:0:
360,17,9907,1,2,0:0:0:0:
403,271,10065,1,12,1:2:0:0:
416,269,10144,1,0,1:2:0:0:
429,267,10223,1,0,1:2:0:0:
442,264,10302,1,0,1:2:0:0:
455,262,10381,1,8,1:2:0:0:
139,357,10539,6,2,P|63:307|65:223,1,179.999994506836,4|0,1:3|3:0,0:1:0:0:
63,225,10855,2,0,L|148:238,1,59.9999981689454,2|0,0:3|3:0,0:0:0:0:
286,148,11013,1,8,0:0:0:0:
246,324,11170,2,0,L|231:234,1,59.9999981689454,2|0,0:3|3:0,0:0:0:0:
210,70,11328,1,2,0:0:0:0:
327,230,11486,2,0,L|408:217,1,59.9999981689454,2|0,0:3|3:0,0:0:0:0:
449,49,11644,1,8,0:0:0:0:
234,218,11802,6,2,B|45:248,1,179.999994506836,4|0,1:0|3:0,0:1:0:0:
67,81,12118,2,0,L|97:161,1,59.9999981689454,2|0,0:3|3:0,0:0:0:0:
154,317,12276,1,8,0:0:0:0:
317,109,12434,1,2,0:3:0:0:
242,276,12592,1,2,0:0:0:0:
192,146,12749,1,2,0:3:0:0:
357,306,12907,1,8,0:0:0:0:
297,94,13065,6,2,P|347:31|447:35,1,179.999994506836,4|0,1:0|3:0,0:1:0:0:
440,31,13381,2,0,L|428:117,1,59.9999981689454,2|0,0:3|3:0,0:0:0:0:
416,238,13539,1,8,0:0:0:0:
297,94,13697,1,2,0:3:0:0:
502,164,13855,1,2,0:0:0:0:
321,247,14013,2,0,L|337:173,1,59.9999981689454,2|0,0:3|3:0,0:0:0:0:
492,13,14170,1,8,0:0:0:0:
416,170,14328,6,0,L|206:199,1,179.999994506836,6|0,1:0|3:0,0:0:0:0:
178,72,14644,2,0,L|201:149,1,59.9999981689454,8|0,0:0|3:0,0:0:0:0:
360,318,14802,2,0,L|341:253,1,59.9999981689454,8|0,0:0|3:0,0:0:0:0:
297,94,14960,1,4,1:2:0:0:
185,307,15118,1,8,1:3:0:0:
195,251,15197,1,2,1:3:0:0:
178,197,15276,1,2,1:2:0:0:
125,176,15355,1,8,0:0:0:0:
70,189,15434,1,2,1:2:0:0:
50,241,15513,1,2,0:0:0:0:
63,242,15592,6,0,L|281:266,1,179.999994506836,4|0,1:3|3:0,0:0:0:0:
364,331,15907,2,0,L|350:249,1,59.9999981689454,2|0,0:0|3:0,0:0:0:0:
318,59,16065,1,8,0:0:0:0:
455,206,16223,2,0,L|469:135,1,59.9999981689454,2|0,0:0|3:0,0:0:0:0:
499,20,16381,1,2,0:0:0:0:
308,77,16539,1,2,0:0:0:0:
392,188,16697,1,8,0:0:0:0:
235,39,16855,1,0,0:0:0:0:
218,201,17013,5,2,0:0:0:0:
381,67,17170,1,2,0:0:0:0:
316,217,17328,1,8,0:0:0:0:
286,73,17486,1,2,0:0:0:0:
400,237,17644,1,2,0:0:0:0:
202,267,17802,2,0,L|125:280,1,59.9999981689454,2|0,0:0|3:0,0:0:0:0:
32,115,17960,1,8,0:0:0:0:
239,184,18118,6,0,L|448:149,1,179.999994506836,4|0,1:0|3:0,0:0:0:0:
416,154,18434,2,0,L|368:88,1,59.9999981689454,2|0,0:0|3:0,0:0:0:0:
305,15,18592,1,8,0:0:0:0:
267,221,18749,1,2,0:0:0:0:
355,181,18907,1,2,0:0:0:0:
211,22,19065,2,0,L|200:102,1,59.9999981689454,2|0,0:0|3:0,0:0:0:0:
176,281,19223,1,8,0:0:0:0:
114,134,19381,6,0,B|23:118,1,59.9999981689454,2|0,0:0|3:0,0:0:0:0:
75,250,19539,1,2,0:0:0:0:
203,82,19697,2,0,L|314:66,1,59.9999981689454,2|0,0:0|3:0,0:0:0:0:
377,231,19855,2,0,B|388:281|388:281|486:301,1,119.999996337891,8|2,0:0|0:0,0:0:0:0:
495,219,20092,1,8,0:0:0:0:
495,219,20170,1,8,0:3:0:0:
281,319,20328,1,10,0:0:0:0:
282,330,20407,1,8,0:0:0:0:
284,341,20486,1,8,0:0:0:0:
123,157,20644,6,2,P|36:193|38:289,1,179.999994506836,4|0,1:0|3:0,0:1:0:0:
28,270,20960,2,0,L|92:255,1,59.9999981689454,2|0,0:3|3:0,0:0:0:0:
309,183,21118,1,8,0:0:0:0:
109,107,21276,2,0,L|179:130,1,59.9999981689454,2|0,0:3|3:0,0:0:0:0:
333,282,21434,1,2,0:0:0:0:
357,98,21592,1,2,0:3:0:0:
169,209,21749,1,8,0:0:0:0:
433,115,21907,6,2,P|419:45|316:25,1,179.999994506836,4|0,1:0|3:0,0:1:0:0:
323,21,22223,2,0,L|340:95,1,59.9999981689454,2|0,0:3|3:0,0:0:0:0:
388,287,22381,1,8,0:0:0:0:
470,116,22539,2,0,L|457:191,1,59.9999981689454,2|0,0:3|3:0,0:0:0:0:
310,348,22697,1,2,0:0:0:0:
358,161,22855,1,2,0:3:0:0:
476,292,23013,1,8,0:0:0:0:
215,261,23170,6,2,L|18:232,1,179.999994506836,4|0,1:0|3:0,0:1:0:0:
19,327,23486,2,0,L|96:311,1,59.9999981689454,2|0,0:3|3:0,0:0:0:0:
219,151,23644,1,8,0:0:0:0:
177,354,23802,2,0,L|152:289,1,59.9999981689454,2|0,0:3|3:0,0:0:0:0:
130,118,23960,1,2,0:0:0:0:
265,287,24118,1,2,0:3:0:0:
313,96,24276,1,8,0:0:0:0:
31,198,24434,6,0,L|241:215,1,179.999994506836,6|0,1:0|3:0,0:0:0:0:
359,156,24749,2,0,L|270:151,1,59.9999981689454,8|0,0:0|3:0,0:0:0:0:
226,290,24907,1,8,0:0:0:0:
326,21,25065,1,2,0:0:0:0:
326,21,25144,1,8,0:0:0:0:
326,21,25223,1,8,1:3:0:0:
165,83,25381,1,8,0:0:0:0:
302,241,25539,1,2,0:0:0:0:
380,94,25697,1,2,0:0:0:0:
174,201,25855,6,2,P|101:230|19:120,1,200,4|8,1:0|0:0,0:1:0:0:
337,313,26328,6,2,P|450:320|496:219,1,220.000006713867,6|2,0:0|0:0,0:1:0:0:
240,96,26802,6,2,L|-36:50,1,239.999992675781,12|2,0:0|0:3,0:1:0:0:
256,264,27276,6,2,B|428:230|428:230|465:269,1,225.000008583069,12|0,0:0|3:0,0:1:0:0:
457,347,27592,1,2,0:0:0:0:
471,349,27670,1,2,0:0:0:0:
485,351,27749,1,12,0:0:0:0:
147,294,27907,6,2,B|80:267|74:178|139:138|139:138|130:131|130:131|154:132|168:145,1,240,6|0,1:0|3:0,0:1:0:0:
243,154,28223,5,2,0:0:0:0:
240,169,28302,1,2,0:0:0:0:
237,184,28381,1,4,1:0:0:0:
192,362,28539,5,2,0:0:0:0:
312,237,28697,1,8,0:0:0:0:
334,318,28855,1,0,0:0:0:0:
138,45,29170,5,0,0:0:0:0:
61,90,29328,2,0,P|58:124|72:156,1,69.9999978637696,8|0,0:0|0:0,0:0:0:0:
198,199,29644,2,0,L|219:32,1,139.999995727539,0|8,0:0|0:0,0:0:0:0:
215,60,30118,2,0,L|234:142,1,69.9999978637696
265,255,30434,2,0,P|300:271|336:271,1,69.9999978637696,0|8,0:0|0:0,0:0:0:0:
420,254,30749,5,0,0:0:0:0:
457,171,30907,1,2,0:0:0:0:
331,142,31065,1,2,0:0:0:0:
310,28,31223,1,8,0:0:0:0:
463,12,31381,1,0,0:0:0:0:
463,12,31697,1,0,0:0:0:0:
356,37,31855,2,0,L|276:46,1,69.9999978637696,8|0,0:0|0:0,0:0:0:0:
209,93,32170,6,0,P|134:88|68:41,1,139.999995727539,0|8,0:0|0:0,0:0:0:0:
80,54,32644,2,0,L|98:137,1,69.9999978637696
146,184,32960,2,0,L|128:267,1,69.9999978637696,0|8,0:0|0:0,0:0:0:0:
60,311,33276,1,0,0:0:0:0:
225,230,33434,5,2,0:0:0:0:
321,246,33592,1,2,0:0:0:0:
351,341,33749,1,8,0:0:0:0:
379,172,33907,2,0,L|397:9,1,139.999995727539
485,30,34381,1,8,0:0:0:0:
395,13,34539,1,0,0:0:0:0:
471,231,34855,5,0,0:0:0:0:
382,246,35013,2,0,L|287:262,1,69.9999978637696,8|0,0:0|0:0,0:0:0:0:
243,316,35328,1,2,0:0:0:0:
243,316,35486,1,2,0:0:0:0:
211,230,35644,2,0,L|185:155,1,69.9999978637696,8|0,0:0|0:0,0:0:0:0:
200,73,35960,6,0,L|54:66,1,139.999995727539,2|8,0:0|0:0,0:0:0:0:
13,145,36434,2,0,L|100:149,1,69.9999978637696
200,73,36749,2,0,L|287:77,1,69.9999978637696,0|8,0:0|0:0,0:0:0:0:
394,188,37065,5,2,0:0:0:0:
428,189,37143,1,2,0:0:0:0:
463,191,37222,1,4,1:0:0:0:
53,229,38170,5,8,0:0:0:0:
54,234,38249,1,8,0:0:0:0:
55,239,38328,1,8,0:0:0:0:
56,244,38407,1,8,0:0:0:0:
57,249,38486,6,0,L|79:74,1,150,4|0,1:0|3:0,0:0:0:0:
45,17,38802,2,0,L|150:32,1,100,8|0,0:0|0:0,0:0:0:0:
314,60,39118,1,2,0:0:0:0:
242,190,39276,1,0,0:0:0:0:
227,99,39434,1,8,0:0:0:0:
334,233,39592,1,0,0:0:0:0:
423,86,39749,6,0,B|404:42|404:42|380:173,1,150,2|0,0:0|3:0,0:0:0:0:
362,223,40065,2,0,P|411:226|456:187,1,100,8|0,0:0|0:0,0:0:0:0:
306,153,40381,1,2,0:0:0:0:
232,203,40539,1,0,0:0:0:0:
155,49,40697,1,8,0:0:0:0:
15,80,40855,1,2,0:0:0:0:
15,80,40934,1,8,0:0:0:0:
15,80,41013,6,0,L|34:193,1,100,2|0,0:0|0:0,0:0:0:0:
201,241,41328,2,0,B|134:236|134:236|83:272|83:272|2:265,1,200,8|2,0:0|0:0,0:0:0:0:
156,323,41802,1,0,0:0:0:0:
266,194,41960,1,8,0:0:0:0:
100,158,42118,1,0,0:0:0:0:
263,284,42276,6,0,L|435:273,1,150,2|0,0:0|0:0,0:0:0:0:
462,304,42592,1,8,0:0:0:0:
486,153,42749,2,0,L|357:161,1,100,0|2,0:0|0:0,0:0:0:0:
224,67,43065,1,2,0:0:0:0:
221,52,43144,1,8,0:0:0:0:
218,37,43223,1,8,0:0:0:0:
263,228,43381,6,0,L|295:379,1,150,4|0,0:3|3:0,0:0:0:0:
294,374,43697,1,2,0:0:0:0:
454,276,43855,2,0,L|350:263,1,100,8|0,0:0|0:0,0:0:0:0:
145,238,44170,1,2,0:0:0:0:
86,318,44328,1,2,0:0:0:0:
174,371,44486,1,8,0:0:0:0:
206,155,44644,6,0,P|121:154|19:239,1,200,2|2,0:0|0:0,0:0:0:0:
30,218,45118,2,0,L|46:108,1,100,8|0,0:0|0:0,0:0:0:0:
184,12,45434,2,0,L|198:110,1,100,2|2,0:0|0:0,0:0:0:0:
229,300,45749,1,8,0:0:0:0:
130,164,45907,1,2,0:0:0:0:
130,164,45986,1,8,0:0:0:0:
130,164,46065,6,0,L|290:143,1,150,4|0,1:0|3:0,0:0:0:0:
292,150,46381,1,8,0:0:0:0:
381,29,46539,1,2,0:0:0:0:
428,155,46697,1,2,0:0:0:0:
497,80,46855,1,2,0:0:0:0:
381,29,47013,2,0,P|345:88|355:182,1,150,8|0,0:0|3:0,0:0:0:0:
353,180,47328,5,2,0:0:0:0:
480,217,47486,1,2,0:0:0:0:
300,305,47644,1,8,0:0:0:0:
397,326,47802,1,2,0:0:0:0:
412,330,47881,1,2,0:0:0:0:
427,333,47960,1,8,0:3:0:0:
256,180,48118,1,2,0:0:0:0:
221,352,48276,1,2,0:0:0:0:
300,305,48434,1,2,0:0:0:0:
167,192,48592,6,0,P|77:189|35:296,1,179.999994506836,4|8,1:0|0:0,0:0:0:0:
30,257,49065,2,0,L|215:298,1,179.999994506836,2|2,0:0|0:0,0:0:0:0:
345,150,49539,2,0,B|496:117,1,134.999995880127,8|0,0:0|3:0,0:0:0:0:
489,116,49855,5,10,0:0:0:0:
262,121,50013,2,0,L|243:33,1,89.9999972534181,8|0,0:3|0:0,0:0:0:0:
241,232,50328,1,8,0:3:0:0:
241,232,50644,1,8,0:0:0:0:
270,326,50802,1,2,0:0:0:0:
368,333,50960,1,2,0:0:0:0:
504,240,51118,6,0,P|481:177|345:178,1,179.999994506836,4|8,1:0|0:0,0:0:0:0:
379,153,51592,2,0,L|366:343,1,179.999994506836,2|2,0:0|0:0,0:0:0:0:
215,209,52065,2,0,L|202:40,1,134.999995880127,8|0,0:0|3:0,0:0:0:0:
202,40,52381,5,10,0:0:0:0:
137,26,52486,1,2,0:0:0:0:
86,69,52592,1,8,0:0:0:0:
80,135,52697,1,8,0:0:0:0:
117,189,52802,1,8,0:0:0:0:
182,202,52907,1,8,0:0:0:0:
241,176,53013,1,8,0:3:0:0:
230,172,53118,1,2,0:0:0:0:
218,176,53223,1,2,0:0:0:0:
214,187,53328,1,2,0:0:0:0:
219,197,53434,1,2,0:0:0:0:
230,199,53539,1,2,0:0:0:0:
239,191,53644,6,0,B|171:170|89:217|160:271|90:332|-13:298,1,269.999991760254,4|2,1:0|0:0,0:0:0:0:
21,305,54276,1,8,0:0:0:0:
66,54,54592,1,2,0:0:0:0:
155,78,54749,1,2,0:0:0:0:
346,46,54907,6,0,L|436:34,1,89.9999972534181,2|8,0:0|0:0,0:0:0:0:
326,122,55223,2,0,L|237:110,1,89.9999972534181,2|2,0:3|0:0,0:0:0:0:
164,204,55539,2,0,L|254:192,1,89.9999972534181,8|0,0:0|0:0,0:0:0:0:
362,274,55855,1,2,0:3:0:0:
362,274,56170,6,0,L|228:294,1,134.999995880127,4|0,1:0|3:0,0:0:0:0:
212,316,56486,1,2,0:0:0:0:
277,207,56644,1,2,0:0:0:0:
194,166,56802,2,0,L|83:149,1,89.9999972534181,8|0,0:0|0:0,0:0:0:0:
262,104,57118,2,0,L|350:90,1,89.9999972534181,2|2,0:0|0:0,0:0:0:0:
462,68,57434,5,2,0:3:0:0:
413,241,57592,1,8,0:0:0:0:
394,157,57749,1,2,0:3:0:0:
499,211,57907,2,0,L|483:322,1,89.9999972534181,2|8,0:0|0:0,0:0:0:0:
336,213,58223,6,2,P|261:232|245:338,1,174.999994659424,2|0,0:0|3:0,0:0:0:0:
237,319,58697,6,0,L|254:153,1,150,6|0,0:0|3:0,0:0:0:0:
296,100,59013,2,0,L|179:87,1,100,8|0,0:0|0:0,0:0:0:0:
46,32,59328,1,2,0:0:0:0:
119,153,59486,1,0,0:0:0:0:
195,10,59644,2,0,P|118:24|21:34,1,150,8|0,0:0|3:0,0:0:0:0:
46,32,59960,6,0,L|35:144,1,100,2|0,0:0|0:0,0:0:0:0:
222,193,60276,2,0,L|231:93,1,100,8|0,0:0|0:0,0:0:0:0:
46,245,60592,2,0,P|89:309|216:294,1,200,2|8,0:0|0:0,0:0:0:0:
457,211,61065,1,2,0:0:0:0:
457,211,61144,1,8,0:0:0:0:
457,211,61223,6,0,B|413:186|396:140|396:140|355:173|297:171,1,200,4|8,1:0|0:0,0:0:0:0:
350,333,61697,2,0,L|371:236,1,100,0|2,0:0|0:0,0:0:0:0:
201,123,62013,2,0,L|222:221,1,100,0|8,0:0|0:0,0:0:0:0:
250,331,62328,1,0,0:0:0:0:
440,128,62486,6,0,P|373:69|267:78,1,200,2|8,0:0|0:0,0:0:0:0:
45,160,62960,2,0,L|117:148,1,50,2|0,0:0|3:0,0:0:0:0:
169,138,63118,1,10,0:0:0:0:
178,88,63197,1,2,0:0:0:0:
157,42,63276,1,2,0:0:0:0:
109,26,63355,1,2,0:0:0:0:
60,39,63434,1,10,0:0:0:0:
37,83,63513,1,2,0:0:0:0:
42,132,63592,1,2,0:0:0:0:
74,169,63670,1,2,0:0:0:0:
123,175,63749,6,0,L|357:153,1,220.000006713867,4|2,1:3|0:0,0:0:0:0:
441,345,64223,5,12,0:0:0:0:
449,177,64381,1,2,0:0:0:0:
284,313,64539,1,2,0:0:0:0:
467,367,64697,2,0,L|481:246,1,110.000003356934,12|2,0:0|0:0,0:0:0:0:
503,40,65013,1,2,0:3:0:0:
359,203,65170,6,0,L|234:215,1,110.000003356934,12|2,0:0|0:0,0:0:0:0:
107,348,65486,1,2,0:0:0:0:
42,129,65644,6,0,L|172:141,1,110.000003356934,12|2,0:0|0:0,0:0:0:0:
307,336,65960,2,0,L|432:323,1,110.000003356934,12|2,0:0|0:0,0:0:0:0:
497,52,66276,6,0,B|464:-1|464:-1|435:186,1,220.000006713867,4|2,1:3|0:0,0:0:0:0:
286,338,66749,2,0,L|306:217,1,110.000003356934,12|2,0:0|0:0,0:0:0:0:
488,225,67065,1,2,0:0:0:0:
238,145,67223,6,0,L|215:28,1,110.000003356934,12|2,0:0|0:0,0:0:0:0:
374,151,67539,1,2,0:0:0:0:
138,206,67697,6,0,L|22:231,1,110.000003356934,12|2,0:0|0:0,0:0:0:0:
210,349,68013,1,2,0:0:0:0:
262,34,68170,5,12,0:0:0:0:
195,39,68275,1,2,0:0:0:0:
172,102,68380,1,2,0:0:0:0:
213,156,68486,1,10,0:0:0:0:
280,145,68591,1,10,0:0:0:0:
302,83,68696,1,2,0:0:0:0:
236,93,68802,1,4,1:0:0:0:
412,63,69118,6,2,L|438:59,1,20,2|0,0:3|3:0,0:0:0:0:
394,201,69434,2,2,L|374:204,1,20,2|0,0:3|3:0,0:0:0:0:
293,217,69749,1,2,0:3:0:0:
201,28,69907,5,2,0:3:0:0:
180,121,70223,2,2,L|176:147,1,20,2|0,0:3|3:0,0:0:0:0:
159,227,70539,2,2,L|155:253,1,20,2|0,0:3|3:0,0:0:0:0:
135,340,70855,1,2,0:0:0:0:
46,184,71013,5,2,0:0:0:0:
257,194,71170,1,2,3:2:0:0:
267,195,71249,1,2,3:2:0:0:
278,196,71328,1,2,0:3:0:0:
482,209,71644,6,2,L|451:214,1,29.9999990844727,2|0,0:3|3:0,0:0:0:0:
303,337,71960,2,2,L|332:332,1,29.9999990844727,2|0,0:3|3:0,0:0:0:0:
442,311,72276,1,2,0:0:0:0:
482,97,72434,5,2,0:0:0:0:
482,97,72907,5,2,0:0:0:0:
303,215,73223,1,2,0:0:0:0:
421,271,73381,6,2,L|477:278,1,44.999998626709,2|0,0:0|3:0,0:1:0:0:
485,205,73697,6,0,B|419:217|419:217|363:295|363:295|266:318,1,239.999992675781,4|2,1:3|0:0,0:0:0:0:
470,351,74170,1,8,0:0:0:0:
275,104,74328,2,0,P|245:150|265:221,1,110.000003356934,2|2,0:0|0:0,0:0:0:0:
383,343,74644,1,2,0:0:0:0:
355,165,74802,1,8,0:0:0:0:
178,306,74960,6,0,B|128:326|128:326|57:311,1,110.000003356934,2|0,0:0|0:0,0:0:0:0:
266,195,75276,1,2,0:0:0:0:
169,41,75434,2,0,P|95:29|35:98,1,165.000005035401,8|8,0:0|0:0,0:0:0:0:
27,170,75749,2,0,L|108:190,1,55.0000016784668,2|0,0:0|3:0,0:0:0:0:
319,295,75907,2,0,L|372:309,1,55.0000016784668,2|0,0:0|3:0,0:0:0:0:
266,195,76065,2,0,L|159:220,1,110.000003356934,8|0,0:0|3:0,0:0:0:0:
412,20,76381,6,0,P|468:48|465:158,1,165.000005035401,4|0,1:0|0:0,0:0:0:0:
401,101,76697,2,0,L|271:117,1,110.000003356934,8|2,0:0|0:0,0:0:0:0:
242,179,76934,1,2,0:0:0:0:
249,212,77013,1,2,0:0:0:0:
214,42,77170,1,2,0:0:0:0:
395,136,77328,1,8,0:0:0:0:
214,278,77486,6,0,L|42:264,1,165.000005035401,4|0,1:3|3:0,0:0:0:0:
49,264,77802,2,0,L|126:251,1,55.0000016784668,2|0,0:0|3:0,0:0:0:0:
466,110,77960,2,0,P|423:74|348:79,1,110.000003356934,12|0,0:0|0:0,0:0:0:0:
199,302,78276,2,0,P|254:297|304:240,1,110.000003356934,6|0,0:0|0:0,0:0:0:0:
148,115,78592,1,12,0:0:0:0:
100,126,78670,1,8,0:0:0:0:
54,106,78749,1,8,0:0:0:0:
32,61,78828,1,8,0:0:0:0:
36,11,78907,6,0,L|210:29,1,165.000005035401,4|0,1:0|3:0,0:0:0:0:
200,27,79223,2,0,L|212:99,1,55.0000016784668,8|0,0:0|3:0,0:0:0:0:
230,203,79381,1,2,0:3:0:0:
367,208,79539,2,0,L|377:143,1,55.0000016784668,2|0,0:0|3:0,0:0:0:0:
470,34,79697,1,2,0:3:0:0:
299,106,79855,2,0,L|291:40,1,55.0000016784668,8|0,0:0|3:0,0:0:0:0:
292,51,80013,6,0,L|431:63,1,110.000003356934,2|2,0:3|0:0,0:0:0:0:
481,50,80249,1,0,0:0:0:0:
495,46,80328,2,0,L|487:115,1,55.0000016784668,2|0,0:3|3:0,0:0:0:0:
457,266,80486,1,8,0:0:0:0:
322,196,80644,2,0,L|411:206,1,55.0000016784668,2|0,0:3|3:0,0:0:0:0:
489,288,80802,2,0,L|368:280,1,110.000003356934,2|2,0:0|0:3,0:0:0:0:
243,272,81039,1,0,0:0:0:0:
243,272,81118,6,0,L|228:195,1,55.0000016784668,8|0,0:0|3:0,0:0:0:0:
342,314,81276,2,0,L|352:367,1,55.0000016784668,2|0,0:3|3:0,0:0:0:0:
302,152,81434,2,0,L|276:26,1,110.000003356934,4|2,1:0|0:3,0:0:0:0:
400,37,81670,1,2,0:3:0:0:
400,37,81749,2,0,L|383:119,1,55.0000016784668,8|0,0:0|3:0,0:0:0:0:
361,231,81907,1,2,0:3:0:0:
140,186,82065,2,0,P|137:130|180:86,1,110.000003356934,2|0,0:0|3:0,0:0:0:0:
278,23,82302,1,0,0:0:0:0:
278,23,82381,2,0,L|190:31,1,55.0000016784668,8|0,0:0|3:0,0:0:0:0:
17,17,82539,2,0,L|105:25,1,55.0000016784668,2|0,0:3|3:0,0:0:0:0:
294,147,82697,6,0,B|204:133|250:202|121:184,1,165.000005035401,4|0,1:0|3:0,0:0:0:0:
30,151,83013,6,0,L|246:169,1,194.999991073609,4|0,1:3|3:0,0:0:0:0:
325,31,83328,2,0,L|317:111,1,55.0000016784668,12|0,0:0|3:0,0:0:0:0:
312,292,83486,1,12,0:0:0:0:
299,228,83564,1,8,0:0:0:0:
330,169,83643,1,8,0:0:0:0:
393,149,83722,1,8,0:0:0:0:
457,165,83802,2,0,L|524:187,1,55.0000016784668,8|2,0:0|0:0,0:0:0:0:
307,314,83960,6,0,L|115:354,1,179.999994506836,4|0,1:3|3:0,0:0:0:0:
130,350,84276,2,0,L|151:268,1,55.0000016784668,8|0,0:0|3:0,0:0:0:0:
48,132,84434,2,0,L|75:245,1,110.000003356934,2|2,0:0|0:0,0:0:0:0:
219,343,84749,1,2,0:0:0:0:
260,159,84907,1,8,0:0:0:0:
145,284,85065,6,0,P|99:318|36:315,1,110.000003356934,2|0,0:0|0:0,0:0:0:0:
78,86,85381,1,2,0:0:0:0:
222,192,85539,2,0,L|97:184,1,110.000003356934,8|0,0:0|3:0,0:0:0:0:
39,179,85776,1,8,0:0:0:0:
39,179,85855,2,0,L|49:102,1,55.0000016784668,2|0,0:0|3:0,0:0:0:0:
179,30,86013,2,0,L|171:84,1,55.0000016784668,2|0,0:0|3:0,0:0:0:0:
173,268,86170,2,0,P|225:282|292:246,1,110.000003356934,8|0,0:0|0:0,0:0:0:0:
485,91,86486,6,0,L|305:62,1,165.000005035401,4|0,1:0|3:0,0:0:0:0:
294,23,86802,2,0,L|323:151,1,110.000003356934,8|2,0:0|0:0,0:0:0:0:
338,211,87039,1,2,0:0:0:0:
386,220,87118,1,2,0:0:0:0:
209,182,87276,2,0,L|88:162,1,110.000003356934,2|8,0:0|0:0,0:0:0:0:
334,346,87592,6,0,P|415:352|474:256,1,165.000005035401,4|0,1:3|3:0,0:0:0:0:
469,295,87907,2,0,L|388:278,1,55.0000016784668,2|0,0:0|3:0,0:0:0:0:
197,136,88065,2,0,L|318:116,1,110.000003356934,8|0,0:0|0:0,0:0:0:0:
216,342,88381,2,0,L|134:324,1,55.0000016784668,14|0,0:0|3:0,0:0:0:0:
47,305,88539,1,8,0:0:0:0:
17,265,88618,1,8,0:0:0:0:
13,215,88697,1,12,0:0:0:0:
31,169,88776,1,8,0:0:0:0:
76,149,88855,2,0,L|146:171,1,55.0000016784668,8|8,0:0|0:0,0:0:0:0:
297,301,89013,6,0,L|472:272,1,165.000005035401,4|0,1:0|3:0,0:0:0:0:
459,274,89328,2,0,L|470:206,1,55.0000016784668,8|0,0:0|3:0,0:0:0:0:
483,96,89486,1,2,0:3:0:0:
282,151,89644,2,0,L|360:141,1,55.0000016784668,2|0,0:0|3:0,0:0:0:0:
497,14,89802,1,2,0:3:0:0:
391,102,89960,2,0,L|372:237,1,110.000003356934,12|2,0:0|0:3,0:0:0:0:
381,300,90197,1,8,0:0:0:0:
386,318,90276,6,0,L|215:286,1,165.000005035401,4|0,1:0|3:0,0:0:0:0:
223,287,90592,2,0,L|213:221,1,55.0000016784668,8|0,0:0|3:0,0:0:0:0:
199,127,90749,1,2,0:3:0:0:
12,183,90907,2,0,L|75:195,1,55.0000016784668,2|0,0:0|3:0,0:0:0:0:
136,271,91065,1,2,0:3:0:0:
117,125,91223,2,0,L|100:17,1,110.000003356934,12|2,0:0|0:3,0:0:0:0:
21,19,91460,1,8,0:0:0:0:
11,8,91539,6,0,L|191:27,1,165.000005035401,4|0,1:0|3:0,0:0:0:0:
265,18,91855,2,0,L|255:91,1,55.0000016784668,8|0,0:0|0:3,0:0:0:0:
236,200,92013,1,2,0:3:0:0:
126,142,92170,2,0,L|199:134,1,55.0000016784668,2|0,0:0|3:0,0:0:0:0:
363,111,92328,1,2,0:3:0:0:
225,240,92486,2,0,L|343:225,1,110.000003356934,8|2,0:0|0:3,0:0:0:0:
459,181,92723,1,8,0:0:0:0:
459,181,92802,6,0,L|470:116,1,55.0000016784668,4|0,1:0|3:0,0:0:0:0:
464,269,92960,2,0,L|454:323,1,55.0000016784668,0|0,0:0|3:0,0:0:0:0:
363,111,93118,2,0,L|344:2,1,110.000003356934,12|2,0:0|0:3,0:0:0:0:
236,200,93434,1,8,0:3:0:0:
169,215,93512,1,2,0:0:0:0:
105,194,93591,1,8,0:0:0:0:
61,143,93670,1,8,0:0:0:0:
53,76,93749,1,8,0:0:0:0:
260,293,93907,6,0,L|506:307,1,220.000006713867,4|2,1:3|0:0,0:0:0:0:
268,96,94381,2,0,L|388:103,1,110.000003356934,12|2,0:0|0:0,0:0:0:0:
174,223,94697,5,8,0:0:0:0:
338,161,94855,1,2,0:0:0:0:
134,138,95013,5,8,0:0:0:0:
378,246,95170,1,2,0:0:0:0:
130,251,95328,5,8,0:0:0:0:
382,133,95486,1,2,0:0:0:0:
111,106,95644,5,8,0:0:0:0:
401,278,95802,1,2,0:0:0:0:
71,268,95960,5,8,0:0:0:0:
441,116,96118,1,2,0:0:0:0:
69,138,96276,5,8,0:0:0:0:
443,246,96434,6,0,L|465:20,1,209.999993591309,4|0,1:0|3:0,0:0:0:0:
483,15,96749,1,2,0:0:0:0:
249,244,96907,5,8,0:0:0:0:
350,43,97065,1,2,0:0:0:0:
385,248,97223,5,8,0:0:0:0:
213,42,97381,1,2,0:0:0:0:
249,244,97539,5,8,0:0:0:0:
350,43,97697,1,2,0:0:0:0:
154,245,97855,5,8,0:0:0:0:
104,34,98013,1,2,0:0:0:0:
249,244,98170,5,8,0:0:0:0:
334,34,98328,1,10,0:0:0:0:
334,34,98407,1,0,0:0:0:0:
334,34,98486,1,8,0:3:0:0:
129,157,98644,1,2,0:0:0:0:
314,292,98802,1,4,0:3:0:0:
236,137,98960,6,2,L|82:128,1,150,4|0,1:0|3:0,0:2:0:0:
313,141,100223,5,8,0:0:0:0:
109,345,101013,6,2,L|110:332,1,12.5,2|0,0:1|3:0,0:1:0:0:
161,204,101170,6,2,L|160:217,1,12.5,2|0,0:1|3:0,0:1:0:0:
194,359,101328,6,2,L|195:346,1,12.5,2|0,0:1|3:0,0:1:0:0:
240,159,101486,6,0,B|397:136|397:136|430:178,1,194.999991073609,4|0,1:3|3:0,0:0:0:0:
463,234,101802,1,2,0:0:0:0:
279,31,101960,1,8,0:0:0:0:
344,241,102118,1,2,0:0:0:0:
392,46,102276,1,2,0:0:0:0:
272,184,102434,1,2,0:0:0:0:
438,257,102592,1,8,0:0:0:0:
482,59,102749,1,2,0:0:0:0:
238,100,102907,5,2,0:0:0:0:
416,151,103065,1,2,0:0:0:0:
254,14,103223,1,8,0:0:0:0:
360,218,103381,1,2,0:0:0:0:
199,110,103539,1,2,0:0:0:0:
365,96,103697,1,2,0:0:0:0:
290,262,103855,1,8,0:0:0:0:
244,65,104013,6,0,L|51:50,1,179.999994506836,4|0,1:0|3:0,0:0:0:0:
64,51,104328,2,0,L|80:119,1,59.9999981689454,2|0,0:0|3:0,0:0:0:0:
130,291,104486,1,8,0:0:0:0:
184,141,104644,1,2,0:0:0:0:
28,222,104802,1,2,0:0:0:0:
237,273,104960,1,2,0:0:0:0:
36,315,105118,1,8,0:0:0:0:
261,181,105276,1,2,0:0:0:0:
65,125,105434,5,2,0:0:0:0:
165,346,105592,1,2,0:0:0:0:
272,93,105749,2,0,L|186:108,1,59.9999981689454,12|0,0:0|3:0,0:0:0:0:
56,285,105907,1,2,0:0:0:0:
130,70,106065,1,12,0:0:0:0:
251,297,106223,1,2,0:0:0:0:
251,297,106302,1,8,0:0:0:0:
251,297,106381,1,8,0:0:0:0:
296,60,106539,6,2,B|483:35,1,179.999994506836,4|0,1:0|3:0,0:1:0:0:
474,36,106855,2,0,L|460:111,1,59.9999981689454,2|0,0:3|3:0,0:0:0:0:
332,294,107013,1,8,0:0:0:0:
286,86,107170,2,0,L|301:156,1,59.9999981689454,2|0,0:3|3:0,0:0:0:0:
407,360,107328,1,2,0:0:0:0:
363,202,107486,1,2,0:3:0:0:
235,321,107644,1,8,0:0:0:0:
215,107,107802,6,2,P|171:38|65:44,1,179.999994506836,4|0,1:0|3:0,0:1:0:0:
79,34,108118,2,0,L|97:103,1,59.9999981689454,2|0,0:3|3:0,0:0:0:0:
141,272,108276,1,8,0:0:0:0:
232,99,108434,2,0,L|211:183,1,59.9999981689454,2|0,0:3|3:0,0:0:0:0:
175,363,108592,1,2,0:0:0:0:
144,148,108749,1,2,0:3:0:0:
9,298,108907,1,8,0:0:0:0:
255,177,109065,6,2,L|297:0,1,179.999994506836,4|0,1:0|3:0,0:1:0:0:
296,1,109381,2,0,L|316:73,1,59.9999981689454,2|0,0:3|3:0,0:0:0:0:
368,253,109539,1,8,0:0:0:0:
441,73,109697,2,0,L|412:150,1,59.9999981689454,2|0,0:3|3:0,0:0:0:0:
397,346,109855,1,2,0:0:0:0:
286,179,110013,1,2,0:3:0:0:
483,186,110170,1,8,0:0:0:0:
243,330,110328,6,0,P|161:334|100:257,1,179.999994506836,6|0,1:0|3:0,0:0:0:0:
65,176,110644,2,0,L|166:187,1,59.9999981689454,8|0,0:0|3:0,0:0:0:0:
335,98,110802,2,0,L|275:91,1,59.9999981689454,8|0,0:0|3:0,0:0:0:0:
81,68,110960,1,4,1:2:0:0:
224,213,111118,1,8,1:3:0:0:
390,32,111276,1,8,0:0:0:0:
401,30,111355,1,8,0:0:0:0:
412,28,111434,1,8,0:0:0:0:
227,128,111592,6,0,L|32:161,1,179.999994506836,4|0,1:3|3:0,0:0:0:0:
25,55,111907,2,0,L|108:71,1,59.9999981689454,2|0,0:0|3:0,0:0:0:0:
282,211,112065,1,8,0:0:0:0:
185,24,112223,1,2,0:0:0:0:
121,194,112381,1,2,0:0:0:0:
237,188,112539,1,2,0:0:0:0:
124,94,112697,1,8,0:0:0:0:
175,271,112855,1,2,0:0:0:0:
312,102,113013,5,2,0:0:0:0:
177,186,113170,1,2,0:0:0:0:
303,313,113328,1,8,0:0:0:0:
383,156,113486,1,2,0:0:0:0:
216,275,113644,1,2,0:0:0:0:
298,170,113802,1,2,0:0:0:0:
386,358,113960,1,8,0:0:0:0:
461,137,114118,6,0,P|446:45|361:24,1,179.999994506836,4|0,1:0|3:0,0:0:0:0:
372,21,114434,2,0,L|363:112,1,59.9999981689454,2|0,0:0|3:0,0:0:0:0:
340,280,114592,1,8,0:0:0:0:
458,165,114749,1,2,0:0:0:0:
282,80,114907,1,2,0:0:0:0:
246,258,115065,1,2,0:0:0:0:
378,137,115223,1,8,0:0:0:0:
190,67,115381,1,2,0:0:0:0:
190,270,115539,5,2,0:0:0:0:
283,113,115697,1,2,0:0:0:0:
288,308,115855,1,8,0:0:0:0:
196,97,116013,1,2,0:0:0:0:
117,305,116170,1,8,1:3:0:0:
318,204,116328,1,2,0:0:0:0:
318,204,116407,1,8,0:0:0:0:
318,204,116486,1,0,0:0:0:0:
87,199,116644,6,2,L|42:11,1,179.999994506836,4|0,1:0|3:0,0:1:0:0:
45,23,116960,2,0,L|126:46,1,59.9999981689454,2|0,0:3|3:0,0:0:0:0:
294,153,117118,1,8,0:0:0:0:
106,193,117276,2,0,L|186:176,1,59.9999981689454,2|0,0:3|3:0,0:0:0:0:
330,35,117434,1,2,0:0:0:0:
135,44,117592,1,2,0:3:0:0:
220,253,117749,1,8,0:0:0:0:
330,35,117907,6,2,P|424:24|481:97,1,179.999994506836,4|0,1:0|3:0,0:1:0:0:
477,81,118223,2,0,L|406:106,1,59.9999981689454,2|0,0:3|3:0,0:0:0:0:
317,250,118381,1,8,0:0:0:0:
214,81,118539,2,0,L|291:100,1,59.9999981689454,2|0,0:3|3:0,0:0:0:0:
404,266,118697,1,2,0:0:0:0:
420,101,118855,1,2,0:3:0:0:
240,179,119013,1,8,0:0:0:0:
385,350,119170,6,2,P|456:329|476:227,1,179.999994506836,4|0,1:0|3:0,0:1:0:0:
479,234,119486,2,0,L|394:253,1,59.9999981689454,2|0,0:3|3:0,0:0:0:0:
261,340,119644,1,8,0:0:0:0:
328,116,119802,2,0,L|307:191,1,59.9999981689454,2|0,0:3|3:0,0:0:0:0:
367,357,119960,1,2,0:0:0:0:
218,204,120118,1,2,0:3:0:0:
412,113,120276,1,8,0:0:0:0:
256,281,120434,6,0,L|76:255,1,179.999994506836,6|0,1:0|3:0,0:0:0:0:
30,351,120749,2,0,L|128:329,1,59.9999981689454,8|0,0:0|3:0,0:0:0:0:
294,185,120907,2,0,L|235:198,1,59.9999981689454,8|0,0:0|3:0,0:0:0:0:
180,347,121065,1,2,0:0:0:0:
180,347,121144,1,8,0:0:0:0:
180,347,121223,1,8,1:3:0:0:
15,232,121381,1,8,0:0:0:0:
192,118,121539,1,2,0:0:0:0:
144,237,121697,1,2,0:0:0:0:
31,82,121855,6,2,P|116:24|234:39,1,200,4|8,1:0|0:0,0:1:0:0:
267,274,122328,6,2,P|352:332|478:315,1,220.000006713867,6|2,0:0|0:0,0:1:0:0:
229,120,122802,6,2,B|95:102|148:198|-2:171,1,239.999992675781,12|2,0:0|0:0,0:1:0:0:
395,19,123276,6,2,L|368:255,1,225.000008583069,12|0,0:0|3:0,0:1:0:0:
358,317,123592,1,2,0:0:0:0:
355,331,123670,1,2,0:0:0:0:
353,345,123749,1,12,0:0:0:0:
236,86,123907,6,2,B|205:-2|95:-1|28:60|28:60|23:45|23:45|14:76|34:117,1,320,6|0,1:0|3:0,0:1:0:0:
87,240,124381,5,2,0:0:0:0:
94,225,124539,1,0,0:0:0:0:
193,235,124697,1,2,0:0:0:0:
195,218,124855,1,0,0:0:0:0:
294,193,125013,1,2,0:0:0:0:
291,176,125171,1,0,0:0:0:0:
157,31,125328,5,2,0:0:0:0:
147,53,125486,1,0,0:0:0:0:
285,133,125644,1,2,0:0:0:0:
281,156,125802,1,0,0:0:0:0:
477,166,125960,1,2,0:0:0:0:
479,189,126118,1,0,0:0:0:0:
233,258,126276,5,2,0:0:0:0:
315,238,126434,1,2,0:0:0:0:
145,133,126592,5,2,0:0:0:0:
227,153,126749,2,2,L|195:158,1,29.9999990844727,2|0,0:0|3:0,0:0:0:0:
