osu file format v14

[General]
AudioFilename: audio.mp3
AudioLeadIn: 0
PreviewTime: 224578
Countdown: 0
SampleSet: Soft
StackLeniency: 0.4
Mode: 0
LetterboxInBreaks: 0
WidescreenStoryboard: 0

[Editor]
DistanceSpacing: 0.3
BeatDivisor: 4
GridSize: 16
TimelineZoom: 1.8

[Metadata]
Title:Determination Symphony
TitleUnicode:Determination Symphony
Artist:Roselia
ArtistUnicode:Roselia
Creator:KeyWee
Version:The Relentless Determination that Resonates Within Your Destiny
Source:バンドリ! ガールズバンドパーティ!
Tags:Shirahane Suou Mocaotic Livermorium BanG Dream! Girls Band Party bandori バンドリ japanese rock j-rock jrock video game anime garupa ガルパ ロゼリア full size minato yukina 湊友希那 aiba aina 相羽あいな hikawa sayo 氷川紗夜 kudou haruka 工藤晴香 imai lisa 今井リサ endou yurika 遠藤ゆりか udagawa ako 宇田川あこ sakuragawa megu 櫻川めぐ shirokane rinko 白金燐子 akesaka satomi 明坂聡美 season 2 episode 9 Wahl version insert song
BeatmapID:3591999
BeatmapSetID:1755255

[Difficulty]
HPDrainRate:5.5
CircleSize:4
OverallDifficulty:9
ApproachRate:9.5
SliderMultiplier:1.8
SliderTickRate:1

[Events]
//Background and Video events
0,0,"Ako Drums.jpg",0,0
//Break Periods
//Storyboard Layer 0 (Background)
//Storyboard Layer 1 (Fail)
//Storyboard Layer 2 (Pass)
//Storyboard Layer 3 (Foreground)
//Storyboard Layer 4 (Overlay)
//Storyboard Sound Samples

[TimingPoints]
723,315.789473684211,4,2,1,40,1,0
723,-100,4,2,1,40,0,0
1670,-100,4,2,1,50,0,0
3249,-100,4,2,1,60,0,0
4196,-100,4,2,1,70,0,0
4986,-100,4,2,1,5,0,0
5144,-100,4,2,1,52,0,0
5617,-76.9230769230769,4,2,80,80,0,0
5933,-76.9230769230769,4,2,1,80,0,0
25986,-71.4285714285714,4,2,1,80,0,0
28512,-100,4,2,1,55,0,0
37354,-100,4,2,80,55,0,0
37512,-100,4,2,1,40,0,0
38301,-100,4,2,1,50,0,0
38617,-100,4,2,1,60,0,0
48723,-90.9090909090909,4,2,1,60,0,0
50459,-200,4,2,1,70,0,0
50617,-90.9090909090909,4,2,1,70,0,0
53775,-125,4,2,1,50,0,0
58354,-83.3333333333333,4,2,80,70,0,0
58828,-100,4,2,1,58,0,0
63880,-90.9090909090909,4,2,1,70,0,0
68933,-90.9090909090909,4,2,1,50,0,0
71459,-90.9090909090909,4,2,90,50,0,0
71775,-90.9090909090909,4,2,1,50,0,0
73828,-76.9230769230769,4,2,80,85,0,1
74144,-76.9230769230769,4,2,1,85,0,1
79038,-90.9090909090909,4,2,1,85,0,1
83144,-76.9230769230769,4,2,1,85,0,1
84091,-76.9230769230769,4,2,1,85,0,1
89144,-90.9090909090909,4,2,1,85,0,1
93249,-76.9230769230769,4,2,1,85,0,1
94038,-76.9230769230769,4,2,1,85,0,1
98301,-76.9230769230769,4,2,1,85,0,1
99091,-100,4,2,1,85,0,1
100354,-76.9230769230769,4,2,1,70,0,0
101775,-71.4285714285714,4,2,1,70,0,1
104301,-90.9090909090909,4,2,1,70,0,0
104459,-90.9090909090909,4,2,80,55,0,0
109354,-90.9090909090909,4,2,1,55,0,0
109512,-90.9090909090909,4,2,80,55,0,0
113144,-90.9090909090909,4,2,1,55,0,0
114407,-100,4,2,1,60,0,0
124512,-100,4,2,1,35,0,0
129565,-125,4,2,1,48,0,0
134617,-100,4,2,1,58,0,0
137144,-100,4,2,1,68,0,0
137459,-100,4,2,80,68,0,0
138249,-100,4,2,1,68,0,0
138723,-100,4,2,1,58,0,0
139512,-76.9230769230769,4,2,80,85,0,1
139828,-76.9230769230769,4,2,1,85,0,1
144723,-90.9090909090909,4,2,1,85,0,1
149775,-76.9230769230769,4,2,1,85,0,1
154828,-90.9090909090909,4,2,1,85,0,1
159723,-76.9230769230769,4,2,1,85,0,1
163986,-76.9230769230769,4,2,1,85,0,1
164775,-90.9090909090909,4,2,1,85,0,1
166038,-76.9230769230769,4,2,1,70,0,0
167459,-76.9230769230769,4,2,1,60,0,0
172512,-125,4,2,1,60,0,0
177565,-111.111111111111,4,2,1,60,0,0
182617,-90.9090909090909,4,2,1,60,0,0
183565,-90.9090909090909,4,2,80,60,0,0
185144,-90.9090909090909,4,2,1,60,0,0
185617,-90.9090909090909,4,2,80,60,0,0
186407,-90.9090909090909,4,2,1,60,0,0
187670,-83.3333333333333,4,2,1,70,0,1
195249,-83.3333333333333,4,2,1,45,0,1
195723,-83.3333333333333,4,2,1,52,0,1
196196,-83.3333333333333,4,2,1,58,0,1
196670,-83.3333333333333,4,2,1,64,0,1
197144,-83.3333333333333,4,2,1,70,0,1
197775,-83.3333333333333,4,2,1,55,0,1
198249,-83.3333333333333,4,2,1,60,0,1
198723,-83.3333333333333,4,2,1,65,0,1
199196,-83.3333333333333,4,2,1,70,0,1
199670,-83.3333333333333,4,2,1,75,0,1
199986,-66.6666666666667,4,2,1,80,0,0
200301,-100,4,2,1,70,0,0
205670,-100,4,2,80,70,0,0
209459,-100,4,2,1,70,0,0
210407,-100,4,2,1,60,0,0
215459,-100,4,2,1,35,0,0
219880,-200,4,2,1,40,0,0
220433,-200,4,2,1,5,0,0
220512,-100,4,2,1,45,0,0
225407,-111.111111111111,4,2,1,70,0,1
225565,-111.111111111111,4,2,1,70,0,0
228091,-111.111111111111,4,2,1,70,0,1
228249,-111.111111111111,4,2,1,70,0,0
229986,-200,4,2,1,70,0,0
230617,-90.9090909090909,4,2,1,70,0,1
235038,-90.9090909090909,4,2,1,70,0,0
235591,-90.9090909090909,4,2,1,5,0,0
235670,-76.9230769230769,4,2,1,90,0,1
240723,-90.9090909090909,4,2,1,90,0,1
245617,-76.9230769230769,4,2,1,90,0,1
249880,-76.9230769230769,4,2,1,90,0,1
250670,-90.9090909090909,4,2,1,90,0,1
251933,-76.9230769230769,4,2,1,70,0,0
253196,-76.9230769230769,4,2,80,80,0,1
253512,-76.9230769230769,4,2,1,80,0,0
273565,-71.4285714285714,4,2,1,80,0,1
275144,-71.4285714285714,4,2,80,80,0,1
275301,-71.4285714285714,4,2,1,80,0,1
276091,-76.9230769230769,4,2,1,70,0,0
278617,-76.9230769230769,4,2,1,5,0,0

[Colours]
Combo1 : 239,88,92
Combo2 : 137,36,227
Combo3 : 168,109,220
Combo4 : 214,27,27

[HitObjects]
256,192,723,12,0,4986,0:0:0:0:
315,210,5144,5,2,0:0:0:0:
238,140,5301,1,2,0:0:0:0:
219,240,5459,1,2,0:0:0:0:
430,35,5617,6,0,B|473:32|503:74|503:74|493:128|403:145|358:90,1,233.999989288331,4|0,3:1|3:0,0:0:0:0:
170,13,6091,2,0,B|243:21|243:21|270:11|270:11|346:21,1,175.499991966248,8|0,0:2|0:2,0:0:0:0:
430,35,6407,5,0,3:2:0:0:
315,210,6565,1,0,3:2:0:0:
381,110,6723,1,8,0:2:0:0:
503,355,6880,6,0,P|454:307|320:341,1,175.499991966248,0|0,3:2|0:2,0:0:0:0:
275,355,7196,1,0,3:2:0:0:
88,211,7354,2,0,P|137:259|271:225,1,175.499991966248,8|0,0:2|0:2,0:0:0:0:
315,210,7670,69,0,3:2:0:0:
86,50,7828,1,0,3:2:0:0:
181,164,7986,1,8,0:2:0:0:
479,4,8144,6,0,B|464:66|464:66|475:104|475:104|452:207,1,175.499991966248,6|0,3:2|0:2,0:0:0:0:
435,258,8459,5,2,3:2:0:0:
337,69,8617,1,10,0:2:0:0:
440,267,8775,1,2,0:2:0:0:
181,164,8933,5,2,3:2:0:0:
279,351,9091,1,2,3:2:0:0:
315,210,9249,1,10,0:2:0:0:
71,363,9407,6,0,P|104:293|64:169,1,175.499991966248,2|0,3:2|0:2,0:0:0:0:
29,131,9723,1,0,3:2:0:0:
197,0,9880,2,0,P|164:70|204:194,1,175.499991966248,8|0,0:2|0:2,0:0:0:0:
234,234,10196,1,0,3:2:0:0:
511,35,10354,5,8,0:2:0:0:
483,8,10432,1,8,0:2:0:0:
446,0,10511,1,8,0:2:0:0:
411,13,10590,1,8,0:2:0:0:
388,44,10670,6,0,B|358:97|395:144|395:144|384:145|384:145|431:194|396:266,1,233.999989288331,6|2,3:2|3:2,0:0:0:0:
163,86,11144,5,10,0:2:0:0:
315,210,11301,1,0,0:2:0:0:
34,358,11459,69,2,3:2:0:0:
144,247,11617,1,0,0:2:0:0:
0,212,11775,1,10,0:2:0:0:
183,377,11933,6,0,B|269:353|269:353|302:361|302:361|396:333,1,175.499991966248,2|0,0:2|0:2,0:0:0:0:
425,321,12249,2,0,L|494:300,1,58.4999973220826,2|0,0:2|0:2,0:0:0:0:
482,158,12407,2,0,L|315:210,1,175.499991966248,10|0,0:2|0:2,0:0:0:0:
233,238,12723,5,2,3:2:0:0:
425,321,12880,1,2,3:2:0:0:
275,112,13038,1,10,0:2:0:0:
22,249,13196,6,0,B|-4:282|-3:351|47:375|47:375|105:351|74:272,1,233.999989288331,6|0,3:1|3:2,0:0:0:0:
275,112,13670,69,10,0:2:0:0:
152,235,13828,1,0,0:2:0:0:
92,67,13986,5,2,3:2:0:0:
241,234,14144,1,2,0:2:0:0:
83,58,14301,1,10,0:2:0:0:
341,31,14459,6,0,B|495:16|495:16|446:25|420:90,1,233.999989288331,2|2,0:2|0:2,0:0:0:0:
241,234,14933,5,14,0:2:0:0:
477,177,15091,1,2,3:2:0:0:
399,373,15249,69,0,3:2:0:0:
405,363,15328,1,0,3:2:0:0:
412,353,15407,2,0,L|397:272,1,58.4999973220826,8|8,3:2|3:2,0:0:0:0:
370,130,15565,1,8,3:2:0:0:
135,338,15723,6,0,P|52:337|131:269,1,233.999989288331,4|0,3:2|0:2,0:0:0:0:
401,295,16196,2,0,B|332:303|332:303|309:323|309:323|203:333,1,175.499991966248,8|0,0:2|0:2,0:0:0:0:
135,338,16512,5,0,3:2:0:0:
241,234,16670,1,0,3:2:0:0:
0,156,16828,1,8,0:2:0:0:
185,37,16986,6,0,B|246:12|246:12|299:36|299:36|250:64|250:64|186:38,1,233.999989288331,0|0,3:2|3:2,0:0:0:0:
0,0,17459,69,8,0:2:0:0:
141,150,17617,1,0,0:2:0:0:
28,260,17775,5,0,3:2:0:0:
152,139,17933,1,0,3:2:0:0:
299,294,18091,1,8,0:2:0:0:
453,52,18249,6,0,P|397:124|431:241,1,175.499991966248,6|0,3:2|0:2,0:0:0:0:
449,273,18565,5,2,3:2:0:0:
220,211,18723,1,10,0:2:0:0:
363,118,18880,1,2,0:2:0:0:
312,384,19038,69,2,3:2:0:0:
449,273,19196,1,2,3:2:0:0:
248,105,19354,1,10,0:2:0:0:
97,323,19512,6,0,B|172:308|172:308|202:315|202:315|311:291,1,175.499991966248,0|0,3:2|0:2,0:0:0:0:
349,281,19828,1,0,3:2:0:0:
131,161,19986,1,12,0:1:0:0:
248,105,20144,1,0,0:2:0:0:
7,46,20301,5,0,3:2:0:0:
13,35,20380,1,0,3:2:0:0:
19,25,20459,2,0,L|34:90,1,58.4999973220826,8|8,3:2|3:2,0:0:0:0:
77,237,20617,1,8,3:2:0:0:
345,88,20775,6,0,P|287:20|154:74,1,233.999989288331,6|2,3:2|3:2,0:0:0:0:
77,237,21249,69,10,0:2:0:0:
248,105,21407,1,0,0:2:0:0:
334,322,21565,5,2,3:2:0:0:
221,235,21723,1,0,0:2:0:0:
347,331,21880,1,10,0:2:0:0:
478,56,22038,6,0,B|468:125|468:125|478:152|478:152|468:231,1,175.499991966248,2|0,0:2|0:2,0:0:0:0:
458,310,22354,2,0,L|449:379,1,58.4999973220826,2|0,0:2|0:2,0:0:0:0:
221,235,22512,2,0,P|256:196|397:209,1,175.499991966248,10|0,0:2|0:2,0:0:0:0:
469,228,22828,5,2,3:2:0:0:
242,105,22986,1,2,3:2:0:0:
318,275,23144,1,10,0:2:0:0:
69,384,23301,70,0,B|95:317|37:277|37:277|-2:204|79:137,1,233.999989288331,6|0,3:2|3:2,0:0:0:0:
242,105,23775,5,10,0:2:0:0:
125,231,23933,1,0,0:2:0:0:
31,65,24091,5,2,3:2:0:0:
221,235,24249,1,2,0:2:0:0:
20,56,24407,1,10,0:2:0:0:
311,33,24565,6,0,B|385:59|423:13|423:13|368:-14|310:33,1,233.999989288331,2|2,0:2|3:2,0:0:0:0:
125,231,25038,1,10,0:2:0:0:
338,373,25196,69,8,0:3:0:0:
338,373,25275,1,8,0:3:0:0:
338,373,25354,5,8,0:2:0:0:
221,235,25512,1,4,3:3:0:0:
93,326,25670,1,2,3:3:0:0:
194,331,25828,1,0,3:2:0:0:
414,44,25986,6,0,B|301:59|301:59|272:83|272:83|131:99,1,251.999992309571,6|8,3:1|0:2,0:0:0:0:
325,263,26459,6,0,B|358:302|430:317|468:256|468:256|426:200|342:225,1,251.999992309571,6|0,3:2|3:2,0:0:0:0:
0,156,26933,70,0,B|39:227|13:302|13:302|33:245|106:241,1,251.999992309571,14|0,0:1|3:2,0:0:0:0:
414,44,27407,6,0,L|270:64,1,125.999996154785,10|0,0:2|0:2,0:0:0:0:
198,328,27723,5,0,3:2:0:0:
189,319,27801,1,0,3:2:0:0:
182,312,27880,2,0,L|267:301,1,62.9999980773926,10|0,0:2|0:2,0:0:0:0:
414,44,28038,6,0,B|460:107|414:176|414:176|426:170|426:170|368:246|450:333,1,314.999990386963,6|0,3:2|0:2,0:0:0:0:
456,338,28512,69,6,3:2:0:0:
419,174,28670,1,2,3:2:0:0:
252,205,28828,1,10,0:2:0:0:
289,369,28986,1,2,0:2:0:0:
289,369,29459,5,10,0:2:0:0:
252,205,29617,1,2,0:2:0:0:
419,174,29775,1,2,0:2:0:0:
456,338,29933,1,2,0:2:0:0:
352,272,30091,5,8,0:2:0:0:
352,272,30407,1,2,0:2:0:0:
326,143,30565,1,2,0:2:0:0:
300,14,30723,1,10,0:2:0:0:
300,14,31038,5,2,3:2:0:0:
326,143,31196,1,2,3:2:0:0:
182,169,31354,1,10,0:2:0:0:
156,40,31512,1,2,0:2:0:0:
156,40,31986,69,10,0:2:0:0:
182,169,32144,1,2,0:2:0:0:
326,143,32302,1,2,0:2:0:0:
300,14,32460,1,2,0:2:0:0:
241,90,32617,5,8,0:2:0:0:
241,90,32933,1,2,0:2:0:0:
117,115,33091,1,2,0:2:0:0:
0,141,33249,1,10,0:2:0:0:
0,141,33565,5,6,3:2:0:0:
111,226,33723,1,2,3:2:0:0:
0,262,33880,1,10,0:2:0:0:
117,115,34038,1,2,0:2:0:0:
117,115,34512,5,10,0:2:0:0:
0,262,34670,1,2,0:2:0:0:
111,226,34827,1,2,0:2:0:0:
0,141,34985,1,2,0:2:0:0:
121,233,35144,69,8,0:2:0:0:
121,233,35459,1,2,0:2:0:0:
235,196,35617,1,2,0:2:0:0:
355,155,35775,1,10,0:2:0:0:
355,155,36091,5,2,3:2:0:0:
260,97,36249,1,2,3:2:0:0:
329,256,36407,1,10,0:2:0:0:
235,196,36565,1,2,0:2:0:0:
235,196,37038,5,10,0:2:0:0:
122,237,37196,1,0,3:2:0:0:
122,237,37275,1,0,3:2:0:0:
122,237,37354,5,12,0:2:0:0:
146,189,37512,1,2,0:2:0:0:
193,178,37670,1,2,0:2:0:0:
235,196,37828,1,2,0:2:0:0:
235,196,38144,69,0,3:2:0:0:
503,85,38301,1,8,0:2:0:0:
472,52,38379,1,8,0:2:0:0:
430,36,38458,1,8,0:2:0:0:
386,40,38537,1,8,0:2:0:0:
348,63,38617,6,0,L|323:175,1,90,4|0,3:2|0:2,0:0:0:0:
260,21,38933,1,8,0:2:0:0:
89,109,39091,1,2,0:2:0:0:
204,105,39249,1,0,3:2:0:0:
34,32,39407,2,0,P|-4:74|24:176,1,135,2|0,0:2|0:2,0:0:0:0:
13,172,39723,1,2,0:2:0:0:
199,288,39880,6,0,P|157:250|55:278,1,135,2|0,3:2|0:2,0:0:0:0:
55,271,40196,1,10,0:2:0:0:
298,373,40354,2,0,P|306:312|332:287,1,90,2|0,0:2|3:2,0:0:0:0:
182,129,40670,1,2,0:2:0:0:
263,221,40828,1,10,0:2:0:0:
402,88,40986,1,10,0:3:0:0:
389,75,41065,1,8,0:3:0:0:
377,61,41144,6,0,L|363:191,1,90,0|2,3:2|0:2,0:0:0:0:
492,304,41459,2,0,P|510:258|501:214,1,90,8|0,0:2|0:2,0:0:0:0:
323,292,41775,1,0,3:2:0:0:
428,250,41933,1,2,0:2:0:0:
274,123,42091,1,10,0:2:0:0:
418,242,42249,1,2,0:2:0:0:
219,376,42407,70,0,P|221:297|175:235,1,135,2|0,3:2|0:2,0:0:0:0:
167,224,42723,1,10,0:2:0:0:
0,357,42880,2,0,L|122:334,1,90,2|0,0:2|3:2,0:0:0:0:
17,212,43196,1,10,0:3:0:0:
17,212,43275,1,8,0:3:0:0:
17,212,43354,1,8,0:3:0:0:
303,41,43512,6,0,P|218:101|132:60,1,180,6|0,3:2|3:2,0:0:0:0:
338,189,43986,2,0,P|411:148|483:183,1,135,10|0,0:2|0:2,0:0:0:0:
480,174,44301,1,2,3:2:0:0:
313,328,44459,1,0,0:2:0:0:
412,236,44617,1,10,0:2:0:0:
232,132,44775,1,2,0:2:0:0:
73,259,44933,6,0,L|216:243,1,135,0|0,3:2|0:2,0:0:0:0:
233,269,45249,2,0,L|111:282,1,90,8|0,0:2|0:2,0:0:0:0:
0,78,45565,1,0,3:2:0:0:
11,193,45723,1,2,0:2:0:0:
179,32,45880,2,0,L|268:40,1,90,10|10,0:2|0:2,0:0:0:0:
290,64,46117,1,8,0:2:0:0:
313,85,46196,6,0,L|402:93,1,90,2|0,3:2|0:2,0:0:0:0:
468,177,46512,1,8,0:2:0:0:
233,269,46670,2,0,P|286:203|400:232,1,180,2|0,0:2|0:2,0:0:0:0:
496,384,47144,70,0,P|443:318|329:347,1,180,10|0,0:2|3:2,0:0:0:0:
150,371,47617,1,2,0:2:0:0:
158,355,47696,1,2,0:2:0:0:
168,369,47775,1,10,0:2:0:0:
288,201,47933,2,0,L|270:133,1,45,8|8,0:3|0:3,0:0:0:0:
103,5,48091,5,8,0:2:0:0:
25,92,48249,1,4,3:3:0:0:
42,193,48407,1,2,3:3:0:0:
108,243,48565,1,0,3:2:0:0:
156,243,48723,6,0,B|174:157|174:157|166:129|166:129|188:20,1,198.000006042481,4|8,3:2|0:2,0:0:0:0:
317,269,49196,6,0,B|233:296|233:296|213:317|213:317|136:343,1,198.000006042481,4|0,3:1|3:2,0:0:0:0:
262,120,49670,70,0,B|327:178|327:178|355:185|355:185|439:259,1,198.000006042481,12|8,2:2|0:2,0:0:0:0:
244,210,50144,5,6,3:3:0:0:
469,23,50459,6,0,L|465:6,1,11.25,2|2,3:3|3:3,0:0:0:0:
469,23,50775,5,4,3:3:0:0:
458,141,50933,1,2,3:3:0:0:
345,182,51091,1,0,3:2:0:0:
71,83,51249,70,0,P|192:80|239:174,1,198.000006042481,4|8,3:2|0:2,0:0:0:0:
111,364,51723,6,0,P|47:260|105:173,1,198.000006042481,4|0,3:1|3:2,0:0:0:0:
345,182,52196,6,0,P|287:288|182:281,1,198.000006042481,12|4,0:2|3:1,0:0:0:0:
233,133,52723,5,8,0:2:0:0:
249,87,52828,69,8,0:2:0:0:
289,59,52933,5,8,0:2:0:0:
338,59,53038,5,8,0:2:0:0:
378,87,53144,6,0,L|449:80,1,66.0000020141602,4|4,3:3|3:3,0:0:0:0:
512,213,53354,70,0,L|446:219,1,66.0000020141602,4|2,3:3|3:3,0:0:0:0:
358,378,53565,5,2,3:3:0:0:
379,329,53670,5,2,3:3:0:0:
350,284,53775,6,0,L|202:297,1,144,4|2,3:2|3:2,0:0:0:0:
125,372,54249,1,0,3:2:0:0:
25,143,54407,1,10,0:2:0:0:
25,143,54723,69,2,3:2:0:0:
89,292,54880,1,0,3:2:0:0:
19,129,55038,1,2,0:2:0:0:
189,64,55196,1,8,0:2:0:0:
189,64,55512,5,0,3:2:0:0:
75,28,55670,1,10,0:2:0:0:
151,209,55828,1,0,3:2:0:0:
151,209,56144,1,0,3:2:0:0:
329,35,56301,6,0,L|198:62,1,108,4|0,3:2|0:2,0:0:0:0:
189,64,56617,1,2,3:2:0:0:
279,151,56775,1,0,3:2:0:0:
452,4,56933,1,10,0:2:0:0:
452,4,57249,5,2,3:2:0:0:
329,35,57407,1,0,3:2:0:0:
478,187,57565,70,0,L|496:97,1,72,2|8,0:2|0:2,0:0:0:0:
329,35,57880,1,2,0:2:0:0:
492,116,58038,1,0,3:2:0:0:
384,131,58196,1,10,0:2:0:0:
407,343,58354,6,0,P|476:361|429:274,1,215.999993408203,4|0,3:2|0:2,0:0:0:0:
263,287,58828,6,0,L|385:268,1,90,6|0,3:1|0:2,0:0:0:0:
252,384,59144,1,10,0:2:0:0:
142,149,59301,2,0,P|116:208|133:254,1,90,2|0,0:2|3:2,0:0:0:0:
263,287,59617,2,0,P|264:242|241:205,1,90,2|8,0:2|0:2,0:0:0:0:
120,230,59933,1,2,0:2:0:0:
0,95,60091,6,0,B|81:84|81:84|104:67|104:67|208:53,1,180,2|10,3:2|0:2,0:0:0:0:
340,194,60565,2,0,P|344:139|326:104,1,90,2|0,0:2|3:2,0:0:0:0:
173,57,60880,2,0,P|156:98|162:142,1,90,2|8,0:2|0:2,0:0:0:0:
390,35,61196,1,8,0:3:0:0:
400,25,61275,1,8,0:3:0:0:
410,15,61354,70,0,L|294:23,1,90,6|0,3:1|0:2,0:0:0:0:
266,163,61670,1,10,0:2:0:0:
440,280,61828,2,0,L|433:190,1,90,2|0,0:2|3:2,0:0:0:0:
277,356,62144,2,0,L|366:349,1,90,2|8,0:2|0:2,0:0:0:0:
266,163,62459,1,2,0:2:0:0:
121,287,62617,6,0,B|202:281|202:281|223:266|223:266|337:259,1,180,2|10,3:2|0:2,0:0:0:0:
159,178,63091,1,2,3:2:0:0:
304,45,63249,5,8,0:2:0:0:
304,45,63328,1,4,3:3:0:0:
304,45,63407,2,0,L|241:50,1,45,4|4,3:3|3:3,0:0:0:0:
159,178,63565,5,2,3:3:0:0:
117,193,63643,1,2,3:3:0:0:
76,178,63723,1,2,3:3:0:0:
53,140,63801,1,2,3:3:0:0:
61,97,63880,70,0,L|184:87,1,99.0000030212403,12|0,0:2|3:2,0:0:0:0:
296,264,64196,1,0,3:2:0:0:
495,15,64354,6,0,L|372:4,1,99.0000030212403,12|0,0:1|3:2,0:0:0:0:
261,178,64670,1,0,3:2:0:0:
423,307,64828,5,8,0:2:0:0:
254,173,64986,1,0,3:2:0:0:
484,170,65144,1,0,3:2:0:0:
322,355,65301,5,12,0:1:0:0:
351,98,65459,1,0,3:2:0:0:
423,307,65617,1,0,3:2:0:0:
170,264,65775,69,8,0:2:0:0:
382,197,65933,1,0,3:2:0:0:
142,149,66091,1,8,0:2:0:0:
424,307,66249,1,0,3:2:0:0:
198,384,66407,5,12,0:2:0:0:
170,264,66565,1,0,3:2:0:0:
142,149,66723,1,0,3:2:0:0:
64,375,66880,5,8,0:1:0:0:
170,264,67038,1,0,3:2:0:0:
284,146,67196,1,0,3:2:0:0:
119,36,67354,5,12,0:1:0:0:
170,264,67512,1,0,3:2:0:0:
116,24,67670,1,0,3:2:0:0:
46,217,67828,69,8,0:1:0:0:
235,23,67986,1,0,3:2:0:0:
38,226,68144,1,0,3:2:0:0:
284,146,68301,5,8,0:2:0:0:
362,162,68407,5,8,0:2:0:0:
399,231,68512,5,8,0:2:0:0:
293,313,68618,69,4,3:3:0:0:
284,274,68723,5,2,3:3:0:0:
307,234,68828,5,2,3:3:0:0:
393,326,68933,5,4,3:2:0:0:
500,112,69249,69,2,0:2:0:0:
256,20,69565,5,2,0:2:0:0:
149,234,69881,5,2,0:2:0:0:
202,127,70038,1,2,0:2:0:0:
100,332,70354,5,2,0:2:0:0:
347,310,70670,69,2,0:2:0:0:
202,127,70986,5,2,0:2:0:0:
222,248,71144,1,2,0:2:0:0:
244,374,71301,1,2,0:2:0:0:
449,244,71459,5,6,0:2:0:0:
202,127,71775,5,2,0:2:0:0:
394,7,72091,69,2,0:2:0:0:
394,7,72407,5,2,0:2:0:0:
298,67,72565,1,2,0:2:0:0:
55,52,73828,6,0,B|46:124|46:124|30:145|30:145|16:247,1,175.499991966248,4|0,3:1|0:2,0:0:0:0:
6,296,74144,1,0,3:2:0:0:
249,170,74301,1,10,0:2:0:0:
93,371,74459,2,0,P|113:316|106:254,1,116.999994644165,2|0,0:2|3:2,0:0:0:0:
268,55,74775,2,0,P|248:109|253:167,1,116.999994644165,2|8,3:2|0:2,0:0:0:0:
465,279,75091,6,0,P|396:252|308:306,1,175.499991966248,2|0,3:2|0:2,0:0:0:0:
264,363,75407,1,2,3:2:0:0:
488,108,75565,2,0,B|484:181|484:181|467:207|467:207|464:286,1,175.499991966248,8|0,0:2|0:2,0:0:0:0:
460,360,75880,1,2,3:2:0:0:
249,170,76038,1,0,3:2:0:0:
114,319,76196,70,0,P|143:368|117:317,1,175.499991966248,10|0,0:2|0:2,0:0:0:0:
51,267,76512,6,0,P|24:212|46:147,1,116.999994644165,6|0,3:1|0:2,0:0:0:0:
231,266,76828,1,10,0:2:0:0:
370,17,76986,2,0,L|246:44,1,116.999994644165,2|0,0:2|3:2,0:0:0:0:
482,187,77301,2,0,L|457:72,1,116.999994644165,2|8,3:2|0:2,0:0:0:0:
231,266,77617,6,0,B|196:294|152:264|152:264|89:248|57:317,1,175.499991966248,2|0,3:2|0:2,0:0:0:0:
25,358,77933,1,0,3:2:0:0:
320,198,78091,6,0,P|346:279|306:354,1,175.499991966248,10|0,0:2|0:2,0:0:0:0:
231,266,78407,70,0,L|448:296,1,175.499991966248,2|0,3:2|0:2,0:0:0:0:
486,304,78723,5,10,0:2:0:0:
378,82,78880,1,8,0:3:0:0:
386,97,78959,1,8,0:3:0:0:
393,111,79038,6,0,L|254:93,1,99.0000030212403,6|0,3:2|0:2,0:0:0:0:
218,28,79354,1,10,0:2:0:0:
152,215,79512,2,0,P|165:150|210:116,1,99.0000030212403,2|0,0:2|3:2,0:0:0:0:
2,0,79828,2,0,P|32:38|36:87,1,99.0000030212403,2|8,0:2|0:2,0:0:0:0:
231,266,80144,6,0,L|58:239,1,148.50000453186,2|0,0:2|0:2,0:0:0:0:
55,261,80459,2,0,L|170:281,1,99.0000030212403,2|8,0:2|0:2,0:0:0:0:
378,212,80775,2,0,P|318:282|359:384,1,198.000006042481,2|0,0:2|0:2,0:0:0:0:
495,209,81249,1,10,0:2:0:0:
413,302,81407,1,0,0:2:0:0:
269,72,81565,70,0,B|356:62|356:62|391:72|391:72|498:59,1,198.000006042481,6|10,3:1|0:2,0:0:0:0:
279,170,82038,2,0,L|268:71,1,99.0000030212403,2|0,0:2|3:2,0:0:0:0:
35,11,82354,2,0,L|45:109,1,99.0000030212403,2|8,0:2|0:2,0:0:0:0:
163,200,82670,5,2,0:2:0:0:
15,349,82828,2,0,L|4:250,1,99.0000030212403,0|0,3:2|0:2,0:0:0:0:
182,374,83144,6,0,L|162:199,1,175.499991966248,14|0,0:1|0:2,0:0:0:0:
155,118,83459,1,2,3:2:0:0:
329,266,83617,5,8,0:3:0:0:
337,273,83696,1,8,0:3:0:0:
346,280,83775,70,0,L|426:269,1,58.4999973220826,8|8,0:2|0:2,0:0:0:0:
496,155,83933,2,0,L|488:97,1,58.4999973220826,8|8,0:2|0:2,0:0:0:0:
199,24,84091,6,0,P|187:102|284:162,1,175.499991966248,6|0,3:2|0:2,0:0:0:0:
335,181,84407,1,10,0:2:0:0:
168,278,84565,2,0,L|51:292,1,116.999994644165,2|0,0:2|3:2,0:0:0:0:
253,161,84880,1,2,3:2:0:0:
182,374,85038,1,8,0:2:0:0:
33,136,85196,6,0,P|9:214|64:300,1,175.499991966248,2|0,3:2|0:2,0:0:0:0:
168,278,85512,2,0,L|31:294,1,116.999994644165,2|8,3:2|0:2,0:0:0:0:
155,118,85828,1,0,0:2:0:0:
302,364,85986,1,2,3:2:0:0:
168,278,86144,1,0,3:2:0:0:
395,179,86301,6,0,P|439:142|392:176,1,175.499991966248,10|0,0:2|0:2,0:0:0:0:
434,265,86617,70,0,L|451:383,1,116.999994644165,6|0,3:1|0:2,0:0:0:0:
267,277,86933,1,10,0:2:0:0:
511,97,87091,2,0,P|417:47|319:99,1,175.499991966248,2|0,0:2|0:2,0:0:0:0:
289,103,87407,1,2,3:2:0:0:
434,265,87565,1,8,0:2:0:0:
148,337,87723,6,0,B|107:374|33:368|18:304|18:304|101:282,1,233.999989288331,2|0,3:2|3:2,0:0:0:0:
177,24,88196,2,0,L|220:195,1,175.499991966248,14|0,0:1|0:2,0:0:0:0:
86,285,88512,6,0,P|48:235|62:168,1,116.999994644165,2|8,3:2|0:3,0:0:0:0:
82,101,88749,1,8,0:3:0:0:
82,101,88828,2,0,P|84:43|48:0,1,116.999994644165,8|8,0:2|0:2,0:0:0:0:
220,194,89065,1,8,0:2:0:0:
220,194,89144,70,0,B|306:184|306:184|332:192|332:192|462:179,1,198.000006042481,6|8,3:1|0:2,0:0:0:0:
482,8,89617,2,0,P|502:55|491:106,1,99.0000030212403,2|0,0:2|3:2,0:0:0:0:
415,183,89933,1,0,0:2:0:0:
177,24,90091,6,0,L|335:6,1,148.50000453186,10|0,0:2|0:2,0:0:0:0:
344,22,90407,6,0,L|209:37,1,99.0000030212403,2|0,3:2|0:2,0:0:0:0:
134,145,90723,1,8,0:2:0:0:
327,286,90880,2,0,L|316:187,1,99.0000030212403,2|0,0:2|3:2,0:0:0:0:
224,330,91196,1,0,0:2:0:0:
0,167,91354,6,0,P|62:130|163:172,1,148.50000453186,10|0,0:2|0:2,0:0:0:0:
163,162,91670,70,0,B|138:211|171:254|171:254|235:279|222:353,1,198.000006042481,6|8,3:1|0:2,0:0:0:0:
414,178,92144,2,0,L|283:190,1,99.0000030212403,2|0,0:2|3:2,0:0:0:0:
200,75,92459,1,0,0:2:0:0:
47,322,92617,2,0,L|145:331,1,99.0000030212403,10|0,0:2|0:2,0:0:0:0:
315,187,92933,5,0,3:2:0:0:
145,331,93091,1,0,3:2:0:0:
410,349,93249,6,0,B|333:342|333:342|308:350|308:350|217:341,1,175.499991966248,14|0,0:1|0:2,0:0:0:0:
145,331,93565,1,4,3:3:0:0:
389,121,93801,5,8,0:2:0:0:
389,122,93880,1,8,0:2:0:0:
100,131,94038,70,0,B|23:146|23:146|10:69|10:69|95:53,1,233.999989288331,4|0,3:2|3:2,0:0:0:0:
309,326,94512,1,8,0:2:0:0:
170,71,94669,1,0,3:2:0:0:
245,208,94828,5,10,0:2:0:0:
125,235,94986,2,0,L|10:259,1,116.999994644165,2|8,3:2|0:2,3:2:0:0:
174,364,95301,1,2,3:2:0:0:
285,80,95459,5,8,0:2:0:0:
467,271,95617,1,0,3:2:0:0:
448,15,95775,5,8,0:2:0:0:
309,326,95933,1,0,3:2:0:0:
285,80,96091,69,10,0:2:0:0:
375,176,96249,1,0,3:2:0:0:
467,271,96407,1,10,0:2:0:0:
258,237,96565,6,0,B|177:227|177:227|155:234|155:234|46:222,1,175.499991966248,4|0,3:2|0:2,0:0:0:0:
0,216,96880,1,0,3:2:0:0:
189,316,97038,5,10,0:2:0:0:
84,226,97196,1,0,3:2:0:0:
326,0,97354,5,10,0:2:0:0:
218,101,97512,1,0,3:2:0:0:
441,214,97670,69,10,0:2:0:0:
323,99,97828,1,0,3:2:0:0:
83,331,97986,5,10,0:2:0:0:
189,206,98144,1,0,3:2:0:0:
495,331,98301,6,0,P|432:302|365:331,1,116.999994644165,10|8,0:2|0:3,0:0:0:0:
317,356,98538,1,8,0:3:0:0:
317,356,98617,2,0,P|260:365|210:337,1,116.999994644165,10|4,0:2|3:3,0:0:0:0:
318,217,98933,1,2,3:2:0:0:
92,46,99091,86,0,B|86:8|41:-18|-17:9|-27:62|3:117|66:98|66:98|130:54|192:62|238:102|247:143|247:143|212:224|130:230|63:193|63:193|-7:198,1,720,4|8,3:2|0:2,0:0:0:0:
460,113,101775,6,0,B|458:52|378:20|329:60|329:60|404:145,1,251.999992309571,6|8,3:1|0:2,0:0:0:0:
241,350,102249,6,0,B|176:392|125:338|125:338|43:306|-3:371,1,251.999992309571,6|0,3:2|3:2,0:0:0:0:
170,40,102723,6,0,B|185:146|185:146|173:176|173:176|193:315,1,251.999992309571,14|0,0:1|3:2,0:0:0:0:
455,370,103196,70,2,B|455:311|506:280|506:280|439:281|403:233|403:233|410:254|404:290,1,251.999992309571,10|2,0:2|3:2,0:0:0:0:
355,343,103591,1,0,3:2:0:0:
355,343,103670,1,8,0:2:0:0:
165,26,103828,6,0,B|128:103|200:165|200:165|149:145|149:145|220:217|186:310,1,377.999988464356,4|4,3:2|3:1,0:0:0:0:
2,316,104459,5,0,3:2:0:0:
97,242,104617,1,8,0:2:0:0:
199,165,104775,1,0,3:2:0:0:
63,106,104933,5,8,0:2:0:0:
63,106,105091,1,0,3:2:0:0:
272,67,105249,69,2,3:2:0:0:
371,143,105407,1,8,0:2:0:0:
297,237,105565,1,0,3:2:0:0:
199,165,105723,1,0,3:2:0:0:
310,331,105880,5,8,0:2:0:0:
310,331,106038,1,0,3:2:0:0:
402,311,106196,5,2,3:2:0:0:
297,237,106354,1,8,0:2:0:0:
199,165,106512,1,0,3:2:0:0:
287,151,106670,5,8,0:2:0:0:
187,276,106828,69,2,3:2:0:0:
287,151,106986,1,0,3:2:0:0:
161,53,107144,1,8,0:2:0:0:
61,178,107302,1,0,3:2:0:0:
199,165,107459,5,8,0:2:0:0:
199,165,107617,1,0,3:2:0:0:
285,22,107775,5,2,3:2:0:0:
425,140,107933,1,8,0:2:0:0:
287,151,108091,1,0,3:2:0:0:
413,14,108249,1,0,3:2:0:0:
368,213,108407,5,8,0:2:0:0:
368,213,108565,1,0,3:2:0:0:
199,165,108723,69,2,3:2:0:0:
228,268,108880,1,8,0:2:0:0:
259,376,109038,1,0,3:2:0:0:
327,304,109196,5,8,0:2:0:0:
158,344,109354,5,6,3:2:0:0:
129,238,109512,1,0,3:2:0:0:
6,270,109670,1,8,0:2:0:0:
35,376,109828,1,0,3:2:0:0:
85,310,109986,5,8,0:2:0:0:
85,310,110144,1,0,3:2:0:0:
84,103,110301,69,2,3:2:0:0:
129,238,110459,1,8,0:2:0:0:
272,198,110617,1,0,3:2:0:0:
227,63,110775,1,0,3:2:0:0:
180,154,110933,5,8,0:2:0:0:
180,154,111091,1,0,3:2:0:0:
361,244,111249,5,2,3:2:0:0:
411,134,111407,1,8,0:2:0:0:
459,24,111565,1,0,3:2:0:0:
362,51,111723,5,8,0:2:0:0:
481,220,111880,69,2,3:2:0:0:
361,244,112038,1,0,3:2:0:0:
387,372,112196,1,8,0:2:0:0:
507,348,112354,1,0,3:2:0:0:
438,300,112512,5,8,0:2:0:0:
438,300,112670,1,0,3:2:0:0:
255,331,112828,5,2,3:2:0:0:
361,244,112986,1,8,0:2:0:0:
206,205,113144,1,0,3:2:0:0:
255,331,113301,6,0,L|180:314,1,49.5000015106202,2|2,3:3|3:3,0:0:0:0:
35,282,113459,1,12,0:1:0:0:
143,384,113617,1,0,3:2:0:0:
0,166,113775,69,8,0:2:0:0:
19,145,113853,1,8,0:2:0:0:
47,135,113932,1,8,0:2:0:0:
76,139,114011,1,8,0:2:0:0:
101,156,114091,2,0,L|116:236,1,49.5000015106202,8|8,0:2|0:2,0:0:0:0:
265,40,114249,5,8,0:2:0:0:
256,33,114328,1,8,0:2:0:0:
248,26,114407,6,0,L|271:150,1,90,4|0,3:2|0:2,0:0:0:0:
285,227,114723,1,8,0:2:0:0:
439,83,114880,2,0,L|350:99,1,90,0|0,0:2|3:2,0:0:0:0:
473,260,115196,1,2,0:2:0:0:
372,276,115354,1,10,0:2:0:0:
492,166,115512,1,2,0:2:0:0:
335,373,115670,70,0,P|268:289|292:216,1,180,2|10,3:2|0:2,0:0:0:0:
439,83,116144,2,0,L|350:99,1,90,2|0,0:2|3:2,0:0:0:0:
284,226,116459,1,2,0:2:0:0:
350,99,116617,1,10,0:2:0:0:
168,160,116775,1,10,0:2:0:0:
182,170,116854,1,8,0:2:0:0:
196,180,116933,6,0,L|179:91,1,90,0|2,3:2|0:2,0:0:0:0:
74,12,117249,1,8,0:2:0:0:
2,132,117407,2,0,L|91:115,1,90,2|0,0:2|3:2,0:0:0:0:
27,252,117723,1,2,0:2:0:0:
2,132,117880,1,10,0:2:0:0:
131,248,118038,1,2,0:2:0:0:
4,382,118196,6,0,P|65:336|184:387,1,180,2|10,3:2|0:2,0:0:0:0:
284,226,118670,2,0,L|290:315,1,90,2|0,0:2|3:2,0:0:0:0:
131,248,118986,1,2,3:2:0:0:
277,145,119144,1,8,0:2:0:0:
472,352,119301,6,0,B|466:271|466:271|474:253|474:253|467:161,1,180,6|0,3:1|3:2,0:0:0:0:
270,55,119775,2,0,L|276:144,1,90,10|0,0:2|0:2,0:0:0:0:
131,248,120091,2,0,L|120:113,1,135,2|0,3:2|0:2,0:0:0:0:
117,81,120407,1,10,0:2:0:0:
42,267,120565,70,0,P|96:333|182:324,1,180,2|0,0:2|0:2,0:0:0:0:
276,144,121038,1,8,0:2:0:0:
131,248,121196,1,2,0:2:0:0:
291,348,121354,2,0,L|283:258,1,90,0|0,3:2|0:2,0:0:0:0:
423,139,121670,1,10,0:2:0:0:
246,35,121828,1,10,0:2:0:0:
234,48,121907,1,8,0:2:0:0:
221,61,121986,6,0,L|310:53,1,90,2|0,3:2|0:2,0:0:0:0:
186,161,122301,1,8,0:2:0:0:
30,5,122459,6,0,B|18:84|18:84|24:108|24:108|9:207,1,180,2|0,0:2|0:2,0:0:0:0:
165,288,122933,2,0,L|23:266,1,135,10|0,0:2|0:2,0:0:0:0:
0,260,123249,1,0,3:2:0:0:
186,161,123407,5,2,0:2:0:0:
186,161,123486,1,2,0:2:0:0:
186,161,123565,1,10,0:2:0:0:
165,288,123723,1,0,0:2:0:0:
405,173,123880,69,8,0:2:0:0:
263,240,124038,1,8,0:2:0:0:
333,384,124196,1,6,3:3:0:0:
475,317,124354,1,6,3:3:0:0:
370,279,124512,5,4,3:2:0:0:
45,44,125459,5,2,0:2:0:0:
108,356,126407,5,2,0:2:0:0:
180,274,126722,1,2,0:2:0:0:
78,252,127038,1,2,0:2:0:0:
433,30,127986,69,2,0:2:0:0:
382,256,128617,5,2,0:2:0:0:
505,239,128933,1,2,0:2:0:0:
459,353,129249,1,2,0:2:0:0:
256,192,129565,5,4,3:1:0:0:
256,192,130038,5,0,3:2:0:0:
140,31,130196,1,8,0:2:0:0:
140,31,130512,69,0,3:2:0:0:
198,111,130670,1,0,3:2:0:0:
198,111,130986,5,8,0:2:0:0:
355,181,131144,1,0,3:2:0:0:
297,101,131301,1,0,3:2:0:0:
313,270,131459,1,8,0:2:0:0:
31,209,131775,5,2,0:2:0:0:
145,352,132091,5,2,3:2:0:0:
145,352,132565,69,2,3:2:0:0:
256,192,132723,1,8,0:2:0:0:
256,192,133038,5,2,3:2:0:0:
313,270,133196,1,0,3:2:0:0:
313,270,133512,1,8,0:2:0:0:
419,95,133828,5,8,0:3:0:0:
419,95,133907,1,8,0:3:0:0:
419,95,133986,5,8,0:2:0:0:
282,67,134144,69,4,3:3:0:0:
188,47,134301,5,2,3:3:0:0:
109,30,134459,5,0,3:2:0:0:
87,25,134538,1,0,3:2:0:0:
70,21,134617,5,4,3:2:0:0:
70,21,134933,1,0,3:2:0:0:
20,202,135091,1,4,3:3:0:0:
20,202,135170,1,4,3:3:0:0:
20,202,135249,1,0,3:2:0:0:
188,47,135407,69,8,0:2:0:0:
41,108,135565,1,0,3:2:0:0:
210,285,135723,5,8,0:2:0:0:
142,128,135880,1,0,3:2:0:0:
216,299,136038,1,0,3:2:0:0:
329,126,136196,5,8,0:2:0:0:
120,231,136354,1,2,3:3:0:0:
347,377,136512,5,0,3:2:0:0:
302,253,136670,1,0,3:2:0:0:
494,146,136828,69,8,0:2:0:0:
437,251,136986,1,2,3:3:0:0:
437,251,137065,1,2,3:3:0:0:
437,251,137144,5,12,0:2:0:0:
240,175,137301,1,0,3:2:0:0:
371,116,137459,5,12,0:2:0:0:
216,299,137617,1,0,3:2:0:0:
188,95,137775,5,12,0:2:0:0:
347,377,137933,1,0,3:2:0:0:
63,201,138091,69,12,0:2:0:0:
494,146,138249,1,12,3:2:0:0:
216,299,138407,5,0,3:2:0:0:
371,116,138565,1,0,3:2:0:0:
437,251,138723,6,0,P|445:295|445:250,1,135,12|0,0:1|0:2,0:0:0:0:
363,201,139038,1,8,0:2:0:0:
221,343,139196,5,8,0:3:0:0:
221,343,139275,1,8,0:3:0:0:
221,343,139354,2,0,L|213:272,1,45,8|8,0:2|0:2,0:0:0:0:
133,69,139512,70,0,B|64:11|-1:85|-1:85|82:126,1,233.999989288331,4|0,3:1|3:2,0:0:0:0:
230,0,139986,1,10,0:2:0:0:
434,143,140144,2,0,P|359:151|316:108,1,116.999994644165,2|0,0:2|3:2,0:0:0:0:
27,189,140459,2,0,P|102:197|145:154,1,116.999994644165,2|8,3:2|0:2,0:0:0:0:
391,373,140775,6,0,B|319:357|319:357|296:362|296:362|193:336,1,175.499991966248,2|0,3:2|0:2,0:0:0:0:
146,318,141091,1,2,3:2:0:0:
328,128,141249,2,0,P|277:100|222:113,1,116.999994644165,8|0,0:2|0:0,0:0:0:0:
146,318,141565,1,2,3:2:0:0:
267,179,141723,1,0,3:2:0:0:
465,253,141880,6,0,P|458:309|461:253,1,175.499991966248,10|0,0:2|0:2,0:0:0:0:
494,171,142196,6,0,P|514:114|496:49,1,116.999994644165,6|0,3:1|0:2,0:0:0:0:
351,237,142512,1,10,0:2:0:0:
136,24,142670,2,0,L|251:3,1,116.999994644165,2|0,0:2|3:2,0:0:0:0:
101,228,142986,2,0,L|80:112,1,116.999994644165,2|8,3:2|0:2,0:0:0:0:
0,333,143301,70,0,B|68:320|68:320|95:328|95:328|172:315,1,175.499991966248,2|0,3:2|0:2,0:0:0:0:
263,297,143617,1,0,3:2:0:0:
483,117,143775,6,0,P|403:64|318:113,1,175.499991966248,10|0,0:2|0:2,0:0:0:0:
314,200,144091,6,0,P|380:251|461:226,1,175.499991966248,2|0,3:2|0:2,0:0:0:0:
399,158,144407,5,10,0:2:0:0:
201,9,144565,1,8,0:3:0:0:
214,20,144644,1,8,0:3:0:0:
226,29,144723,70,0,L|216:154,1,99.0000030212403,6|0,3:2|0:0,0:0:0:0:
127,241,145038,1,10,0:2:0:0:
4,112,145196,2,0,P|56:99|102:119,1,99.0000030212403,2|0,0:2|3:2,0:0:0:0:
129,333,145512,2,0,P|112:287|126:240,1,99.0000030212403,2|8,0:2|0:2,0:0:0:0:
378,272,145828,6,0,L|230:259,1,148.50000453186,2|0,0:2|0:2,0:0:0:0:
198,284,146144,2,0,L|312:295,1,99.0000030212403,2|8,0:2|0:2,0:0:0:0:
499,140,146459,2,0,P|473:72|334:63,1,198.000006042481,2|0,0:2|0:2,0:0:0:0:
240,115,146933,1,10,0:2:0:0:
401,137,147091,1,0,0:2:0:0:
198,284,147249,6,0,B|105:276|105:276|83:261|83:261|5:254,1,198.000006042481,6|10,3:1|0:2,0:0:0:0:
240,115,147723,2,0,P|267:165|236:236,1,99.0000030212403,2|0,0:2|3:2,0:0:0:0:
56,26,148038,2,0,P|29:76|60:147,1,99.0000030212403,2|8,0:2|0:2,0:0:0:0:
260,204,148354,1,2,0:2:0:0:
0,352,148512,6,0,L|7:253,1,99.0000030212403,0|0,3:2|0:2,0:0:0:0:
294,289,148828,70,0,B|305:339|305:339|283:380|283:380|270:335|270:335|298:281,1,198.000006042481,14|2,0:1|3:2,0:0:0:0:
408,127,149301,5,8,0:3:0:0:
408,127,149380,1,8,0:3:0:0:
408,127,149459,6,0,L|474:139,1,49.5000015106202,8|8,0:2|0:2,0:0:0:0:
512,233,149617,2,0,L|503:281,1,49.5000015106202,8|8,0:2|0:2,0:0:0:0:
288,56,149775,6,0,B|199:38|199:38|158:73|175:123,1,175.499991966248,6|0,3:2|0:2,0:0:0:0:
200,201,150091,1,10,0:2:0:0:
28,383,150249,2,0,P|1:300|35:251,1,116.999994644165,2|0,0:2|3:2,0:0:0:0:
200,201,150565,1,2,3:2:0:0:
82,317,150723,1,8,0:2:0:0:
260,345,150880,6,0,B|310:358|343:317|343:317|390:292|441:326,1,175.499991966248,2|0,3:2|0:2,0:0:0:0:
498,345,151196,2,0,P|500:279|438:229,1,116.999994644165,2|8,3:2|0:2,0:0:0:0:
200,201,151512,1,0,0:2:0:0:
470,242,151670,1,2,3:2:0:0:
260,345,151828,1,0,3:2:0:0:
334,81,151986,70,0,P|382:68|333:85,1,175.499991966248,10|0,0:2|0:2,0:0:0:0:
251,44,152301,6,0,P|193:22|116:66,1,116.999994644165,6|0,3:1|0:2,0:0:0:0:
44,104,152617,1,10,0:2:0:0:
71,363,152775,2,0,B|60:292|60:292|71:266|71:266|55:170,1,175.499991966248,2|0,0:2|0:2,0:0:0:0:
44,104,153091,1,2,3:2:0:0:
163,313,153249,1,8,0:2:0:0:
450,165,153407,6,0,B|373:121|324:187|324:187|347:310,1,233.999989288331,2|0,3:2|3:2,0:0:0:0:
482,337,153880,2,0,L|443:132,1,175.499991966248,14|0,0:1|0:2,0:0:0:0:
489,88,154196,6,0,L|478:30,1,58.4999973220826,2|0,3:2|0:0,0:0:0:0:
249,55,154354,5,8,0:3:0:0:
249,55,154433,1,8,0:3:0:0:
249,55,154512,69,8,0:3:0:0:
219,104,154590,1,8,0:3:0:0:
166,126,154669,1,8,0:3:0:0:
111,111,154748,1,8,0:3:0:0:
75,66,154827,5,6,3:1:0:0:
160,39,154986,1,0,0:0:0:0:
0,164,155144,1,8,0:2:0:0:
145,290,155301,2,0,B|225:278|225:278|250:287|250:287|359:273,1,198.000006042481,2|0,0:2|0:2,0:0:0:0:
478,30,155775,6,0,L|500:209,1,148.50000453186,10|0,0:2|0:2,0:0:0:0:
477,207,156091,6,0,L|465:100,1,99.0000030212403,2|0,3:2|0:2,0:0:0:0:
494,332,156407,1,8,0:2:0:0:
322,150,156565,2,0,L|310:51,1,99.0000030212403,2|0,0:2|3:2,0:0:0:0:
339,275,156881,1,0,0:2:0:0:
45,77,157038,6,0,P|101:55|185:122,1,148.50000453186,10|0,0:2|0:2,0:0:0:0:
193,123,157354,5,6,3:1:0:0:
0,256,157512,1,0,0:0:0:0:
103,136,157670,1,8,0:2:0:0:
232,384,157828,2,0,B|243:307|243:307|235:280|235:280|249:182,1,198.000006042481,2|0,0:2|0:2,0:0:0:0:
382,299,158301,6,0,L|235:277,1,148.50000453186,10|0,0:2|0:0,0:0:0:0:
248,188,158617,70,0,L|368:206,1,99.0000030212403,0|0,3:2|3:2,0:0:0:0:
440,373,158933,2,0,P|421:312|477:235,1,148.50000453186,14|0,0:1|0:2,0:0:0:0:
492,225,159249,1,4,3:3:0:0:
292,11,159486,5,8,0:2:0:0:
292,11,159565,1,8,0:2:0:0:
80,246,159723,6,0,B|2:234|2:234|13:159|13:159|116:174,1,233.999989288331,4|0,3:2|3:2,0:0:0:0:
297,351,160196,5,8,0:2:0:0:
166,222,160354,1,0,3:2:0:0:
385,139,160512,69,10,0:2:0:0:
149,337,160670,2,0,L|165:221,1,116.999994644165,2|8,3:2|0:2,0:2:0:0:
189,59,160986,1,2,3:2:0:0:
363,276,161144,5,8,0:2:0:0:
407,2,161301,1,0,3:2:0:0:
189,59,161459,5,10,0:2:0:0:
512,115,161617,1,0,3:2:0:0:
363,276,161775,5,10,0:2:0:0:
385,139,161933,1,0,3:2:0:0:
407,2,162091,1,10,0:2:0:0:
104,246,162249,70,0,B|53:249|35:222|35:222|48:150|132:152|166:192,1,233.999989288331,4|0,3:2|3:2,0:0:0:0:
321,368,162723,5,10,0:2:0:0:
239,277,162880,1,0,3:2:0:0:
512,115,163038,5,10,0:2:0:0:
430,206,163195,1,0,3:2:0:0:
228,1,163354,5,10,0:2:0:0:
360,52,163512,1,0,3:2:0:0:
136,227,163670,69,10,0:2:0:0:
268,176,163828,1,0,3:2:0:0:
47,0,163986,6,0,P|70:57|55:122,1,116.999994644165,10|8,0:2|0:3,0:0:0:0:
23,188,164223,1,8,0:3:0:0:
23,188,164301,2,0,P|14:245|37:298,1,116.999994644165,10|4,0:2|3:3,0:0:0:0:
164,130,164617,1,2,3:2:0:0:
333,334,164775,6,0,B|373:386|473:387|508:328|508:328|500:135|500:135|501:205|446:231,1,495.000015106202,4|8,3:2|0:0,0:0:0:0:
164,130,165723,1,4,3:3:0:0:
408,147,165880,1,2,3:3:0:0:
118,365,166038,5,8,0:0:0:0:
256,192,166986,69,0,3:2:0:0:
256,192,167065,1,0,3:2:0:0:
256,192,167144,1,6,0:3:0:0:
256,192,167459,5,6,3:2:0:0:
285,44,167617,1,2,3:2:0:0:
121,16,167775,1,10,0:2:0:0:
92,164,167933,1,2,0:2:0:0:
92,164,168407,5,10,0:2:0:0:
121,16,168565,1,2,0:2:0:0:
285,44,168723,1,2,0:2:0:0:
256,192,168881,1,2,0:2:0:0:
189,104,169038,5,10,0:2:0:0:
189,104,169354,69,2,0:2:0:0:
337,133,169512,1,2,0:2:0:0:
477,161,169670,1,10,0:2:0:0:
477,161,169986,5,2,3:2:0:0:
337,133,170144,1,2,3:2:0:0:
308,281,170301,1,10,0:2:0:0:
448,309,170459,1,2,0:2:0:0:
448,309,170933,5,10,0:2:0:0:
308,281,171091,1,2,0:2:0:0:
337,133,171248,1,2,0:2:0:0:
477,161,171406,1,2,0:2:0:0:
397,222,171565,5,10,0:2:0:0:
397,222,171880,69,2,0:2:0:0:
256,192,172038,1,2,0:2:0:0:
120,161,172196,1,10,0:2:0:0:
120,161,172512,5,6,3:1:0:0:
256,192,172670,1,2,3:2:0:0:
207,97,172828,1,10,0:2:0:0:
169,260,172986,1,2,0:2:0:0:
169,260,173459,5,10,0:2:0:0:
207,97,173617,1,2,0:2:0:0:
256,192,173775,1,2,0:2:0:0:
120,161,173933,1,2,0:2:0:0:
228,14,174091,5,10,0:2:0:0:
228,14,174407,69,2,3:2:0:0:
114,62,174565,1,2,3:2:0:0:
3,106,174723,1,10,0:2:0:0:
3,106,175038,5,6,3:1:0:0:
71,288,175196,1,2,3:2:0:0:
36,196,175354,1,10,0:2:0:0:
106,372,175512,1,2,0:2:0:0:
106,372,175986,5,10,0:2:0:0:
209,216,176144,1,2,0:2:0:0:
158,294,176302,1,2,0:2:0:0:
260,141,176460,1,2,0:2:0:0:
330,316,176617,5,14,0:2:0:0:
330,316,176933,1,2,3:2:0:0:
209,216,177091,1,2,3:2:0:0:
407,71,177249,69,8,0:2:0:0:
417,80,177328,1,8,0:2:0:0:
427,89,177407,1,8,0:2:0:0:
437,98,177486,1,8,0:2:0:0:
446,105,177565,6,0,L|446:227,1,121.499996292114,6|0,3:2|0:2,0:0:0:0:
447,258,177880,1,10,0:2:0:0:
255,108,178038,1,2,0:2:0:0:
255,108,178196,1,0,3:2:0:0:
64,105,178512,6,0,L|64:230,1,121.499996292114,10|0,0:2|0:2,0:0:0:0:
63,258,178827,1,2,3:2:0:0:
255,108,178985,1,2,0:2:0:0:
255,108,179143,5,8,0:2:0:0:
255,274,179301,1,2,0:2:0:0:
254,23,179459,69,2,3:2:0:0:
255,191,179617,1,8,0:2:0:0:
168,110,179775,1,2,3:2:0:0:
340,112,179933,1,8,0:2:0:0:
169,352,180091,6,0,L|169:198,1,121.499996292114,2|0,3:2|0:2,0:0:0:0:
169,197,180407,1,10,0:2:0:0:
73,60,180565,1,2,0:2:0:0:
73,60,180723,1,0,3:2:0:0:
341,352,181038,6,0,L|341:198,1,121.499996292114,10|0,0:2|0:2,0:0:0:0:
341,197,181354,1,2,3:2:0:0:
437,60,181512,1,2,3:2:0:0:
197,56,181670,5,12,0:2:0:0:
313,57,181828,1,0,3:2:0:0:
72,58,181986,69,8,0:2:0:0:
64,67,182065,1,4,3:3:0:0:
55,78,182144,2,0,L|62:138,1,40.4999987640381,4|4,3:3|3:3,0:0:0:0:
178,186,182301,5,2,3:3:0:0:
186,195,182380,1,2,3:3:0:0:
195,203,182459,2,0,L|188:263,1,40.4999987640381,2|2,3:3|3:3,0:0:0:0:
69,343,182617,5,12,0:2:0:0:
71,203,182775,1,0,3:2:0:0:
72,58,182933,1,0,3:2:0:0:
197,56,183091,5,12,0:1:0:0:
195,203,183249,1,0,3:2:0:0:
194,343,183407,1,0,3:2:0:0:
312,343,183565,69,8,0:2:0:0:
312,202,183723,1,0,3:2:0:0:
313,57,183881,1,0,3:2:0:0:
437,58,184039,5,8,0:2:0:0:
436,202,184197,1,0,3:2:0:0:
435,344,184355,1,0,3:2:0:0:
312,202,184512,5,8,0:2:0:0:
194,343,184670,1,0,3:2:0:0:
195,203,184828,5,8,0:2:0:0:
312,343,184986,1,0,3:2:0:0:
71,203,185144,69,12,0:2:0:0:
71,203,185301,1,0,3:2:0:0:
194,343,185459,1,0,3:2:0:0:
436,202,185617,5,8,0:2:0:0:
436,202,185774,1,0,3:2:0:0:
312,343,185932,1,0,3:2:0:0:
195,203,186091,5,8,0:2:0:0:
312,203,186249,1,0,3:2:0:0:
197,56,186407,5,12,0:2:0:0:
71,203,186565,1,0,3:2:0:0:
313,57,186723,69,12,0:2:0:0:
435,201,186880,1,0,3:2:0:0:
174,336,187038,5,8,0:2:0:0:
157,301,187116,1,4,3:3:0:0:
155,264,187195,1,4,3:3:0:0:
168,229,187274,1,4,3:3:0:0:
195,203,187354,1,2,3:3:0:0:
220,176,187434,1,2,3:3:0:0:
233,142,187513,1,2,3:3:0:0:
232,105,187591,1,2,3:3:0:0:
216,71,187670,6,0,L|100:60,1,107.999996704102,14|0,0:1|3:2,0:0:0:0:
245,278,187986,1,0,3:2:0:0:
383,13,188144,6,0,L|499:2,1,107.999996704102,14|0,0:1|3:2,0:0:0:0:
354,220,188460,1,0,3:2:0:0:
126,149,188617,69,10,0:1:0:0:
320,80,188775,1,0,3:2:0:0:
114,154,188933,1,0,3:2:0:0:
439,347,189091,5,14,0:2:0:0:
245,278,189249,1,0,3:2:0:0:
451,352,189407,1,0,3:2:0:0:
427,176,189565,5,10,0:1:0:0:
358,382,189723,1,0,3:2:0:0:
244,183,189880,5,10,0:2:0:0:
354,220,190038,1,0,3:2:0:0:
76,268,190196,70,0,L|63:188,1,53.9999983520508,14|0,0:1|0:2,0:0:0:0:
116,137,190354,2,0,L|196:124,1,53.9999983520508,2|0,3:2|0:2,0:0:0:0:
244,183,190512,2,0,L|257:263,1,53.9999983520508,2|0,3:2|0:2,0:0:0:0:
466,59,190670,6,0,B|443:40|443:40|406:45,1,53.9999983520508,14|0,0:2|0:2,0:0:0:0:
337,83,190828,2,0,B|318:105|318:105|323:142,1,53.9999983520508,2|0,3:2|0:2,0:0:0:0:
354,220,190986,2,0,B|376:238|376:238|413:233,1,53.9999983520508,2|0,3:2|0:2,0:0:0:0:
234,52,191144,5,10,0:1:0:0:
420,144,191301,1,0,3:2:0:0:
219,45,191459,1,0,3:2:0:0:
163,220,191617,5,14,0:2:0:0:
337,83,191775,1,0,3:2:0:0:
155,227,191933,1,0,3:2:0:0:
348,324,192091,69,14,0:1:0:0:
169,128,192249,1,0,3:2:0:0:
69,325,192407,6,0,P|18:343|66:320,1,161.999995056153,10|0,0:2|0:2,0:0:0:0:
156,353,192723,6,0,L|209:345,1,53.9999983520508,6|0,3:1|0:2,0:0:0:0:
348,324,192880,2,0,L|294:331,1,53.9999983520508,2|0,3:2|0:2,0:0:0:0:
52,202,193038,6,0,B|41:131|41:131|51:105|51:105|44:43,1,161.999995056153,10|0,0:2|0:2,0:0:0:0:
121,0,193354,2,0,L|134:89,1,53.9999983520508,10|0,0:2|0:2,0:0:0:0:
335,172,193512,70,0,B|350:230|350:230|276:248|276:248|269:224,1,161.999995056153,2|0,3:2|0:2,0:0:0:0:
307,26,193828,6,0,B|415:0|415:0|430:48,1,161.999995056153,10|0,0:2|0:2,0:0:0:0:
455,124,194144,2,0,L|476:195,1,53.9999983520508,2|0,3:2|0:2,0:0:0:0:
348,324,194301,5,10,0:2:0:0:
498,249,194459,1,2,3:2:0:0:
264,113,194617,5,8,0:2:0:0:
210,113,194695,1,4,3:3:0:0:
166,143,194774,1,4,3:3:0:0:
143,192,194853,1,4,3:3:0:0:
149,245,194933,70,0,L|164:309,1,53.9999983520508,2|2,3:3|3:3,0:0:0:0:
20,353,195091,2,0,L|32:300,1,53.9999983520508,2|2,3:3|3:3,0:0:0:0:
239,204,195249,5,12,0:1:0:0:
65,113,195407,6,0,L|77:60,3,53.9999983520508,0|0|0|0,3:2|3:2|3:2|3:2,0:0:0:0:
154,13,195723,2,0,L|207:25,1,53.9999983520508,12|0,3:2|3:2,0:0:0:0:
239,204,195880,6,0,L|251:257,3,53.9999983520508,0|0|0|0,3:2|3:2|3:2|3:2,0:0:0:0:
328,304,196196,2,0,L|381:292,1,53.9999983520508,12|0,3:1|3:2,0:0:0:0:
448,139,196354,70,0,L|460:86,3,53.9999983520508,0|0|0|0,3:2|3:2|3:2|3:2,0:0:0:0:
376,64,196670,2,0,L|358:141,1,53.9999983520508,12|0,3:2|3:2,0:0:0:0:
239,204,196828,6,0,L|251:257,3,53.9999983520508,0|0|0|0,3:2|3:2|3:2|3:2,0:0:0:0:
94,384,197144,5,12,3:2:0:0:
61,352,197222,1,0,3:2:0:0:
49,310,197301,1,0,3:2:0:0:
61,267,197380,1,0,3:2:0:0:
93,236,197459,2,0,L|158:242,3,53.9999983520508,12|0|0|0,3:2|3:2|3:2|3:2,0:0:0:0:
404,330,197776,5,8,0:2:0:0:
429,305,197854,1,2,0:3:0:0:
441,272,197933,1,2,0:3:0:0:
436,237,198012,1,2,0:3:0:0:
414,209,198092,2,0,L|360:203,1,53.9999983520508,2|2,0:3|0:3,0:0:0:0:
199,0,198249,69,8,0:2:0:0:
174,25,198327,1,2,0:3:0:0:
163,58,198406,1,2,0:3:0:0:
167,93,198485,1,2,0:3:0:0:
189,121,198565,2,0,L|242:126,1,53.9999983520508,2|2,0:3|0:3,0:0:0:0:
442,64,198723,5,8,0:2:0:0:
414,15,198801,1,2,0:3:0:0:
362,7,198880,1,2,0:3:0:0:
320,41,198959,1,2,0:3:0:0:
322,91,199038,1,2,0:3:0:0:
365,127,199117,1,2,0:3:0:0:
416,110,199197,5,8,0:2:0:0:
467,93,199276,1,2,0:3:0:0:
510,129,199355,1,2,0:3:0:0:
512,179,199434,1,2,0:3:0:0:
470,213,199513,1,2,0:3:0:0:
418,205,199592,1,2,0:3:0:0:
391,156,199670,6,0,L|424:92,3,53.9999983520508,8|8|8|8,0:2|0:2|0:2|0:2,0:0:0:0:
264,337,199986,70,0,L|166:345,1,67.5000025749208,8|8,0:2|0:2,0:0:0:0:
441,326,200144,2,0,L|539:318,1,67.5000025749208,8|8,0:2|0:2,0:0:0:0:
254,349,200301,6,0,B|181:356|181:356|158:371|158:371|68:380,1,180,6|8,3:2|0:2,0:0:0:0:
60,202,200775,2,0,L|71:306,1,90,2|0,0:2|3:2,0:0:0:0:
174,361,201091,1,0,0:2:0:0:
249,197,201249,6,0,B|284:191|284:191|310:208|310:208|282:216|282:216|248:197,1,135,10|0,0:2|0:2,0:0:0:0:
192,267,201565,6,0,P|158:206|245:108,1,180,2|8,3:2|0:2,0:0:0:0:
375,28,202038,2,0,L|464:35,1,90,2|0,0:2|3:2,0:0:0:0:
334,116,202354,1,0,0:2:0:0:
485,268,202512,70,0,L|493:178,1,90,10|8,0:2|0:3,0:0:0:0:
477,150,202749,1,8,0:3:0:0:
456,125,202828,6,0,L|464:35,1,90,2|0,3:2|0:2,0:0:0:0:
334,116,203144,1,8,0:2:0:0:
485,268,203301,2,0,L|493:178,1,90,2|0,0:2|3:2,0:0:0:0:
376,293,203617,1,0,0:2:0:0:
249,197,203775,6,0,P|253:152|253:197,1,135,10|0,0:2|0:2,0:0:0:0:
192,267,204091,6,0,B|117:272|117:272|95:284|95:284|-5:291,1,180,2|8,3:2|0:2,0:0:0:0:
155,363,204565,1,2,0:2:0:0:
2,159,204723,1,0,3:2:0:0:
15,289,204880,1,0,3:2:0:0:
86,72,205038,70,0,B|100:29|83:7|83:7|66:32|86:73,1,135,14|0,0:2|0:2,0:0:0:0:
93,154,205354,5,4,3:1:0:0:
205,58,205512,1,0,0:2:0:0:
304,171,205670,1,8,0:2:0:0:
192,267,205828,1,0,3:2:0:0:
196,164,205986,5,8,0:2:0:0:
196,164,206144,1,0,3:2:0:0:
400,283,206301,5,2,3:2:0:0:
304,171,206459,1,8,0:2:0:0:
192,267,206617,1,0,3:2:0:0:
287,382,206775,1,0,3:2:0:0:
301,280,206933,69,8,0:2:0:0:
301,280,207091,1,0,3:2:0:0:
405,84,207249,5,2,3:2:0:0:
304,171,207407,1,8,0:2:0:0:
226,4,207565,5,0,3:2:0:0:
307,74,207723,1,8,0:2:0:0:
59,152,207880,5,2,3:2:0:0:
137,62,208038,1,0,3:2:0:0:
33,42,208196,1,8,0:2:0:0:
165,163,208354,1,0,3:2:0:0:
0,221,208512,69,8,0:2:0:0:
0,221,208670,1,0,3:2:0:0:
246,224,208828,5,2,3:2:0:0:
165,163,208986,1,8,0:2:0:0:
101,239,209144,1,0,3:2:0:0:
182,300,209302,1,0,3:2:0:0:
308,141,209459,5,12,0:2:0:0:
349,384,209617,1,8,0:3:0:0:
349,384,209696,1,8,0:3:0:0:
349,384,209775,5,8,0:2:0:0:
454,245,209933,1,4,3:3:0:0:
308,141,210091,1,2,3:3:0:0:
246,224,210249,1,2,3:3:0:0:
246,224,210328,1,2,3:3:0:0:
246,224,210407,70,0,L|357:233,1,90,4|0,3:1|3:2,0:0:0:0:
452,70,210723,2,0,L|362:62,1,90,8|4,0:2|3:3,0:0:0:0:
344,42,210959,1,4,3:3:0:0:
325,22,211038,2,0,L|235:14,1,90,0|0,3:2|3:2,0:0:0:0:
59,152,211354,5,8,0:2:0:0:
161,162,211512,1,0,3:2:0:0:
47,69,211670,6,0,B|62:139|62:139|56:163|56:163|77:252,1,180,0|8,3:2|0:2,0:0:0:0:
204,341,212144,1,2,3:3:0:0:
197,335,212223,1,2,3:3:0:0:
190,328,212301,2,0,L|85:354,1,90,0|0,3:2|3:2,0:0:0:0:
226,233,212617,5,8,0:2:0:0:
311,381,212775,1,0,3:2:0:0:
485,226,212933,70,0,L|397:204,1,90,4|0,3:2|3:2,0:0:0:0:
251,55,213249,2,0,L|163:76,1,90,8|4,0:2|3:3,0:0:0:0:
161,162,213486,1,4,3:3:0:0:
161,162,213565,2,0,L|248:140,1,90,0|0,3:2|3:2,0:0:0:0:
396,20,213880,5,8,0:2:0:0:
251,55,214038,1,0,3:2:0:0:
415,291,214196,6,0,B|408:245|444:216|444:216|438:215|438:215|484:181|466:115,1,180,0|12,3:2|0:2,0:0:0:0:
292,244,214670,1,0,3:2:0:0:
120,72,214828,5,8,0:2:0:0:
60,131,214933,5,8,0:2:0:0:
74,213,215038,69,8,0:2:0:0:
165,284,215144,5,6,3:3:0:0:
204,322,215249,5,6,3:3:0:0:
195,376,215354,5,6,3:3:0:0:
96,361,215459,69,6,3:2:0:0:
190,178,215933,5,2,0:2:0:0:
280,0,216407,5,2,0:2:0:0:
190,178,216880,5,2,0:2:0:0:
469,192,217354,69,2,0:2:0:0:
367,142,217670,1,2,0:2:0:0:
97,362,217986,5,2,0:2:0:0:
291,205,218459,5,2,0:2:0:0:
68,114,218933,5,2,0:2:0:0:
147,232,219407,69,2,0:2:0:0:
255,0,219880,6,0,P|256:52|256:0,1,157.5,2|0,0:2|0:2,0:0:0:0:
256,27,220512,5,2,0:2:0:0:
256,251,220828,5,2,0:2:0:0:
256,139,221143,69,2,0:2:0:0:
256,363,221458,5,2,0:2:0:0:
256,363,221617,1,2,0:2:0:0:
368,192,221933,5,2,0:2:0:0:
144,192,222249,5,2,0:2:0:0:
256,363,222565,69,2,0:2:0:0:
256,363,222723,1,2,0:2:0:0:
432,48,223038,5,2,0:2:0:0:
432,336,223354,37,2,0:2:0:0:
80,336,223670,5,2,0:2:0:0:
80,48,223986,5,2,0:2:0:0:
256,192,224144,5,2,0:2:0:0:
482,130,225407,6,0,B|506:201|447:256|447:256|406:307|430:359|481:373|481:373|534:318|494:263|447:256|447:256|365:217|375:142|375:142|413:108|424:37|363:-13|363:-13|211:26|211:26|183:66|198:138|253:169|253:169|196:102|241:37,1,1214.99996292114,4|0,3:2|0:2,0:0:0:0:
13,271,228091,6,0,B|81:289|85:351|86:376|86:376|85:351|68:300|120:247|177:243|177:243|253:169|253:169|137:46|137:46|26:152|26:152|84:218,1,809.999975280763,4|0,3:2|0:2,0:0:0:0:
142,162,229986,6,0,P|137:170|138:160,3,22.5,8|0|0|0,0:2|3:2|3:2|3:2,0:0:0:0:
184,346,230301,6,0,P|189:354|188:344,3,22.5,2|2|2|2,3:3|3:3|3:3|3:3,0:0:0:0:
374,249,230617,69,4,3:1:0:0:
142,162,230775,1,0,3:2:0:0:
390,255,230933,1,0,3:2:0:0:
55,306,231091,5,12,0:2:0:0:
258,143,231249,1,0,3:2:0:0:
40,318,231407,1,0,3:2:0:0:
154,65,231565,5,8,0:2:0:0:
216,230,231723,1,0,3:2:0:0:
43,202,231880,1,0,3:2:0:0:
367,6,232038,5,12,0:2:0:0:
431,171,232195,1,0,3:2:0:0:
258,143,232354,1,0,3:2:0:0:
467,67,232512,69,8,0:2:0:0:
395,279,232670,1,0,3:2:0:0:
367,6,232828,5,8,0:2:0:0:
495,339,232986,1,0,3:2:0:0:
258,143,233144,5,12,0:1:0:0:
467,67,233301,1,0,3:2:0:0:
244,148,233459,1,0,3:2:0:0:
431,171,233617,5,12,0:2:0:0:
206,0,233775,1,0,3:2:0:0:
440,177,233932,1,0,3:2:0:0:
136,289,234091,69,12,0:1:0:0:
244,148,234249,1,0,3:2:0:0:
504,321,234407,5,8,0:2:0:0:
497,328,234486,1,8,0:2:0:0:
490,335,234565,2,0,L|485:400,1,49.5000015106202,8|8,0:2|0:2,0:0:0:0:
322,224,234723,5,6,3:3:0:0:
329,231,234802,1,6,3:3:0:0:
336,238,234881,2,0,L|341:303,1,49.5000015106202,6|6,3:3|3:3,0:0:0:0:
467,67,235038,5,8,0:2:0:0:
26,86,235512,70,0,L|88:76,1,49.5000015106202,2|0,0:2|0:2,0:0:0:0:
23,97,235670,6,0,B|111:83|111:83|125:69|125:69|239:51,1,175.499991966248,6|0,3:2|0:2,0:0:0:0:
278,46,235986,1,10,0:2:0:0:
447,275,236144,2,0,P|477:215|464:159,1,116.999994644165,2|0,0:2|3:2,0:0:0:0:
278,46,236459,1,2,3:2:0:0:
392,208,236617,1,8,0:2:0:0:
140,326,236775,6,0,B|105:262|146:213|146:213|163:135|73:97,1,233.999989288331,2|2,3:2|3:2,0:0:0:0:
312,326,237249,2,0,B|233:332|233:332|207:321|207:321|100:328,1,175.499991966248,8|0,0:2|0:0,0:0:0:0:
45,327,237565,1,2,3:2:0:0:
106,115,237723,1,0,3:2:0:0:
298,298,237880,6,0,P|315:352|295:300,1,175.499991966248,10|0,0:2|0:2,0:0:0:0:
220,240,238196,70,0,L|209:123,1,116.999994644165,6|0,3:1|0:2,0:0:0:0:
139,325,238512,1,10,0:2:0:0:
322,149,238670,2,0,B|373:101|442:140|442:140|448:208,1,175.499991966248,2|0,0:2|0:2,0:0:0:0:
453,267,238986,1,2,3:2:0:0:
322,149,239144,1,8,0:2:0:0:
140,325,239301,6,0,B|128:222|128:222|111:199|111:199|100:78,1,233.999989288331,2|0,3:2|3:2,0:0:0:0:
330,250,239775,2,0,B|357:286|357:286|339:327|339:327|315:288|315:288|331:246,1,175.499991966248,14|0,0:1|0:2,0:0:0:0:
322,149,240091,2,0,L|310:15,1,116.999994644165,2|8,3:2|0:3,0:0:0:0:
205,159,240328,5,8,0:3:0:0:
205,159,240407,2,0,L|339:147,1,116.999994644165,8|8,0:3|0:3,0:0:0:0:
449,14,240644,1,8,0:3:0:0:
449,14,240723,6,0,P|422:67|437:119,1,99.0000030212403,6|0,3:1|0:0,0:0:0:0:
503,196,241038,1,8,0:2:0:0:
296,323,241196,2,0,B|349:345|392:303|392:303|451:282|496:342,1,198.000006042481,2|0,0:2|0:2,0:0:0:0:
321,148,241670,70,0,L|155:162,1,148.50000453186,10|0,0:2|0:2,0:0:0:0:
156,179,241986,6,0,L|283:168,1,99.0000030212403,2|0,3:2|0:2,0:0:0:0:
79,48,242301,1,8,0:2:0:0:
79,283,242459,2,0,L|206:272,1,99.0000030212403,2|0,0:2|3:2,0:0:0:0:
2,152,242774,1,0,0:0:0:0:
296,323,242933,6,0,P|265:363|290:319,1,148.50000453186,10|0,0:2|0:2,0:0:0:0:
329,246,243249,6,0,L|320:147,1,99.0000030212403,6|0,3:2|0:0,0:0:0:0:
462,284,243565,1,8,0:2:0:0:
446,129,243723,2,0,L|436:30,1,99.0000030212403,2|0,0:2|3:0,0:0:0:0:
463,296,244038,1,0,0:2:0:0:
202,147,244196,70,0,P|257:42|368:53,1,198.000006042481,10|0,0:2|3:2,0:0:0:0:
454,208,244670,1,0,3:2:0:0:
262,331,244828,6,0,B|203:320|203:320|179:325|179:325|87:307,1,148.50000453186,14|0,0:1|0:2,0:0:0:0:
53,241,245144,2,0,L|74:144,1,99.0000030212403,4|0,3:3|0:3,0:0:0:0:
98,38,245380,5,8,0:2:0:0:
98,38,245459,1,8,0:2:0:0:
287,245,245617,6,0,B|363:258|363:258|379:174|379:174|279:154,1,233.999989288331,4|0,3:2|3:2,0:0:0:0:
53,241,246091,69,8,0:2:0:0:
217,177,246249,1,0,3:2:0:0:
26,361,246407,5,10,0:2:0:0:
79,126,246565,2,0,L|53:240,1,116.999994644165,2|8,3:2|0:2,0:2:0:0:
99,38,246880,1,2,3:2:0:0:
287,245,247038,5,8,0:2:0:0:
195,73,247195,1,0,3:2:0:0:
145,298,247354,5,10,0:2:0:0:
316,0,247511,1,0,3:2:0:0:
145,298,247670,69,10,0:2:0:0:
287,245,247828,1,0,3:2:0:0:
430,192,247986,1,10,0:2:0:0:
195,73,248144,6,0,B|130:31|64:88|64:88|167:164,1,233.999989288331,4|0,3:2|3:2,0:0:0:0:
369,95,248617,5,10,0:2:0:0:
220,150,248775,1,0,3:2:0:0:
449,291,248933,5,10,0:2:0:0:
287,245,249091,1,0,3:2:0:0:
394,0,249249,69,10,0:2:0:0:
430,192,249407,1,0,3:2:0:0:
125,20,249565,5,10,0:2:0:0:
89,211,249723,1,0,3:2:0:0:
350,294,249880,6,0,P|299:280|229:319,1,116.999994644165,10|8,0:2|0:3,0:0:0:0:
148,357,250117,1,8,0:3:0:0:
148,357,250196,2,0,P|95:380|39:366,1,116.999994644165,10|4,0:2|3:3,0:0:0:0:
300,360,250512,1,2,3:2:0:0:
136,58,250670,6,0,B|103:12|40:15|40:15|197:8|197:8|232:24|232:24|322:18,1,396.000012084961,4|0,3:2|3:0,0:0:0:0:
388,79,251380,1,0,3:0:0:0:
388,79,251459,69,8,0:0:0:0:
302,263,251617,1,0,3:2:0:0:
322,17,251775,5,8,0:2:0:0:
385,318,251933,1,4,3:1:0:0:
385,318,252249,5,8,0:2:0:0:
412,335,252327,1,8,0:2:0:0:
444,336,252406,1,8,0:2:0:0:
472,319,252485,1,8,0:2:0:0:
488,291,252565,2,0,L|472:211,1,58.4999973220826,0|0,3:3|3:3,0:0:0:0:
211,108,252723,6,0,L|291:124,1,58.4999973220826,8|8,0:2|0:2,0:0:0:0:
313,205,252880,2,0,L|297:285,1,58.4999973220826,8|8,0:2|0:2,0:0:0:0:
226,311,253038,2,0,L|168:299,1,58.4999973220826,8|8,0:2|0:2,0:0:0:0:
0,149,253196,70,0,B|96:169|96:169|120:192|120:192|244:216,1,233.999989288331,4|0,3:1|3:0,0:0:0:0:
414,8,253670,2,0,P|431:91|384:162,1,175.499991966248,8|0,0:2|0:2,0:0:0:0:
313,205,253986,5,0,3:2:0:0:
48,253,254144,1,0,3:2:0:0:
180,104,254301,1,8,0:2:0:0:
167,353,254459,6,0,P|224:307|329:327,1,175.499991966248,0|0,3:2|0:2,0:0:0:0:
392,361,254775,1,0,3:2:0:0:
466,172,254933,2,0,P|409:218|304:198,1,175.499991966248,8|0,0:2|0:2,0:0:0:0:
241,164,255249,5,0,3:2:0:0:
422,1,255407,1,0,3:2:0:0:
376,126,255565,1,8,0:2:0:0:
135,38,255723,70,0,B|97:-1|24:9|7:59|7:59|45:107|121:95,1,233.999989288331,6|2,3:2|3:2,0:0:0:0:
241,164,256196,5,10,0:2:0:0:
76,96,256354,1,2,0:2:0:0:
257,30,256512,5,2,3:2:0:0:
118,228,256670,1,2,3:2:0:0:
76,96,256828,1,10,0:2:0:0:
230,299,256986,6,0,B|298:291|298:291|330:305|330:305|436:293,1,175.499991966248,2|0,3:2|0:2,0:0:0:0:
483,290,257301,1,0,3:2:0:0:
241,164,257459,2,0,L|417:140,1,175.499991966248,8|0,0:2|0:2,0:0:0:0:
497,129,257775,69,0,3:2:0:0:
365,51,257933,1,8,0:2:0:0:
365,51,258012,1,8,0:2:0:0:
365,51,258091,1,8,0:2:0:0:
230,299,258249,6,0,P|181:233|26:249,1,233.999989288331,4|2,3:2|3:2,0:0:0:0:
241,164,258723,5,10,0:2:0:0:
113,334,258880,1,0,0:2:0:0:
74,97,259038,5,2,3:2:0:0:
230,299,259196,1,0,0:2:0:0:
66,87,259354,1,10,0:2:0:0:
369,43,259512,70,0,L|169:70,1,175.499991966248,2|0,0:2|0:2,0:0:0:0:
152,142,259828,2,0,L|159:201,1,58.4999973220826,2|0,0:2|0:2,0:0:0:0:
352,303,259986,2,0,B|360:235|360:235|352:212|352:212|361:129,1,175.499991966248,10|0,0:2|0:2,0:0:0:0:
369,43,260301,5,2,3:2:0:0:
263,156,260459,1,2,3:2:0:0:
450,196,260617,1,10,0:2:0:0:
207,344,260775,6,0,B|144:375|144:375|99:348|99:348|141:319|141:319|205:343,1,233.999989288331,6|0,3:1|3:2,0:0:0:0:
353,210,261249,5,10,0:2:0:0:
207,344,261407,1,0,0:2:0:0:
98,188,261565,69,2,3:2:0:0:
237,251,261723,1,2,0:2:0:0:
83,181,261880,1,10,0:2:0:0:
281,29,262038,6,0,B|347:1|401:58|401:58|410:121|484:130,1,233.999989288331,2|2,0:2|0:2,0:0:0:0:
263,156,262512,5,14,0:2:0:0:
481,48,262670,1,2,3:2:0:0:
353,210,262828,2,0,L|374:342,1,116.999994644165,0|0,3:2|3:2,0:0:0:0:
453,381,263065,1,8,3:2:0:0:
453,381,263144,1,8,2:2:0:0:
141,339,263301,6,0,B|238:325|238:325|277:339|277:339|370:325,1,233.999989288331,4|0,3:2|3:2,0:0:0:0:
89,182,263775,2,0,L|288:152,1,175.499991966248,8|0,0:2|0:2,0:0:0:0:
341,144,264091,69,0,3:2:0:0:
196,46,264249,1,0,3:2:0:0:
270,246,264407,1,8,0:2:0:0:
0,194,264565,6,0,P|23:126|150:124,1,175.499991966248,0|0,3:2|0:0,0:0:0:0:
181,152,264880,1,0,3:2:0:0:
478,91,265038,6,0,P|455:23|328:21,1,175.499991966248,8|0,0:2|0:0,0:0:0:0:
297,49,265353,1,0,3:2:0:0:
470,217,265512,1,0,3:2:0:0:
394,80,265670,1,8,0:2:0:0:
315,315,265828,6,0,B|224:319|224:319|193:289|193:289|217:248|217:248|302:244,1,233.999989288331,6|2,3:2|3:2,0:0:0:0:
500,380,266301,69,10,0:2:0:0:
375,244,266459,1,2,0:2:0:0:
141,364,266617,5,2,3:2:0:0:
63,170,266775,1,2,3:2:0:0:
146,375,266933,1,10,0:2:0:0:
292,141,267091,6,0,B|192:147|192:147|165:164|165:164|43:172,1,233.999989288331,2|0,3:2|3:2,0:0:0:0:
128,79,267565,5,12,0:1:0:0:
269,245,267723,1,0,0:2:0:0:
322,39,267880,69,0,3:2:0:0:
359,19,267959,1,0,3:2:0:0:
402,18,268037,1,8,3:2:0:0:
441,37,268116,1,8,3:2:0:0:
466,72,268196,2,0,L|453:145,1,58.4999973220826,8|8,3:2|0:0,0:0:0:0:
269,245,268354,6,0,B|326:206|384:250|384:250|410:327|514:306,1,233.999989288331,6|2,3:2|3:2,0:0:0:0:
322,39,268828,5,10,0:2:0:0:
466,225,268986,1,0,0:2:0:0:
319,318,269144,5,2,3:2:0:0:
387,99,269301,1,0,0:2:0:0:
316,328,269459,1,10,0:2:0:0:
210,134,269617,70,0,P|124:106|48:166,1,175.499991966248,2|0,0:2|0:2,0:0:0:0:
10,216,269933,2,0,L|17:274,1,58.4999973220826,2|0,0:2|0:2,0:0:0:0:
163,364,270091,2,0,L|138:183,1,175.499991966248,10|0,0:2|0:2,0:0:0:0:
126,105,270407,5,2,3:2:0:0:
10,216,270565,1,2,3:2:0:0:
163,364,270723,1,10,0:2:0:0:
451,173,270880,6,0,B|424:134|365:126|329:160|329:160|312:273,1,233.999989288331,6|0,3:2|3:2,0:0:0:0:
126,105,271354,5,10,0:2:0:0:
315,255,271512,1,0,0:2:0:0:
264,45,271670,69,2,3:2:0:0:
183,256,271828,1,2,0:2:0:0:
269,33,271986,1,10,0:2:0:0:
409,267,272144,6,0,B|449:303|489:285|489:285|461:247|382:275,1,175.499991966248,2|0,0:2|0:0,0:0:0:0:
315,255,272459,5,2,3:2:0:0:
454,163,272617,1,10,0:2:0:0:
268,371,272775,1,8,0:3:0:0:
268,371,272854,1,8,0:3:0:0:
268,371,272933,5,8,0:2:0:0:
70,214,273091,1,4,3:3:0:0:
252,186,273249,1,2,3:3:0:0:
170,294,273407,1,0,3:2:0:0:
12,45,273565,70,0,B|111:64|111:64|149:52|149:52|269:73,1,251.999992309571,6|8,3:1|0:2,0:0:0:0:
466,307,274038,6,0,B|476:366|476:366|397:378|397:378|378:269,1,251.999992309571,6|0,3:2|3:2,0:0:0:0:
486,41,274512,6,0,B|480:8|480:8|335:32|335:32|353:136,1,251.999992309571,14|0,0:1|3:2,0:0:0:0:
453,222,274986,5,10,0:2:0:0:
285,368,275144,2,0,L|263:237,1,125.999996154785,0|0,3:2|3:2,0:0:0:0:
245,147,275380,69,0,3:2:0:0:
245,147,275459,1,8,0:2:0:0:
68,357,275617,6,0,B|126:267|60:189|60:189|76:195|76:195|15:91|120:5,1,377.999988464356,6|0,3:2|0:2,0:0:0:0:
256,192,276170,12,0,278617,0:2:0:0:
