osu file format v14

[General]
AudioFilename: audio.mp3
AudioLeadIn: 0
PreviewTime: 224578
Countdown: 0
SampleSet: Soft
StackLeniency: 0.4
Mode: 0
LetterboxInBreaks: 0
WidescreenStoryboard: 1

[Editor]
Bookmarks: 5617,28512,38617,48723,53775,58828,63880,68933,73828,101775,104301,114407,124512,129565,134617,139512,167459,172512,177565,182617,187670,200301,205354,210407,215459,220512,225407,230617,235670,253196,276091
DistanceSpacing: 0.3
BeatDivisor: 4
GridSize: 16
TimelineZoom: 1.3

[Metadata]
Title:Determination Symphony
TitleUnicode:Determination Symphony
Artist:Roselia
ArtistUnicode:Roselia
Creator:KeyWee
Version:Suou's Expert
Source:バンドリ! ガールズバンドパーティ!
Tags:Shirahane Suou Mocaotic Livermorium BanG Dream! Girls Band Party bandori バンドリ japanese rock j-rock jrock video game anime garupa ガルパ ロゼリア full size minato yukina 湊友希那 aiba aina 相羽あいな hikawa sayo 氷川紗夜 kudou haruka 工藤晴香 imai lisa 今井リサ endou yurika 遠藤ゆりか udagawa ako 宇田川あこ sakuragawa megu 櫻川めぐ shirokane rinko 白金燐子 akesaka satomi 明坂聡美 season 2 episode 9 Wahl version insert song
BeatmapID:3715318
BeatmapSetID:1755255

[Difficulty]
HPDrainRate:5.2
CircleSize:4.2
OverallDifficulty:9
ApproachRate:9.2
SliderMultiplier:1.9
SliderTickRate:1

[Events]
//Background and Video events
0,0,"Rinko Piano.jpg",0,0
//Break Periods
2,215659,219942
//Storyboard Layer 0 (Background)
//Storyboard Layer 1 (Fail)
//Storyboard Layer 2 (Pass)
//Storyboard Layer 3 (Foreground)
//Storyboard Layer 4 (Overlay)
//Storyboard Sound Samples

[TimingPoints]
723,315.789473684211,4,2,1,40,1,0
723,-200,4,2,1,40,0,0
1670,-133.333333333333,4,2,1,50,0,0
3249,-166.666666666667,4,2,1,60,0,0
4196,-117.647058823529,4,2,1,70,0,0
5144,-333.333333333333,4,2,1,52,0,0
5617,-105.263157894737,4,2,80,80,0,0
5933,-105.263157894737,4,2,1,80,0,0
27880,-133.333333333333,4,2,1,80,0,0
28512,-90.9090909090909,4,2,1,55,0,0
37354,-90.9090909090909,4,2,80,55,0,0
37512,-90.9090909090909,4,2,1,40,0,0
38301,-90.9090909090909,4,2,1,50,0,0
38617,-117.647058823529,4,2,1,60,0,0
50459,-117.647058823529,4,2,1,70,0,0
50933,-200,4,2,1,70,0,0
51249,-117.647058823529,4,2,1,70,0,0
53775,-153.846153846154,4,2,1,50,0,0
58354,-200,4,2,1,70,0,0
58828,-117.647058823529,4,2,1,58,0,0
63880,-105.263157894737,4,2,1,70,0,0
68933,-222.222222222223,4,2,1,50,0,0
71459,-222.222222222223,4,2,90,50,0,0
71775,-222.222222222223,4,2,1,50,0,0
73828,-90.9090909090909,4,2,80,85,0,1
74144,-90.9090909090909,4,2,1,85,0,1
79038,-117.647058823529,4,2,1,85,0,1
84091,-90.9090909090909,4,2,1,85,0,1
89144,-117.647058823529,4,2,1,85,0,1
94038,-90.9090909090909,4,2,1,85,0,1
98301,-90.9090909090909,4,2,1,85,0,1
99091,-222.222222222222,4,2,1,85,0,0
100354,-90.9090909090909,4,2,1,70,0,1
100433,-90.9090909090909,4,2,1,70,0,0
101775,-105.263157894737,4,2,1,70,0,0
103670,-133.333333333333,4,2,1,70,0,0
104301,-181.818181818181,4,2,1,70,0,0
104459,-181.818181818181,4,2,80,55,0,0
109354,-181.818181818181,4,2,1,55,0,0
109512,-181.818181818181,4,2,80,55,0,0
113144,-181.818181818181,4,2,1,55,0,0
113775,-100,4,2,1,55,0,0
114407,-117.647058823529,4,2,1,60,0,0
124512,-222.222222222221,4,2,1,35,0,0
129565,-153.846153846153,4,2,1,48,0,0
134617,-117.647058823529,4,2,1,58,0,0
137144,-105.263157894737,4,2,1,68,0,0
137459,-105.263157894737,4,2,80,68,0,0
138249,-105.263157894737,4,2,1,68,0,0
138723,-105.263157894737,4,2,1,58,0,0
139512,-90.9090909090909,4,2,80,85,0,1
139828,-90.9090909090909,4,2,1,85,0,1
144723,-117.647058823529,4,2,1,85,0,1
149775,-90.9090909090909,4,2,1,85,0,1
154828,-117.647058823529,4,2,1,85,0,1
159723,-90.9090909090909,4,2,1,85,0,1
163986,-90.9090909090909,4,2,1,85,0,1
164775,-222.222222222222,4,2,1,85,0,0
166038,-90.9090909090909,4,2,1,70,0,1
166117,-222.222222222222,4,2,1,70,0,0
167459,-90.9090909090909,4,2,1,60,0,0
172512,-133.333333333333,4,2,1,60,0,0
173459,-90.9090909090909,4,2,1,60,0,0
173617,-133.333333333333,4,2,1,60,0,0
174091,-90.9090909090909,4,2,1,60,0,0
174407,-133.333333333333,4,2,1,60,0,0
183565,-133.333333333333,4,2,80,60,0,0
185144,-133.333333333333,4,2,1,60,0,0
185617,-133.333333333333,4,2,80,60,0,0
186407,-133.333333333333,4,2,1,60,0,0
187670,-100,4,2,1,70,0,0
195249,-100,4,2,1,45,0,0
195723,-100,4,2,1,52,0,0
196196,-100,4,2,1,58,0,0
196670,-100,4,2,1,64,0,0
197144,-100,4,2,1,70,0,0
197775,-100,4,2,1,55,0,1
198249,-100,4,2,1,60,0,1
198723,-100,4,2,1,65,0,1
199196,-100,4,2,1,70,0,1
199670,-100,4,2,1,75,0,1
199986,-100,4,2,1,80,0,1
200301,-117.647058823529,4,2,1,70,0,0
205354,-133.333333333333,4,2,1,70,0,0
205670,-133.333333333333,4,2,80,70,0,0
209459,-133.333333333333,4,2,1,70,0,0
210407,-117.647058823529,4,2,1,60,0,0
215459,-222.222222222221,4,2,1,35,0,0
219880,-222.222222222221,4,2,1,40,0,0
220433,-222.222222222221,4,2,1,5,0,0
220512,-222.222222222221,4,2,1,45,0,0
225407,-399.999999999997,4,2,1,70,0,0
230617,-105.263157894737,4,2,1,70,0,0
235591,-105.263157894737,4,2,1,5,0,0
235670,-90.9090909090909,4,2,1,90,0,1
240723,-117.647058823529,4,2,1,90,0,1
245617,-90.9090909090909,4,2,1,90,0,1
249880,-90.9090909090909,4,2,1,90,0,1
250670,-222.222222222221,4,2,1,90,0,0
251933,-90.9090909090909,4,2,1,70,0,1
252012,-90.9090909090909,4,2,1,70,0,0
253196,-105.263157894737,4,2,80,80,0,0
253512,-105.263157894737,4,2,1,80,0,0
275144,-105.263157894737,4,2,80,80,0,0
275301,-105.263157894737,4,2,1,80,0,0
275617,-133.333333333333,4,2,1,80,0,0
276091,-200,4,2,1,70,0,0
277038,-133.333333333333,4,2,1,70,0,0
277986,-100,4,2,1,70,0,0
278617,-100,4,2,1,5,0,0

[Colours]
Combo1 : 239,88,92
Combo2 : 137,36,227
Combo3 : 168,109,220
Combo4 : 214,27,27

[HitObjects]
310,45,723,6,0,P|328:62|336:94,1,47.5,2|0,0:0|0:0,0:0:0:0:
418,96,1038,2,0,P|412:120|388:143,1,47.5,2|0,0:0|0:0,0:0:0:0:
427,215,1354,2,0,P|403:222|371:213,1,47.5,2|0,0:0|0:0,0:0:0:0:
197,147,1670,6,0,P|226:116|261:114,1,71.2500027179719,2|0,0:0|0:0,0:0:0:0:
128,197,1986,2,0,P|107:159|116:125,1,71.2500027179719,2|0,0:0|0:0,0:0:0:0:
154,278,2301,2,0,P|112:286|82:267,1,71.2500027179719,2|0,0:0|0:0,0:0:0:0:
239,278,2618,2,0,P|233:320|206:342,1,71.2500027179719,2|0,0:0|0:0,0:0:0:0:
265,197,2933,2,0,P|303:215|316:247,1,71.2500027179719,2|0,0:0|0:0,0:0:0:0:
512,346,3249,6,0,P|484:353|457:363,1,56.9999982604981,2|0,0:0|0:0,0:0:0:0:
366,384,3565,2,0,P|372:356|378:328,1,56.9999982604981,2|0,0:0|0:0,0:0:0:0:
406,238,3880,2,0,P|426:257|448:276,1,56.9999982604981,2|0,0:0|0:0,0:0:0:0:
288,329,4196,6,0,P|250:304|210:312,1,80.750001540184,2|0,0:0|0:0,0:0:0:0:
150,131,4512,2,0,P|147:176|174:207,1,80.750001540184,2|0,0:0|0:0,0:0:0:0:
47,349,4828,2,0,P|87:328|100:289,1,80.750001540184,2|0,0:0|0:0,0:0:0:0:
244,153,5144,6,0,L|275:145,2,28.4999991302491,2|2|2,0:0|0:0|0:0,0:0:0:0:
408,347,5617,6,0,B|451:317|451:317|470:234|401:177,1,180.49999518013,4|0,3:1|3:0,0:0:0:0:
302,65,6091,1,10,0:2:0:0:
247,283,6249,2,0,L|345:257,1,90.2499975900651,2|0,0:0|3:2,0:0:0:0:
164,181,6565,1,2,3:2:0:0:
192,359,6723,2,0,P|233:388|284:377,1,90.2499975900651,10|0,0:2|3:2,0:0:0:0:
272,145,7038,5,2,0:0:0:0:
113,279,7196,2,0,L|89:366,1,90.2499975900651,2|8,3:2|0:2,0:0:0:0:
247,283,7512,1,2,0:0:0:0:
82,187,7670,2,0,P|37:182|0:205,1,90.2499975900651,2|0,3:2|3:2,0:0:0:0:
187,215,7986,1,10,0:2:0:0:
40,6,8144,6,0,B|2:44|2:44|54:109|137:55,1,180.49999518013,6|2,3:2|3:2,0:0:0:0:
277,187,8617,1,10,0:2:0:0:
228,13,8775,2,0,L|207:121,1,90.2499975900651,2|0,0:2|3:2,0:0:0:0:
169,296,9091,1,2,3:2:0:0:
0,204,9249,2,0,P|37:181|82:187,1,90.2499975900651,10|0,0:2|3:2,0:0:0:0:
266,314,9565,5,2,0:0:0:0:
77,371,9723,2,0,L|57:266,1,90.2499975900651,2|8,3:2|0:2,0:0:0:0:
192,196,10038,1,2,0:0:0:0:
30,44,10196,2,0,L|18:100,1,45.1249987950325,2|0,3:2|0:0,0:0:0:0:
82,187,10354,1,8,0:2:0:0:
93,184,10432,1,8,0:2:0:0:
105,182,10511,1,8,0:2:0:0:
226,32,10670,6,0,B|287:49|287:49|306:95|306:95|401:118,1,180.49999518013,6|2,3:2|3:2,0:0:0:0:
502,269,11144,2,0,P|446:261|395:336,1,135.374996385098,10|0,0:2|0:0,0:0:0:0:
394,345,11459,1,2,3:2:0:0:
471,160,11617,1,0,0:2:0:0:
475,355,11775,1,10,0:2:0:0:
320,219,11933,6,0,B|226:200|226:200|175:234|217:304,1,180.49999518013,2|2,0:2|0:2,0:0:0:0:
333,131,12407,2,0,P|355:81|283:17,1,135.374996385098,10|0,0:2|0:2,0:0:0:0:
282,19,12723,1,2,3:2:0:0:
412,191,12880,2,0,P|456:211|503:184,1,90.2499975900651,2|10,3:2|0:2,0:0:0:0:
244,107,13196,6,0,L|41:149,1,180.49999518013,6|0,3:1|3:2,0:0:0:0:
136,305,13670,2,0,L|157:203,1,90.2499975900651,10|0,0:2|0:2,0:0:0:0:
62,362,13986,1,2,3:2:0:0:
239,275,14144,1,2,0:2:0:0:
67,143,14301,2,0,L|48:231,1,90.2499975900651,10|2,0:2|0:2,0:0:0:0:
212,384,14617,6,0,L|314:363,1,90.2499975900651,0|2,3:0|0:2,0:0:0:0:
154,216,14933,2,0,L|136:305,1,90.2499975900651,14|2,0:2|3:2,0:0:0:0:
222,143,15249,1,0,3:2:0:0:
201,116,15328,1,0,3:2:0:0:
171,101,15407,1,8,3:2:0:0:
137,101,15486,1,8,3:2:0:0:
107,116,15564,1,8,3:2:0:0:
239,275,15723,6,0,B|304:259|304:259|323:213|323:213|384:196,1,180.49999518013,4|0,3:2|3:2,0:0:0:0:
512,268,16196,1,10,0:2:0:0:
378,384,16354,2,0,L|394:286,1,90.2499975900651,2|0,0:0|3:2,0:0:0:0:
426,109,16670,1,2,3:2:0:0:
304,247,16828,2,0,P|259:257|207:214,1,90.2499975900651,10|0,0:2|3:2,0:0:0:0:
118,131,17144,5,2,0:0:0:0:
287,62,17301,2,0,L|272:151,1,90.2499975900651,2|8,3:2|0:2,0:0:0:0:
107,229,17617,1,2,0:2:0:0:
111,33,17775,2,0,P|157:34|197:88,1,90.2499975900651,2|0,3:2|3:2,0:0:0:0:
304,247,18091,1,10,0:2:0:0:
21,154,18249,6,0,B|3:184|-21:208|-21:208|9:260|28:323,1,180.49999518013,6|2,3:2|3:2,0:0:0:0:
195,306,18723,1,10,0:2:0:0:
125,140,18880,2,0,L|104:242,1,90.2499975900651,2|0,0:2|3:2,0:0:0:0:
282,169,19196,1,2,3:2:0:0:
143,42,19354,2,0,P|82:45|55:75,1,90.2499975900651,10|0,0:2|3:2,0:0:0:0:
200,204,19670,5,2,0:2:0:0:
340,89,19828,2,0,L|319:-13,1,90.2499975900651,2|12,3:2|0:1,0:0:0:0:
212,105,20144,1,2,0:2:0:0:
368,197,20301,2,0,L|429:181,1,45.1249987950325,2|0,3:2|3:2,0:0:0:0:
490,111,20459,1,8,3:2:0:0:
500,113,20537,1,8,3:2:0:0:
511,116,20616,1,8,3:2:0:0:
343,313,20775,6,0,B|307:278|252:296|252:296|245:355|182:394,1,180.49999518013,6|2,3:2|3:2,0:0:0:0:
34,238,21249,2,0,P|101:221|152:286,1,135.374996385098,10|0,0:2|0:0,0:0:0:0:
157,294,21565,1,2,3:2:0:0:
317,180,21723,1,0,0:2:0:0:
137,116,21880,1,10,0:2:0:0:
257,294,22038,6,0,L|433:254,1,180.49999518013,2|2,0:2|0:2,0:0:0:0:
329,57,22512,2,0,P|284:94|303:174,1,135.374996385098,10|0,0:2|0:2,0:0:0:0:
317,180,22828,1,2,3:2:0:0:
199,33,22986,2,0,P|157:12|103:37,1,90.2499975900651,2|10,3:2|0:2,0:0:0:0:
8,203,23301,6,0,B|73:187|73:187|92:141|92:141|156:126,1,180.49999518013,6|0,3:2|3:2,0:0:0:0:
16,13,23775,2,0,L|-1:105,1,90.2499975900651,10|0,0:2|0:2,0:0:0:0:
156,221,24091,1,2,3:2:0:0:
117,23,24249,1,2,0:2:0:0:
267,146,24407,2,0,P|322:152|356:120,1,90.2499975900651,10|2,0:2|0:2,0:0:0:0:
512,0,24723,5,0,3:0:0:0:
291,58,24880,1,2,3:2:0:0:
462,197,25038,1,10,0:2:0:0:
402,24,25196,1,8,0:3:0:0:
398,13,25275,1,8,0:3:0:0:
395,3,25354,5,8,0:2:0:0:
267,146,25512,1,4,3:3:0:0:
435,112,25670,5,2,3:3:0:0:
291,58,25828,1,0,3:2:0:0:
216,269,25986,6,0,L|363:235,1,135.374996385098,6|0,3:1|0:0,0:0:0:0:
382,232,26301,1,8,0:2:0:0:
135,213,26459,2,0,P|106:276|143:334,1,135.374996385098,6|0,3:2|0:0,0:0:0:0:
162,346,26775,1,0,3:2:0:0:
240,166,26933,6,0,L|206:19,1,135.374996385098,14|0,0:1|0:0,0:0:0:0:
203,0,27248,1,0,3:2:0:0:
434,172,27407,2,0,L|400:319,1,135.374996385098,10|0,0:2|0:0,0:0:0:0:
395,339,27722,1,0,3:2:0:0:
343,114,27880,5,10,0:2:0:0:
479,384,28038,2,0,L|301:364,1,178.12500679493,6|0,3:2|0:2,0:0:0:0:
238,312,28512,5,6,3:2:0:0:
92,369,28670,1,2,3:2:0:0:
115,214,28828,1,10,0:2:0:0:
115,214,29459,1,10,0:2:0:0:
115,214,30091,2,0,L|105:183,1,26.1250007972718,8|8,0:2|0:0,0:0:0:0:
115,214,30723,1,10,0:2:0:0:
389,153,31038,5,2,3:2:0:0:
243,96,31196,1,2,3:2:0:0:
266,251,31354,1,10,0:2:0:0:
266,251,31986,1,10,0:2:0:0:
266,251,32617,2,0,L|273:223,1,26.1250007972718,8|8,0:2|0:0,0:0:0:0:
266,251,33249,1,10,0:2:0:0:
16,384,33565,5,6,3:2:0:0:
39,229,33723,1,2,3:2:0:0:
162,327,33881,1,10,0:2:0:0:
162,327,34512,1,10,0:2:0:0:
162,327,35144,1,8,0:2:0:0:
162,327,35775,1,10,0:2:0:0:
356,39,36091,5,2,3:2:0:0:
502,96,36249,1,2,3:2:0:0:
379,194,36407,1,10,0:2:0:0:
379,194,37038,1,10,0:2:0:0:
477,324,37196,1,0,3:2:0:0:
471,349,37274,1,0,3:2:0:0:
466,375,37353,5,12,0:2:0:0:
466,375,38301,1,8,0:2:0:0:
471,349,38380,1,8,0:2:0:0:
477,324,38459,1,8,0:2:0:0:
482,298,38538,1,8,0:2:0:0:
487,272,38617,6,0,L|465:168,1,80.750001540184,4|0,3:2|0:2,0:0:0:0:
279,273,38933,2,0,B|365:293|365:293|402:255|375:204,1,161.500003080368,8|0,0:2|3:2,0:0:0:0:
234,197,39407,1,2,0:2:0:0:
335,89,39565,2,0,P|324:128|317:167,1,80.750001540184,8|2,0:0|0:2,0:0:0:0:
166,284,39880,6,0,P|150:198|128:115,1,161.500003080368,2|10,3:2|0:2,0:0:0:0:
0,222,40354,2,0,P|43:230|84:241,1,80.750001540184,2|0,0:2|3:2,0:0:0:0:
190,49,40670,2,0,P|146:40|105:30,1,80.750001540184,2|10,0:2|0:2,0:0:0:0:
234,197,40986,1,10,0:3:0:0:
234,197,41065,1,8,0:3:0:0:
234,197,41144,6,0,P|260:166|246:113,1,80.750001540184,0|2,3:2|0:2,0:0:0:0:
166,284,41459,2,0,P|252:300|335:322,1,161.500003080368,8|0,0:2|3:2,0:0:0:0:
420,191,41933,1,2,0:2:0:0:
494,298,42091,2,0,P|454:287|415:280,1,80.750001540184,10|2,0:2|0:2,0:0:0:0:
363,105,42407,6,0,P|437:85|494:138,1,161.500003080368,2|10,3:2|0:2,0:0:0:0:
337,197,42880,1,2,0:2:0:0:
196,40,43038,2,0,L|208:-20,1,40.375000770092,0|0,3:2|0:0,0:0:0:0:
265,117,43196,1,10,0:3:0:0:
263,126,43274,1,8,0:3:0:0:
261,136,43353,1,8,0:3:0:0:
98,29,43512,6,0,B|82:53|54:70|54:70|80:117|92:178,1,161.500003080368,6|0,3:2|3:2,0:0:0:0:
0,302,43986,2,0,P|42:256|100:271,1,121.125002310276,10|0,0:2|0:2,0:0:0:0:
105,282,44301,2,0,L|26:263,1,80.750001540184,2|0,3:2|0:2,0:0:0:0:
184,215,44617,1,10,0:2:0:0:
144,364,44775,1,2,0:2:0:0:
284,237,44933,6,0,L|265:158,1,80.750001540184,0|0,3:2|0:0,0:0:0:0:
135,40,45249,2,0,B|123:84|123:84|187:122|236:48,1,161.500003080368,8|0,0:2|3:2,0:0:0:0:
362,175,45723,1,0,0:2:0:0:
350,0,45880,2,0,L|331:79,1,80.750001540184,10|10,0:2|0:2,0:0:0:0:
310,102,46117,1,8,0:2:0:0:
310,102,46196,6,0,P|371:83|442:141,1,161.500003080368,2|8,3:2|0:2,0:0:0:0:
350,315,46670,2,0,B|320:218|320:218|369:167,1,161.500003080368,2|0,0:2|0:2,0:0:0:0:
427,254,47144,1,10,0:2:0:0:
264,348,47301,6,0,B|220:335|220:335|208:309|208:309|154:293,1,121.125002310276,2|0,0:0|0:0,0:0:0:0:
98,329,47617,1,2,0:2:0:0:
98,329,47696,1,2,0:2:0:0:
98,329,47775,1,10,0:2:0:0:
283,260,47933,1,8,0:3:0:0:
302,242,48011,1,8,0:3:0:0:
303,217,48091,6,0,P|280:196|235:195,1,40.375000770092,8|0,0:2|0:0,0:0:0:0:
226,49,48249,2,0,P|197:58|173:97,1,40.375000770092,4|0,3:3|0:0,0:0:0:0:
74,32,48407,2,0,P|67:61|89:101,1,40.375000770092,2|0,3:3|0:0,0:0:0:0:
0,136,48565,2,0,P|22:156|67:157,1,40.375000770092,0|0,3:2|0:0,0:0:0:0:
134,149,48723,6,0,B|170:193|170:193|130:294,1,161.500003080368,4|8,3:2|0:2,0:0:0:0:
300,383,49196,2,0,B|264:339|264:339|304:238,1,161.500003080368,4|0,3:1|3:2,0:0:0:0:
497,277,49670,2,0,P|493:339|433:352,1,121.125002310276,12|0,2:2|0:0,0:0:0:0:
373,319,49986,5,8,0:2:0:0:
442,168,50144,1,6,3:3:0:0:
439,158,50222,1,0,3:0:0:0:
437,148,50301,1,0,3:0:0:0:
210,202,50459,2,0,P|260:193|303:249,1,121.125002310276,2|0,3:3|0:0,0:0:0:0:
279,316,50775,1,4,3:3:0:0:
152,120,50933,6,0,P|144:82|167:49,1,71.25,2|0,3:3|0:0,0:0:0:0:
228,14,51249,6,0,B|285:33|285:33|300:70|300:70|364:90,1,161.500003080368,4|8,3:2|0:2,0:0:0:0:
512,196,51723,2,0,B|455:215|455:215|440:252|440:252|376:272,1,161.500003080368,4|0,3:1|3:2,0:0:0:0:
223,217,52196,2,0,P|277:240|265:313,1,121.125002310276,12|0,0:2|0:0,0:0:0:0:
218,350,52512,6,0,L|110:326,1,107.666668720245,4|8,3:1|0:2,0:0:0:0:
55,270,52828,5,8,0:2:0:0:
44,251,52933,6,0,P|43:222|63:192,1,53.8333343601227,8|8,0:2|0:2,0:0:0:0:
189,113,53144,5,4,3:3:0:0:
178,132,53249,6,0,P|153:147|117:145,1,53.8333343601227,4|4,3:3|3:3,0:0:0:0:
9,69,53459,5,2,3:3:0:0:
23,49,53565,5,2,3:3:0:0:
42,45,53670,5,2,3:3:0:0:
59,52,53775,6,0,L|49:118,1,61.7499971733095,6|0,3:2|0:0,0:0:0:0:
141,246,54091,2,0,L|131:312,1,61.7499971733095,2|0,3:2|3:2,0:0:0:0:
260,170,54407,1,10,0:2:0:0:
260,170,54723,1,2,3:2:0:0:
189,113,54880,2,0,P|156:109|119:131,1,61.7499971733095,0|2,3:2|0:2,0:0:0:0:
226,253,55196,2,0,P|285:261|330:222,1,123.499994346619,8|0,0:2|3:2,0:0:0:0:
336,129,55670,5,10,0:2:0:0:
353,328,55828,1,0,3:2:0:0:
353,328,56301,6,0,L|424:345,1,61.7499971733095,6|0,3:2|0:0,0:0:0:0:
330,222,56617,2,0,L|401:239,1,61.7499971733095,2|0,3:2|3:2,0:0:0:0:
264,308,56933,1,10,0:2:0:0:
264,308,57249,1,2,3:2:0:0:
236,213,57407,2,0,P|245:173|278:148,1,61.7499971733095,0|0,3:2|0:2,0:0:0:0:
169,289,57723,2,0,P|138:318|51:296,1,123.499994346619,10|0,0:2|3:2,0:0:0:0:
40,122,58196,5,8,0:2:0:0:
104,230,58354,2,0,B|85:211|49:209|49:209|85:201|104:176,1,118.75,4|0,3:2|0:0,0:0:0:0:
155,129,58828,6,0,B|241:109|218:187|322:153,1,161.500003080368,6|10,3:1|0:2,0:0:0:0:
333,11,59301,2,0,P|296:33|281:91,1,80.750001540184,2|0,0:2|3:2,0:0:0:0:
393,168,59617,2,0,P|391:125|349:83,1,80.750001540184,2|8,0:2|0:2,0:0:0:0:
327,244,59933,1,2,0:2:0:0:
485,129,60091,6,0,B|531:85|481:23|481:23|422:67,1,161.500003080368,2|10,3:2|0:2,0:0:0:0:
307,157,60565,1,2,0:2:0:0:
462,233,60723,2,0,B|484:292|484:292|471:331|471:331|498:398,1,161.500003080368,0|8,3:2|0:2,0:0:0:0:
327,244,61196,1,8,0:3:0:0:
327,244,61275,1,8,0:3:0:0:
327,244,61354,6,0,B|234:226|234:226|220:271|185:296,1,161.500003080368,6|10,3:1|0:2,0:0:0:0:
307,157,61827,2,0,P|312:120|278:69,1,80.750001540184,2|0,0:2|3:2,0:0:0:0:
149,0,62144,2,0,L|176:102,1,80.750001540184,2|8,0:2|0:2,0:0:0:0:
252,0,62459,1,2,0:2:0:0:
79,102,62617,6,0,L|-23:75,1,80.750001540184,2|0,3:2|0:0,0:0:0:0:
146,193,62933,2,0,L|44:220,1,80.750001540184,10|2,0:2|3:2,0:0:0:0:
170,78,63249,1,8,0:2:0:0:
206,63,63327,1,4,3:3:0:0:
244,75,63406,1,4,3:3:0:0:
266,108,63485,1,4,3:3:0:0:
263,147,63565,1,2,3:3:0:0:
261,158,63643,1,2,3:3:0:0:
259,169,63722,1,2,3:3:0:0:
257,180,63801,1,2,3:3:0:0:
255,191,63880,6,0,L|269:286,1,90.2499975900651,12|0,0:2|3:2,0:0:0:0:
458,344,64196,1,0,3:2:0:0:
337,134,64354,2,0,L|365:325,1,180.49999518013,12|0,0:1|3:2,0:0:0:0:
512,131,64828,6,0,L|417:117,1,90.2499975900651,8|0,0:2|3:2,0:0:0:0:
255,191,65144,1,0,3:2:0:0:
359,35,65301,1,12,0:1:0:0:
467,226,65459,2,0,L|372:212,1,90.2499975900651,0|0,3:2|3:2,0:0:0:0:
218,50,65775,5,8,0:2:0:0:
255,191,65933,1,0,3:2:0:0:
99,97,66091,1,8,0:2:0:0:
136,238,66249,1,0,3:2:0:0:
309,104,66407,6,0,P|355:97|401:129,1,90.2499975900651,12|0,0:2|3:2,0:0:0:0:
358,308,66723,1,0,3:2:0:0:
255,191,66880,2,0,L|465:227,1,180.49999518013,8|0,0:1|3:2,0:0:0:0:
284,382,67354,6,0,L|266:277,1,90.2499975900651,12|0,0:1|3:2,0:0:0:0:
230,104,67670,1,0,3:2:0:0:
105,248,67828,2,0,B|32:273|3:195|3:195|75:168,1,180.49999518013,8|0,0:1|3:2,0:0:0:0:
191,25,68301,5,8,0:2:0:0:
265,27,68407,5,8,0:2:0:0:
314,92,68512,5,8,0:2:0:0:
286,164,68617,5,4,3:3:0:0:
265,187,68723,5,2,3:3:0:0:
240,188,68828,5,2,3:3:0:0:
167,149,68933,6,0,P|183:119|244:108,2,85.4999973907472,4|2|2,3:2|0:2|0:2,0:0:0:0:
265,276,69880,1,2,0:2:0:0:
335,219,70038,2,0,P|306:188|264:186,1,85.4999973907472,2|2,0:2|0:2,0:0:0:0:
200,333,70670,2,0,P|228:363|270:365,1,85.4999973907472,2|2,0:2|0:2,0:0:0:0:
265,276,71144,1,2,0:2:0:0:
89,273,71459,6,0,P|68:301|74:354,2,85.4999973907472,6|2|2,0:2|0:2|0:2,0:0:0:0:
249,143,72407,1,2,0:2:0:0:
158,83,72565,1,2,0:2:0:0:
512,311,73828,6,0,B|456:318|412:281|412:281|413:354|365:385,1,209.000006378174,4|0,3:1|3:2,0:0:0:0:
156,320,74301,1,10,0:2:0:0:
311,177,74459,2,0,P|297:227|285:278,1,104.500003189087,2|0,0:2|3:2,0:0:0:0:
229,101,74775,1,2,3:2:0:0:
405,265,74933,1,8,0:2:0:0:
156,320,75091,6,0,B|52:289|52:289|24:214|95:179,1,209.000006378174,2|2,3:2|3:2,0:0:0:0:
286,278,75565,2,0,P|304:331|276:385,1,104.500003189087,8|0,0:2|0:0,0:0:0:0:
182,202,75880,1,2,3:2:0:0:
287,369,76038,1,0,3:2:0:0:
436,200,76196,2,0,P|416:124|400:47,1,156.750004783631,10|0,0:2|0:2,0:0:0:0:
341,4,76512,6,0,P|271:2|230:78,1,156.750004783631,6|0,3:1|0:0,0:0:0:0:
244,148,76828,1,10,0:2:0:0:
121,0,76986,2,0,P|109:50|96:101,1,104.500003189087,2|0,0:2|3:2,0:0:0:0:
232,281,77301,1,2,3:2:0:0:
311,85,77459,1,8,0:2:0:0:
124,295,77617,6,0,P|226:317|327:342,1,209.000006378174,2|0,3:2|3:2,0:0:0:0:
512,123,78091,2,0,P|435:122|404:207,1,156.750004783631,10|0,0:2|0:2,0:0:0:0:
418,264,78407,2,0,P|464:244|477:195,1,104.500003189087,2|0,3:2|0:0,0:0:0:0:
311,85,78723,2,0,L|256:101,1,52.2500015945435,10|0,0:2|0:0,0:0:0:0:
99,201,78881,1,8,0:3:0:0:
73,193,78959,1,8,0:3:0:0:
49,186,79039,6,0,P|34:138|61:98,1,80.750001540184,6|0,3:2|0:2,0:0:0:0:
218,203,79354,1,10,0:2:0:0:
77,313,79512,2,0,L|-10:287,1,80.750001540184,2|0,0:2|3:2,0:0:0:0:
166,384,79828,2,0,L|253:358,1,80.750001540184,2|8,0:2|0:2,0:0:0:0:
362,183,80144,6,0,B|325:211|325:211|305:273|358:320,1,161.500003080368,2|2,0:2|0:2,0:0:0:0:
465,161,80617,2,0,L|444:76,1,80.750001540184,8|2,0:2|0:2,0:0:0:0:
418,254,80933,1,0,3:0:0:0:
446,82,81091,1,0,0:2:0:0:
298,242,81249,2,0,P|242:251|209:186,1,121.125002310276,10|0,0:2|0:0,0:0:0:0:
164,144,81565,6,0,L|84:159,1,80.750001540184,6|0,3:1|0:0,0:0:0:0:
210,58,81880,1,10,0:2:0:0:
15,211,82038,2,0,P|-5:170|7:123,1,80.750001540184,2|0,0:2|3:2,0:0:0:0:
106,269,82354,2,0,P|80:306|33:319,1,80.750001540184,2|8,0:2|0:2,0:0:0:0:
208,204,82670,6,0,L|377:233,1,161.500003080368,2|0,0:2|0:2,0:0:0:0:
229,32,83144,2,0,L|109:53,1,121.125002310276,14|0,0:1|0:2,0:0:0:0:
34,67,83459,1,2,3:2:0:0:
7,97,83537,1,0,3:0:0:0:
0,136,83616,1,8,0:3:0:0:
14,173,83695,1,8,0:3:0:0:
45,198,83774,1,8,0:2:0:0:
264,127,83933,1,8,0:2:0:0:
264,127,84012,1,8,0:2:0:0:
264,127,84091,6,0,B|295:247|183:213|243:359,1,209.000006378174,6|10,3:2|0:2,0:0:0:0:
467,210,84565,2,0,L|354:182,1,104.500003189087,2|0,0:2|3:2,0:0:0:0:
512,306,84880,1,2,3:2:0:0:
445,107,85038,1,8,0:2:0:0:
305,275,85196,6,0,P|207:287|140:202,1,209.000006378174,2|2,3:2|3:2,0:0:0:0:
281,48,85670,2,0,L|258:150,1,104.500003189087,8|0,0:2|0:2,0:0:0:0:
60,290,85986,1,2,3:2:0:0:
173,86,86144,1,0,3:2:0:0:
305,275,86301,2,0,B|393:303|393:303|466:246,1,156.750004783631,10|0,0:2|0:2,0:0:0:0:
512,227,86617,6,0,L|475:62,1,156.750004783631,6|0,3:1|0:0,0:0:0:0:
456,0,86933,1,10,0:2:0:0:
258,150,87091,2,0,L|360:172,1,104.500003189087,2|0,0:2|3:0,0:0:0:0:
236,23,87407,1,2,3:2:0:0:
166,234,87565,1,8,0:2:0:0:
10,57,87723,6,0,B|11:16|68:7|68:7|120:99|16:143,1,209.000006378174,2|0,3:2|3:2,0:0:0:0:
51,383,88196,2,0,P|1:339|36:237,1,156.750004783631,14|0,0:1|0:2,0:0:0:0:
76,210,88512,1,2,3:2:0:0:
249,344,88670,1,8,0:3:0:0:
291,350,88748,1,8,0:3:0:0:
331,334,88827,1,8,0:2:0:0:
360,302,88906,1,0,0:0:0:0:
369,260,88985,1,8,0:2:0:0:
357,218,89064,1,8,0:2:0:0:
326,188,89144,6,0,L|238:208,1,80.750001540184,6|0,3:1|0:0,0:0:0:0:
106,73,89459,2,0,P|182:59|235:115,1,161.500003080368,8|0,0:2|3:2,0:0:0:0:
42,215,89933,1,0,0:2:0:0:
8,78,90091,2,0,L|28:-10,1,80.750001540184,10|0,0:2|0:0,0:0:0:0:
155,154,90407,6,0,L|118:316,1,161.500003080368,2|8,3:2|0:2,0:0:0:0:
330,384,90880,2,0,P|304:326|197:332,1,161.500003080368,2|0,0:2|0:2,0:0:0:0:
368,134,91354,2,0,P|317:158|336:231,1,121.125002310276,10|0,0:2|0:2,0:0:0:0:
379,269,91670,6,0,L|474:248,1,80.750001540184,6|0,3:1|0:0,0:0:0:0:
474,61,91986,1,8,0:2:0:0:
289,116,92144,2,0,L|384:137,1,80.750001540184,2|0,0:2|3:2,0:0:0:0:
234,28,92459,1,0,0:2:0:0:
368,133,92617,1,10,0:2:0:0:
176,248,92775,6,0,B|166:204|166:204|238:165|283:260,1,161.500003080368,2|0,0:2|3:2,0:0:0:0:
108,384,93249,2,0,L|79:256,1,121.125002310276,14|0,0:1|0:2,0:0:0:0:
34,209,93565,1,4,3:3:0:0:
13,174,93643,1,0,3:0:0:0:
16,134,93722,1,0,0:0:0:0:
39,103,93801,1,8,0:2:0:0:
77,90,93880,1,8,0:2:0:0:
267,231,94038,6,0,B|338:213|338:213|364:161|364:161|456:139,1,209.000006378174,4|0,3:2|3:2,0:0:0:0:
241,26,94512,2,0,L|269:146,1,104.500003189087,8|0,0:2|3:2,0:0:0:0:
432,248,94828,1,10,0:2:0:0:
348,59,94986,1,2,3:2:0:0:
320,298,95144,1,8,0:2:0:0:
440,143,95301,1,2,3:2:0:0:
227,309,95459,6,0,L|117:284,1,104.500003189087,8|0,0:2|3:2,0:0:0:0:
0,111,95775,2,0,L|110:86,1,104.500003189087,8|0,0:2|3:2,0:0:0:0:
199,208,96091,1,10,0:2:0:0:
214,17,96249,1,0,3:2:0:0:
72,191,96407,1,10,0:2:0:0:
313,109,96565,6,0,P|377:109|416:244,1,209.000006378174,4|0,3:2|3:2,0:0:0:0:
240,384,97038,5,10,0:2:0:0:
339,193,97196,1,0,3:2:0:0:
75,298,97354,5,10,0:2:0:0:
289,288,97512,1,0,3:2:0:0:
67,114,97670,5,10,0:2:0:0:
182,294,97828,1,0,3:2:0:0:
223,16,97986,5,10,0:2:0:0:
124,205,98144,1,0,3:2:0:0:
11,25,98301,5,10,0:2:0:0:
241,141,98459,1,8,0:3:0:0:
266,135,98537,1,8,0:3:0:0:
292,129,98616,5,10,0:2:0:0:
103,28,98775,1,4,3:3:0:0:
0,149,98933,1,2,3:2:0:0:
43,290,99091,6,0,B|106:258|156:325|124:346|179:401|237:371|237:371|185:356|174:316,1,320.624990215302,4|0,3:2|0:0,0:0:0:0:
124,205,100354,6,0,L|133:157,1,26.1250007972718,8|8,0:2|0:2,0:0:0:0:
129,179,101775,6,0,P|167:131|251:137,1,135.374996385098,6|0,3:1|0:0,0:0:0:0:
263,147,102091,1,8,0:2:0:0:
54,282,102249,2,0,L|21:136,1,135.374996385098,6|0,3:2|0:0,0:0:0:0:
12,117,102565,1,0,3:2:0:0:
225,228,102723,6,0,P|273:266|267:350,1,135.374996385098,14|0,0:1|0:0,0:0:0:0:
257,362,103039,1,0,3:2:0:0:
129,179,103196,2,0,L|162:33,1,135.374996385098,10|0,0:2|0:0,0:0:0:0:
171,14,103512,1,2,3:2:0:0:
368,241,103670,5,8,0:2:0:0:
416,81,103828,2,0,P|331:109|245:132,1,178.12500679493,4|0,3:2|0:0,0:0:0:0:
213,118,104301,5,4,3:1:0:0:
230,213,104459,1,0,3:2:0:0:
123,86,104617,1,8,0:2:0:0:
140,181,104775,1,0,3:2:0:0:
197,24,104933,1,8,0:2:0:0:
49,148,105091,2,0,L|-3:137,1,52.2500015945435,0|0,3:2|3:2,0:0:0:0:
123,86,105407,5,8,0:2:0:0:
140,181,105565,1,0,3:2:0:0:
157,276,105723,1,0,3:2:0:0:
213,118,105880,5,8,0:2:0:0:
230,213,106038,1,0,3:2:0:0:
247,308,106196,1,0,3:2:0:0:
303,150,106354,6,0,L|293:94,1,52.2500015945435,8|0,0:2|3:2,0:0:0:0:
157,276,106670,1,8,0:2:0:0:
338,341,106828,5,0,3:2:0:0:
321,246,106986,1,0,3:2:0:0:
429,374,107144,1,8,0:2:0:0:
412,279,107302,1,0,3:2:0:0:
247,308,107459,1,8,0:2:0:0:
396,184,107617,2,0,L|472:198,1,52.2500015945435,0|0,3:2|3:2,0:0:0:0:
338,341,107933,5,8,0:2:0:0:
321,246,108091,1,0,3:2:0:0:
304,151,108249,1,0,3:2:0:0:
247,308,108407,5,8,0:2:0:0:
230,213,108565,1,0,3:2:0:0:
213,118,108723,1,0,3:2:0:0:
156,275,108880,6,0,L|165:326,1,52.2500015945435,8|0,0:2|3:2,0:0:0:0:
304,151,109196,1,8,0:2:0:0:
122,85,109354,5,4,3:2:0:0:
48,147,109512,1,0,3:2:0:0:
213,118,109670,1,8,0:2:0:0:
196,22,109828,1,0,3:2:0:0:
138,180,109986,1,8,0:2:0:0:
286,55,110144,2,0,L|276:3,1,52.2500015945435,0|0,3:2|3:2,0:0:0:0:
468,121,110459,5,8,0:2:0:0:
485,216,110617,1,0,3:2:0:0:
502,311,110775,1,0,3:2:0:0:
395,184,110933,5,8,0:2:0:0:
412,279,111091,1,0,3:2:0:0:
429,374,111249,1,0,3:2:0:0:
322,247,111407,6,0,L|312:195,1,52.2500015945435,8|0,0:2|3:2,0:0:0:0:
502,311,111723,1,8,0:2:0:0:
338,341,111880,5,0,3:2:0:0:
247,308,112038,1,0,3:2:0:0:
395,184,112196,1,8,0:2:0:0:
412,279,112354,1,0,3:2:0:0:
230,212,112512,1,8,0:2:0:0:
378,89,112670,2,0,L|430:79,1,52.2500015945435,0|0,3:2|3:2,0:0:0:0:
249,7,112986,6,0,L|167:22,1,78.3750023918153,8|0,0:2|0:0,0:0:0:0:
99,37,113301,5,2,3:3:0:0:
304,151,113459,1,12,0:1:0:0:
103,272,113617,1,0,3:2:0:0:
170,153,113775,2,0,L|189:208,1,47.5,8|8,0:2|0:2,0:0:0:0:
239,359,113933,1,8,0:2:0:0:
236,370,114011,1,8,0:2:0:0:
234,382,114091,2,0,L|215:327,1,47.5,8|8,0:2|0:2,0:0:0:0:
320,246,114249,1,8,0:2:0:0:
322,258,114328,1,8,0:2:0:0:
325,269,114407,6,0,P|366:272|406:231,1,80.750001540184,4|0,3:2|0:2,0:0:0:0:
241,97,114723,2,0,L|83:133,1,161.500003080368,8|0,0:2|3:2,0:0:0:0:
235,217,115196,1,2,0:2:0:0:
113,315,115354,2,0,L|131:236,1,80.750001540184,10|2,0:2|0:2,0:0:0:0:
336,323,115670,6,0,P|259:317|220:383,1,161.500003080368,2|10,3:2|0:2,0:0:0:0:
343,217,116144,2,0,P|357:171|340:125,1,80.750001540184,2|0,0:2|3:2,0:0:0:0:
192,133,116459,2,0,P|224:168|273:176,1,80.750001540184,2|10,0:2|0:2,0:0:0:0:
340,44,116775,1,10,0:2:0:0:
340,44,116854,1,8,0:2:0:0:
340,44,116933,6,0,P|293:54|261:92,1,80.750001540184,0|2,3:2|0:2,0:0:0:0:
100,0,117249,2,0,B|135:51|135:51|96:143,1,161.500003080368,8|0,0:2|3:2,0:0:0:0:
206,267,117722,1,2,0:2:0:0:
34,253,117880,2,0,L|149:228,1,80.750001540184,10|2,0:2|0:2,0:0:0:0:
272,341,118196,6,0,P|196:373|131:329,1,161.500003080368,2|10,3:2|0:2,0:0:0:0:
302,252,118670,1,2,0:2:0:0:
302,252,118749,1,2,0:0:0:0:
302,252,118828,2,0,P|337:268|357:303,1,80.750001540184,0|2,3:2|3:2,0:0:0:0:
206,267,119144,1,8,0:2:0:0:
318,86,119301,6,0,B|349:117|349:117|310:188|226:140,1,161.500003080368,6|0,3:1|3:2,0:0:0:0:
124,17,119775,2,0,L|149:143,1,121.125002310276,10|0,0:2|0:0,0:0:0:0:
138,151,120091,2,0,P|99:163|66:139,1,80.750001540184,2|0,3:2|0:0,0:0:0:0:
220,64,120407,1,10,0:2:0:0:
197,235,120565,1,2,0:2:0:0:
317,83,120723,6,0,L|299:-6,1,80.750001540184,0|0,3:0|0:2,0:0:0:0:
410,133,121038,2,0,L|376:299,1,161.500003080368,8|0,0:2|3:2,0:0:0:0:
486,237,121512,1,0,0:2:0:0:
295,190,121670,2,0,L|206:208,1,80.750001540184,10|10,0:2|0:2,0:0:0:0:
197,235,121907,1,8,0:2:0:0:
197,235,121986,6,0,P|147:245|114:142,1,161.500003080368,2|8,3:2|0:2,0:0:0:0:
217,25,122459,2,0,B|258:30|296:3|296:3|296:49|342:81,1,161.500003080368,2|0,0:2|0:2,0:0:0:0:
246,114,122933,1,10,0:2:0:0:
392,1,123091,6,0,P|426:43|405:118,1,121.125002310276,2|0,0:0|0:0,0:0:0:0:
364,164,123407,1,2,0:2:0:0:
364,164,123486,1,2,0:2:0:0:
364,164,123565,1,10,0:2:0:0:
488,321,123723,1,8,0:3:0:0:
500,317,123801,1,8,0:3:0:0:
508,307,123880,6,0,P|505:283|496:264,1,40.375000770092,8|0,0:2|0:0,0:0:0:0:
454,117,124038,2,0,P|431:107|410:105,1,40.375000770092,8|0,0:2|0:0,0:0:0:0:
333,0,124196,2,0,P|313:14|301:31,1,40.375000770092,6|0,3:3|0:0,0:0:0:0:
202,37,124354,2,0,P|204:60|213:80,1,40.375000770092,6|0,3:3|0:0,0:0:0:0:
279,207,124512,5,4,3:2:0:0:
105,265,125459,5,2,0:2:0:0:
279,207,126407,5,2,0:2:0:0:
192,236,126723,1,2,0:2:0:0:
18,294,127039,5,2,0:2:0:0:
54,114,127986,5,2,0:2:0:0:
18,294,128617,5,2,0:2:0:0:
36,204,128933,1,2,0:2:0:0:
122,174,129249,1,2,0:2:0:0:
172,323,129565,6,0,P|209:369|268:366,1,123.499994346619,4|0,3:1|0:0,0:0:0:0:
251,281,130038,1,0,3:2:0:0:
93,365,130196,1,8,0:2:0:0:
93,365,130512,1,0,3:2:0:0:
251,281,130670,2,0,L|238:205,1,61.7499971733095,0|0,3:2|0:0,0:0:0:0:
213,31,130986,5,8,0:2:0:0:
139,89,131143,1,0,3:2:0:0:
153,184,131301,1,0,3:2:0:0:
301,67,131459,5,8,0:2:0:0:
301,67,131933,5,0,3:0:0:0:
301,67,132012,1,0,3:0:0:0:
301,67,132091,2,0,P|359:57|405:100,1,123.499994346619,2|0,3:2|0:0,0:0:0:0:
458,285,132565,1,2,3:2:0:0:
331,158,132723,1,8,0:2:0:0:
331,158,133038,1,2,3:2:0:0:
458,285,133196,2,0,L|445:360,1,61.7499971733095,0|0,3:2|0:0,0:0:0:0:
247,232,133512,5,8,0:2:0:0:
247,232,133828,1,8,0:3:0:0:
249,216,133907,1,8,0:3:0:0:
252,201,133985,1,8,0:2:0:0:
139,87,134144,1,4,3:3:0:0:
23,144,134301,1,2,3:3:0:0:
19,242,134459,1,0,3:2:0:0:
19,242,134538,1,0,3:2:0:0:
19,242,134617,6,0,P|42:288|154:270,1,161.500003080368,4|0,3:2|3:2,0:0:0:0:
294,384,135091,1,4,3:3:0:0:
294,384,135170,1,4,3:3:0:0:
294,384,135249,1,0,3:2:0:0:
247,232,135407,2,0,P|237:271|227:310,1,80.750001540184,8|0,0:2|3:2,0:0:0:0:
335,210,135723,1,8,0:2:0:0:
169,150,135880,6,0,P|129:159|90:169,1,80.750001540184,0|0,3:2|3:2,0:0:0:0:
219,60,136196,1,8,0:2:0:0:
146,250,136354,1,2,3:3:0:0:
38,80,136512,2,0,P|78:71|117:61,1,80.750001540184,0|0,3:2|3:2,0:0:0:0:
247,232,136828,1,8,0:2:0:0:
70,366,136986,1,2,3:3:0:0:
59,375,137065,1,2,3:3:0:0:
50,384,137144,6,0,P|36:311|21:251,1,135.374996385098,12|0,0:2|0:0,0:0:0:0:
8,216,137459,5,12,0:2:0:0:
103,147,137617,1,0,3:2:0:0:
172,242,137775,1,12,0:2:0:0:
76,311,137933,1,0,3:2:0:0:
117,62,138091,5,12,0:2:0:0:
257,255,138249,2,0,B|354:272|354:272|395:232|366:186,1,180.49999518013,12|0,3:2|3:2,0:0:0:0:
264,57,138723,6,0,L|250:156,1,90.2499975900651,12|0,0:1|0:0,0:0:0:0:
160,313,139038,2,0,L|170:388,1,45.1249987950325,8|0,0:2|0:0,0:0:0:0:
80,164,139196,1,8,0:3:0:0:
40,183,139275,1,8,0:3:0:0:
18,222,139353,1,8,0:2:0:0:
23,266,139432,1,8,0:2:0:0:
52,299,139512,6,0,L|272:251,1,209.000006378174,4|0,3:1|3:2,0:0:0:0:
474,207,139986,1,10,0:2:0:0:
387,384,140144,2,0,L|362:274,1,104.500003189087,2|0,0:2|3:2,0:0:0:0:
443,87,140459,1,2,3:2:0:0:
499,319,140617,1,8,0:2:0:0:
309,132,140775,6,0,B|255:136|209:100|209:100|197:174|136:194,1,209.000006378174,2|2,3:2|3:2,0:0:0:0:
0,384,141249,2,0,L|112:359,1,104.500003189087,8|0,0:2|0:0,0:0:0:0:
261,238,141565,1,2,3:2:0:0:
93,95,141723,1,0,3:2:0:0:
292,19,141880,2,0,P|357:20|373:115,1,156.750004783631,10|0,0:2|0:2,0:0:0:0:
449,154,142196,6,0,P|373:131|297:113,1,156.750004783631,6|0,3:1|0:0,0:0:0:0:
220,104,142512,1,10,0:2:0:0:
318,328,142670,2,0,P|331:277|346:227,1,104.500003189087,2|0,0:2|3:2,0:0:0:0:
215,384,142986,1,2,3:2:0:0:
434,307,143144,1,8,0:2:0:0:
220,104,143301,6,0,B|181:91|148:131|148:131|205:220|293:149,1,209.000006378174,2|0,3:2|3:2,0:0:0:0:
65,30,143775,2,0,L|36:208,1,156.750004783631,10|0,0:2|0:2,0:0:0:0:
0,254,144091,2,0,L|22:391,1,104.500003189087,2|0,3:2|0:0,0:0:0:0:
179,221,144407,2,0,L|163:128,1,52.2500015945435,10|0,0:2|0:0,0:0:0:0:
74,82,144565,1,8,0:3:0:0:
69,56,144644,1,8,0:3:0:0:
65,30,144723,6,0,P|100:12|140:17,1,80.750001540184,6|0,3:2|0:0,0:0:0:0:
241,117,145038,1,10,0:2:0:0:
96,256,145196,2,0,L|77:147,1,80.750001540184,2|0,0:2|3:2,0:0:0:0:
218,305,145512,2,0,L|199:413,1,80.750001540184,2|8,0:2|0:2,0:0:0:0:
322,188,145828,6,0,L|352:360,1,161.500003080368,2|2,0:2|0:2,0:0:0:0:
503,270,146301,2,0,L|395:251,1,80.750001540184,8|2,0:2|0:2,0:0:0:0:
240,224,146617,1,0,3:0:0:0:
424,256,146775,1,0,0:2:0:0:
388,45,146933,2,0,L|364:177,1,121.125002310276,10|0,0:2|0:0,0:0:0:0:
331,236,147249,6,0,L|350:342,1,80.750001540184,6|0,3:1|0:0,0:0:0:0:
457,163,147565,1,10,0:2:0:0:
277,45,147723,2,0,P|223:46|189:85,1,80.750001540184,2|0,0:2|3:2,0:0:0:0:
240,224,148038,2,0,P|265:177|249:127,1,80.750001540184,2|8,0:2|0:2,0:0:0:0:
104,46,148354,6,0,P|96:107|192:162,1,161.500003080368,2|0,0:2|0:2,0:0:0:0:
48,364,148828,2,0,L|16:232,1,121.125002310276,14|0,0:1|0:0,0:0:0:0:
0,173,149144,1,2,3:2:0:0:
205,331,149301,1,8,0:3:0:0:
242,342,149379,1,8,0:3:0:0:
279,325,149458,1,8,0:2:0:0:
296,290,149538,1,8,0:2:0:0:
312,254,149617,1,8,0:2:0:0:
348,237,149696,1,8,0:2:0:0:
386,249,149775,6,0,B|416:298|472:307|472:307|408:323|389:396,1,209.000006378174,6|10,3:2|0:2,0:0:0:0:
220,231,150249,2,0,P|208:180|195:130,1,104.500003189087,2|0,0:2|3:2,0:0:0:0:
421,88,150565,1,2,3:2:0:0:
296,290,150723,1,8,0:2:0:0:
297,0,150880,6,0,P|320:105|348:209,1,209.000006378174,2|2,3:2|3:2,0:0:0:0:
184,340,151354,2,0,P|133:326|82:315,1,104.500003189087,8|0,0:2|0:2,0:0:0:0:
0,125,151670,1,2,3:2:0:0:
167,234,151828,1,0,3:2:0:0:
8,384,151986,2,0,B|-26:295|-26:295|24:230,1,156.750004783631,10|0,0:2|0:2,0:0:0:0:
74,199,152301,6,0,P|111:136|69:45,1,156.750004783631,6|0,3:1|0:0,0:0:0:0:
20,28,152617,1,10,0:2:0:0:
220,119,152775,2,0,L|339:90,1,104.500003189087,2|0,0:2|3:0,0:0:0:0:
174,14,153091,1,2,3:2:0:0:
286,207,153249,1,8,0:2:0:0:
493,58,153407,6,0,B|492:17|435:8|435:8|383:100|487:144,1,209.000006378174,2|0,3:2|3:2,0:0:0:0:
321,343,153880,2,0,P|396:321|470:296,1,156.750004783631,14|0,0:1|0:2,0:0:0:0:
512,367,154196,5,2,3:2:0:0:
477,383,154275,1,0,3:0:0:0:
439,378,154354,1,8,0:3:0:0:
409,353,154433,1,8,0:3:0:0:
397,317,154512,1,8,0:3:0:0:
385,281,154590,1,8,0:3:0:0:
355,256,154669,1,8,0:3:0:0:
317,251,154748,1,8,0:3:0:0:
282,267,154828,6,0,P|243:279|204:289,1,80.750001540184,6|0,3:1|0:0,0:0:0:0:
155,76,155144,2,0,P|205:79|219:174,1,161.500003080368,8|0,0:2|3:0,0:0:0:0:
122,347,155617,1,0,0:2:0:0:
30,173,155775,2,0,P|69:183|107:194,1,80.750001540184,10|0,0:2|0:0,0:0:0:0:
293,364,156091,6,0,P|363:374|430:301,1,161.500003080368,2|8,3:2|0:2,0:0:0:0:
335,123,156565,2,0,B|303:172|303:172|340:282,1,161.500003080368,2|0,0:2|0:2,0:0:0:0:
512,156,157038,2,0,L|472:37,1,121.125002310276,10|0,0:2|0:2,0:0:0:0:
405,0,157354,6,0,L|322:21,1,80.750001540184,6|0,3:1|0:0,0:0:0:0:
251,192,157670,1,8,0:2:0:0:
145,70,157828,2,0,L|228:91,1,80.750001540184,2|0,0:2|3:0,0:0:0:0:
336,269,158144,1,0,0:2:0:0:
153,185,158301,1,10,0:2:0:0:
359,354,158459,6,0,P|371:275|388:196,1,161.500003080368,2|0,0:0|3:2,0:0:0:0:
217,367,158933,2,0,P|206:298|192:229,1,121.125002310276,14|0,0:1|0:2,0:0:0:0:
153,185,159249,1,4,3:3:0:0:
134,150,159327,1,0,3:0:0:0:
147,113,159406,1,0,0:0:0:0:
182,96,159485,1,8,0:2:0:0:
219,110,159564,1,8,0:2:0:0:
43,299,159723,6,0,B|-12:242|-12:242|39:105,1,209.000006378174,4|0,3:2|3:2,0:0:0:0:
255,12,160196,2,0,L|215:118,1,104.500003189087,8|0,0:2|3:2,0:0:0:0:
324,292,160512,1,10,0:2:0:0:
347,104,160670,1,2,3:2:0:0:
447,326,160828,1,8,0:2:0:0:
283,200,160986,1,2,3:2:0:0:
468,76,161144,6,0,L|438:178,1,104.500003189087,8|0,0:2|3:2,0:0:0:0:
219,0,161459,2,0,L|249:102,1,104.500003189087,10|0,0:2|3:2,0:0:0:0:
223,324,161775,1,10,0:2:0:0:
78,160,161933,1,0,3:2:0:0:
70,135,162011,1,0,3:0:0:0:
78,111,162090,1,10,0:2:0:0:
283,200,162249,6,0,P|182:228|82:267,1,209.000006378174,4|0,3:2|3:2,0:0:0:0:
317,300,162723,5,10,0:2:0:0:
249,100,162880,1,0,3:2:0:0:
491,242,163039,5,10,0:2:0:0:
283,200,163196,1,0,3:2:0:0:
318,21,163354,5,10,0:2:0:0:
386,221,163511,1,0,3:2:0:0:
145,80,163670,5,10,0:2:0:0:
352,121,163827,1,0,3:2:0:0:
85,266,163986,5,10,0:2:0:0:
249,100,164144,1,8,0:3:0:0:
243,74,164222,1,8,0:3:0:0:
238,48,164301,5,10,0:2:0:0:
73,178,164459,1,4,3:3:0:0:
94,352,164617,1,2,3:2:0:0:
224,383,164775,6,0,P|240:321|260:261,1,128.249996086121,4|0,3:2|0:0,0:0:0:0:
317,188,165407,1,8,0:3:0:0:
317,188,165486,1,8,0:3:0:0:
317,188,165565,5,8,0:0:0:0:
402,220,165723,1,4,3:3:0:0:
487,252,165880,1,2,3:3:0:0:
232,156,166038,6,0,L|207:162,1,26.1250007972718,8|0,0:0|0:0,0:0:0:0:
207,162,166986,5,0,3:2:0:0:
201,153,167065,1,0,3:2:0:0:
195,144,167144,2,0,L|212:72,1,64.1249980430604,6|0,0:3|0:0,0:0:0:0:
236,6,167459,5,6,3:2:0:0:
298,159,167617,1,2,3:2:0:0:
400,29,167775,2,0,L|393:3,1,26.1250007972718,10|8,0:2|0:0,0:0:0:0:
400,29,168407,2,0,L|393:3,1,26.1250007972718,10|8,0:2|0:0,0:0:0:0:
400,29,169038,2,0,L|393:3,1,26.1250007972718,10|8,0:2|0:0,0:0:0:0:
400,29,169670,2,0,L|393:3,1,26.1250007972718,10|8,0:2|0:0,0:0:0:0:
256,192,169986,5,2,3:2:0:0:
396,283,170144,1,2,3:2:0:0:
248,359,170301,2,0,L|216:351,1,26.1250007972718,10|8,0:2|0:0,0:0:0:0:
248,359,170933,2,0,L|216:351,1,26.1250007972718,10|8,0:2|0:0,0:0:0:0:
248,359,171565,2,0,L|216:351,1,26.1250007972718,10|8,0:2|0:0,0:0:0:0:
248,359,172196,2,0,L|216:351,1,26.1250007972718,10|8,0:2|0:0,0:0:0:0:
93,56,172512,5,6,3:1:0:0:
233,125,172670,1,2,3:2:0:0:
104,212,172828,1,10,0:2:0:0:
104,212,173144,1,2,0:0:0:0:
104,212,173459,2,0,L|96:252,1,26.1250007972718,10|8,0:2|0:0,0:0:0:0:
172,311,173617,6,0,P|220:262|287:273,1,142.500005435944,2|2,0:2|0:2,0:0:0:0:
361,331,174091,6,0,L|369:371,1,26.1250007972718,10|0,0:2|0:0,0:0:0:0:
440,186,174407,2,0,L|425:111,1,71.2500027179719,2|2,3:2|3:2,0:0:0:0:
346,72,174723,2,0,L|360:-2,1,71.2500027179719,10|0,0:2|0:0,0:0:0:0:
328,164,175038,5,6,3:1:0:0:
263,24,175196,1,2,3:2:0:0:
175,151,175354,1,10,0:2:0:0:
175,151,175670,1,2,0:0:0:0:
175,151,175986,1,10,0:2:0:0:
123,71,176144,1,2,0:2:0:0:
228,232,176301,5,2,0:2:0:0:
79,156,176459,1,2,0:2:0:0:
220,65,176617,1,14,0:2:0:0:
220,65,176933,1,2,3:2:0:0:
132,239,177091,1,2,3:2:0:0:
273,146,177249,1,8,0:2:0:0:
307,137,177328,1,8,0:2:0:0:
340,149,177407,1,8,0:2:0:0:
361,177,177486,1,8,0:2:0:0:
365,212,177565,6,0,L|347:324,1,106.875004076958,6|0,3:2|0:2,0:0:0:0:
338,354,177880,1,10,0:2:0:0:
451,243,178038,1,2,0:2:0:0:
265,251,178196,1,0,3:2:0:0:
265,251,178512,6,0,L|247:139,1,106.875004076958,10|0,0:2|0:2,0:0:0:0:
238,109,178827,1,2,3:2:0:0:
365,212,178985,1,2,0:2:0:0:
165,186,179143,1,8,0:2:0:0:
239,353,179301,1,0,3:2:0:0:
239,353,179380,1,0,3:0:0:0:
239,353,179459,5,2,3:2:0:0:
265,251,179617,1,8,0:2:0:0:
137,381,179775,1,2,3:2:0:0:
163,279,179933,1,8,0:2:0:0:
340,324,180091,6,0,P|392:333|444:346,1,106.875004076958,2|0,3:2|0:2,0:0:0:0:
474,362,180407,1,10,0:2:0:0:
375,237,180565,1,2,0:2:0:0:
505,143,180723,1,0,3:2:0:0:
505,143,181038,6,0,P|452:133|400:120,1,106.875004076958,10|0,0:2|0:2,0:0:0:0:
371,105,181354,1,2,3:2:0:0:
470,230,181512,1,2,3:2:0:0:
340,324,181670,1,12,0:2:0:0:
255,140,181828,1,0,3:2:0:0:
131,291,181986,5,8,0:2:0:0:
143,335,182065,1,4,3:3:0:0:
182,360,182144,1,4,3:3:0:0:
217,354,182223,1,4,3:3:0:0:
237,334,182301,1,2,3:3:0:0:
240,311,182380,1,2,3:3:0:0:
233,299,182459,1,2,3:3:0:0:
225,292,182538,1,2,3:3:0:0:
215,288,182617,6,0,L|231:379,1,71.2500027179719,12|0,0:2|3:2,0:0:0:0:
315,207,182933,1,0,3:2:0:0:
136,99,183091,6,0,L|45:115,1,71.2500027179719,12|0,0:1|3:2,0:0:0:0:
199,204,183407,1,0,3:2:0:0:
323,0,183565,6,0,L|414:16,1,71.2500027179719,8|0,0:2|3:2,0:0:0:0:
260,105,183881,1,0,3:2:0:0:
440,222,184038,6,0,L|531:206,1,71.2500027179719,8|0,0:2|3:2,0:0:0:0:
377,117,184354,1,0,3:2:0:0:
388,322,184512,5,8,0:2:0:0:
479,121,184670,1,0,3:2:0:0:
301,245,184828,5,8,0:2:0:0:
497,327,184986,1,0,3:2:0:0:
287,237,185144,6,0,L|196:253,1,71.2500027179719,12|0,0:2|3:2,0:0:0:0:
86,355,185460,1,0,3:2:0:0:
90,158,185617,6,0,L|106:249,1,71.2500027179719,8|0,0:2|3:2,0:0:0:0:
208,359,185933,1,0,3:2:0:0:
272,137,186091,6,0,L|181:153,1,71.2500027179719,8|0,0:2|3:2,0:0:0:0:
362,179,186407,5,12,0:2:0:0:
224,48,186565,1,0,3:2:0:0:
295,251,186723,5,12,0:2:0:0:
339,65,186881,1,0,3:2:0:0:
458,216,187038,5,8,0:2:0:0:
490,252,187117,1,4,3:3:0:0:
485,294,187196,1,4,3:3:0:0:
461,322,187275,1,4,3:3:0:0:
435,326,187354,1,2,3:3:0:0:
419,317,187433,1,2,3:3:0:0:
412,306,187512,1,2,3:3:0:0:
410,298,187591,1,2,3:3:0:0:
411,292,187670,6,0,L|520:312,1,95,14|0,0:1|3:2,0:0:0:0:
362,179,187986,1,0,3:2:0:0:
491,0,188144,2,0,B|475:67|475:67|504:105|504:105|482:190,1,190,14|0,0:1|3:2,0:0:0:0:
281,61,188617,6,0,L|390:41,1,95,10|0,0:1|3:2,0:0:0:0:
252,187,188933,1,0,3:2:0:0:
172,17,189091,1,14,0:2:0:0:
172,17,189170,1,2,0:0:0:0:
172,17,189249,2,0,L|63:-3,1,95,2|0,3:2|3:2,0:0:0:0:
0,237,189565,5,10,0:1:0:0:
115,97,189723,1,0,3:2:0:0:
93,309,189880,5,10,0:2:0:0:
29,139,190038,1,0,3:2:0:0:
198,286,190196,6,0,L|174:385,1,95,14|2,0:1|3:2,0:0:0:0:
121,202,190512,1,2,3:2:0:0:
310,256,190670,2,0,L|286:355,1,95,14|2,0:2|3:2,0:0:0:0:
233,172,190986,1,2,3:2:0:0:
394,333,191144,6,0,L|493:309,1,95,10|0,0:1|3:2,0:0:0:0:
310,256,191460,1,0,3:2:0:0:
459,125,191617,2,0,L|435:224,1,95,14|0,0:2|3:2,0:0:0:0:
382,41,191933,1,0,3:2:0:0:
233,172,192091,6,0,L|325:149,1,95,14|0,0:1|3:2,0:0:0:0:
142,96,192407,1,10,0:2:0:0:
210,277,192565,1,0,3:0:0:0:
256,65,192723,5,6,3:1:0:0:
256,65,192880,1,2,3:2:0:0:
118,205,193038,2,0,L|25:182,1,95,10|0,0:2|0:0,0:0:0:0:
142,96,193354,1,10,0:2:0:0:
210,277,193512,2,0,P|175:314|106:312,1,95,2|0,3:2|3:0,0:0:0:0:
35,66,193828,6,0,B|86:55|112:11|112:11|108:63|154:108,1,190,10|2,0:2|3:2,0:0:0:0:
278,203,194301,1,10,0:2:0:0:
223,22,194459,1,2,3:2:0:0:
96,175,194617,5,8,0:2:0:0:
139,194,194696,1,4,3:3:0:0:
178,185,194775,1,4,3:3:0:0:
205,161,194854,1,4,3:3:0:0:
219,132,194933,1,2,3:3:0:0:
236,114,195012,1,2,3:3:0:0:
253,109,195091,1,2,3:3:0:0:
264,110,195170,1,2,3:3:0:0:
271,115,195249,5,12,0:1:0:0:
362,274,195407,1,0,3:2:0:0:
362,274,195486,1,0,3:2:0:0:
362,274,195565,2,0,L|350:331,1,47.5,0|0,3:2|3:2,0:0:0:0:
281,369,195723,5,12,3:2:0:0:
393,171,195880,1,0,3:2:0:0:
393,171,195959,1,0,3:2:0:0:
393,171,196038,2,0,L|450:159,1,47.5,0|0,3:2|3:2,0:0:0:0:
464,271,196196,5,12,3:1:0:0:
269,227,196354,1,0,3:2:0:0:
269,227,196433,1,0,3:2:0:0:
269,227,196512,2,0,L|212:215,1,47.5,0|0,3:2|3:2,0:0:0:0:
271,115,196670,5,12,3:2:0:0:
139,285,196828,1,0,3:2:0:0:
139,285,196907,1,0,3:2:0:0:
139,285,196986,2,0,L|151:342,1,47.5,0|0,3:2|3:2,0:0:0:0:
40,227,197144,5,12,3:2:0:0:
21,184,197223,1,0,3:2:0:0:
30,145,197302,1,0,3:2:0:0:
54,118,197381,1,0,3:2:0:0:
83,104,197460,1,12,3:2:0:0:
101,87,197539,1,0,3:2:0:0:
106,70,197618,1,0,3:2:0:0:
105,59,197697,1,0,3:2:0:0:
98,53,197775,5,8,0:2:0:0:
74,48,197853,1,2,0:3:0:0:
51,43,197932,1,2,0:3:0:0:
28,38,198011,1,2,0:3:0:0:
5,33,198091,2,0,L|16:93,1,47.5,2|2,0:3|0:3,0:0:0:0:
120,184,198249,5,8,0:2:0:0:
144,189,198327,1,2,0:3:0:0:
167,194,198406,1,2,0:3:0:0:
190,199,198485,1,2,0:3:0:0:
213,204,198565,2,0,L|202:144,1,47.5,2|2,0:3|0:3,0:0:0:0:
91,279,198723,5,8,0:2:0:0:
74,309,198801,1,2,0:3:0:0:
81,344,198880,1,2,0:3:0:0:
108,366,198959,1,2,0:3:0:0:
143,366,199038,2,0,P|164:342|167:304,1,47.5,2|2,0:3|0:3,0:0:0:0:
347,236,199196,5,8,0:2:0:0:
363,266,199274,1,2,0:3:0:0:
356,301,199353,1,2,0:3:0:0:
329,323,199432,1,2,0:3:0:0:
295,323,199511,2,0,P|274:299|271:261,1,47.5,2|2,0:3|0:3,0:0:0:0:
326,68,199670,5,8,0:2:0:0:
370,53,199748,1,8,0:2:0:0:
417,62,199827,1,8,0:2:0:0:
453,92,199906,1,8,0:2:0:0:
470,135,199985,1,8,0:2:0:0:
464,182,200064,1,8,0:2:0:0:
436,220,200143,1,8,0:2:0:0:
393,239,200222,1,8,0:2:0:0:
347,236,200301,6,0,B|287:213|287:213|275:179|275:179|206:151,1,161.500003080368,6|8,3:2|0:2,0:0:0:0:
70,95,200775,2,0,B|28:134|28:134|20:196|81:242,1,161.500003080368,2|0,0:2|0:2,0:0:0:0:
230,283,201249,2,0,P|174:285|146:349,1,121.125002310276,10|0,0:2|0:2,0:0:0:0:
61,350,201565,6,0,P|140:365|218:383,1,161.500003080368,2|8,3:2|0:2,0:0:0:0:
291,201,202038,2,0,P|211:185|133:167,1,161.500003080368,2|0,0:2|0:2,0:0:0:0:
230,283,202512,1,10,0:2:0:0:
284,103,202670,1,8,0:3:0:0:
284,103,202749,1,8,0:3:0:0:
284,103,202828,6,0,B|314:39|252:5|252:5|202:50,1,161.500003080368,2|8,3:2|0:2,0:0:0:0:
389,125,203301,2,0,P|436:132|445:36,1,161.500003080368,2|0,0:2|0:2,0:0:0:0:
343,209,203775,2,0,P|328:267|316:327,1,121.125002310276,10|0,0:2|0:2,0:0:0:0:
387,384,204091,6,0,P|306:364|224:348,1,161.500003080368,2|8,3:2|0:2,0:0:0:0:
69,273,204565,1,2,0:2:0:0:
196,245,204723,1,0,3:2:0:0:
103,382,204880,1,0,3:2:0:0:
202,231,205038,2,0,P|186:172|168:114,1,121.125002310276,14|0,0:2|0:2,0:0:0:0:
103,72,205354,6,0,P|73:84|29:94,1,71.2500027179719,4|0,3:1|0:2,0:0:0:0:
171,0,205670,2,0,P|201:12|245:22,1,71.2500027179719,8|0,0:2|3:2,0:0:0:0:
344,158,205986,1,8,0:2:0:0:
356,72,206144,2,0,P|321:80|288:93,1,71.2500027179719,0|0,3:2|3:2,0:0:0:0:
415,209,206459,6,0,P|425:174|430:139,1,71.2500027179719,8|0,0:2|3:2,0:0:0:0:
356,72,206775,1,0,3:2:0:0:
366,289,206933,2,0,P|400:299|435:304,1,71.2500027179719,8|0,0:2|3:2,0:0:0:0:
503,230,207249,1,0,3:2:0:0:
344,158,207407,6,0,L|266:182,1,71.2500027179719,8|0,0:2|3:2,0:0:0:0:
196,350,207723,1,8,0:2:0:0:
119,226,207880,6,0,L|197:250,1,71.2500027179719,0|0,3:2|3:2,0:0:0:0:
33,343,208196,2,0,L|111:319,1,71.2500027179719,8|0,0:2|3:2,0:0:0:0:
8,180,208512,2,0,L|32:258,1,71.2500027179719,8|0,0:2|3:2,0:0:0:0:
101,322,208828,1,0,3:2:0:0:
174,131,208986,6,0,L|150:53,1,71.2500027179719,8|0,0:2|3:2,0:0:0:0:
49,44,209301,1,0,3:2:0:0:
119,226,209459,5,12,0:2:0:0:
261,78,209617,1,8,0:3:0:0:
261,78,209696,1,8,0:3:0:0:
261,78,209775,1,8,0:2:0:0:
321,274,209933,1,4,3:3:0:0:
466,137,210091,2,0,P|429:119|381:149,1,71.2500027179719,2|2,3:3|3:3,0:0:0:0:
420,213,210328,1,2,3:3:0:0:
426,201,210407,6,0,P|407:122|387:44,1,161.500003080368,4|8,3:1|0:2,0:0:0:0:
241,0,210880,1,4,3:3:0:0:
241,0,210959,1,4,3:3:0:0:
241,0,211038,2,0,P|251:39|260:78,1,80.750001540184,0|0,3:2|3:2,0:0:0:0:
111,190,211354,2,0,P|121:150|130:111,1,80.750001540184,8|0,0:2|3:2,0:0:0:0:
285,248,211670,6,0,P|218:238|167:314,1,161.500003080368,0|8,3:2|0:2,0:0:0:0:
9,263,212144,1,2,3:3:0:0:
9,263,212223,1,2,3:3:0:0:
9,263,212301,2,0,P|8:312|54:343,1,80.750001540184,0|0,3:2|3:2,0:0:0:0:
111,190,212617,2,0,P|112:141|66:110,1,80.750001540184,8|0,0:2|3:2,0:0:0:0:
167,307,212933,6,0,P|245:324|323:346,1,161.500003080368,4|8,3:2|0:2,0:0:0:0:
284,161,213407,1,4,3:3:0:0:
284,161,213486,1,4,3:3:0:0:
284,161,213565,2,0,P|273:199|264:239,1,80.750001540184,0|0,3:2|3:2,0:0:0:0:
379,85,213880,2,0,P|368:46|359:6,1,80.750001540184,8|0,0:2|3:2,0:0:0:0:
499,187,214196,6,0,P|423:170|367:223,1,161.500003080368,0|12,3:2|0:2,0:0:0:0:
261,52,214670,1,0,3:2:0:0:
125,184,214828,5,8,0:2:0:0:
106,189,214933,6,0,P|75:183|55:162,1,53.8333343601227,8|8,0:2|0:2,0:0:0:0:
94,34,215144,5,6,3:3:0:0:
107,47,215249,6,0,P|117:76|109:104,1,53.8333343601227,6|6,3:3|3:3,0:0:0:0:
24,86,215459,5,6,3:2:0:0:
282,232,220512,6,0,L|297:317,2,85.4999973907472,2|2|2,0:2|0:2|0:2,0:0:0:0:
126,307,221459,1,2,0:2:0:0:
211,331,221617,2,0,L|196:246,1,85.4999973907472,2|2,0:2|0:2,0:0:0:0:
95,139,222249,2,0,L|110:224,1,85.4999973907472,2|2,0:2|0:2,0:0:0:0:
180,163,222722,1,2,0:2:0:0:
79,55,223038,6,0,P|41:47|-5:74,2,85.4999973907472,2|2|2,0:2|0:2|0:2,0:0:0:0:
208,273,223986,1,2,0:2:0:0:
110,223,224144,1,2,0:2:0:0:
110,223,225407,6,0,B|164:188|159:119|159:119|178:184|247:188|247:188|290:124|244:77,1,356.25,4|0,3:2|0:2,0:0:0:0:
381,0,228091,6,0,B|386:33|357:65|357:65|419:85|401:159|401:159|397:130|378:114,1,237.5,4|0,3:2|0:2,0:0:0:0:
311,172,229986,5,8,0:2:0:0:
279,168,230064,1,0,3:2:0:0:
250,182,230143,1,0,3:2:0:0:
235,210,230222,1,0,3:2:0:0:
238,242,230301,1,2,3:3:0:0:
248,244,230379,1,2,3:3:0:0:
259,247,230458,1,2,3:3:0:0:
270,249,230537,1,2,3:3:0:0:
281,252,230617,6,0,L|392:278,1,90.2499975900651,4|0,3:1|3:2,0:0:0:0:
512,149,230933,1,0,3:2:0:0:
279,168,231091,6,0,L|390:194,1,90.2499975900651,12|0,0:2|3:2,0:0:0:0:
510,65,231407,1,0,3:2:0:0:
318,0,231565,6,0,L|344:111,1,90.2499975900651,8|0,0:2|3:2,0:0:0:0:
440,235,231880,1,0,3:2:0:0:
191,111,232038,6,0,L|165:222,1,90.2499975900651,12|0,0:2|3:2,0:0:0:0:
236,375,232353,1,0,3:2:0:0:
279,168,232512,5,8,0:2:0:0:
130,328,232670,1,0,3:2:0:0:
94,106,232828,5,8,0:2:0:0:
245,277,232986,1,0,3:2:0:0:
28,353,233144,6,0,L|52:251,1,90.2499975900651,12|0,0:1|3:2,0:0:0:0:
191,111,233459,1,0,3:2:0:0:
130,328,233617,6,0,L|154:226,1,90.2499975900651,12|0,0:2|3:2,0:0:0:0:
293,86,233932,1,0,3:2:0:0:
223,366,234091,5,12,0:1:0:0:
100,167,234249,1,0,3:2:0:0:
325,304,234407,5,8,0:2:0:0:
367,315,234485,1,8,0:2:0:0:
406,293,234564,1,8,0:2:0:0:
419,251,234643,1,8,0:2:0:0:
400,212,234723,1,6,3:3:0:0:
389,214,234801,1,6,3:3:0:0:
378,217,234880,1,6,3:3:0:0:
367,219,234959,1,6,3:3:0:0:
356,222,235038,5,8,0:2:0:0:
503,106,235670,6,0,P|401:83|300:56,1,209.000006378174,6|10,3:2|0:2,0:0:0:0:
152,237,236144,2,0,P|202:223|253:212,1,104.500003189087,2|0,0:2|3:2,0:0:0:0:
75,152,236459,1,2,3:2:0:0:
225,333,236617,1,8,0:2:0:0:
368,121,236775,6,0,B|405:43|324:-1|324:-1|295:69,1,209.000006378174,2|2,3:2|3:2,0:0:0:0:
453,226,237249,2,0,L|481:105,1,104.500003189087,8|0,0:2|0:0,0:0:0:0:
295,244,237565,1,2,3:2:0:0:
476,124,237723,1,0,3:2:0:0:
486,372,237880,2,0,P|433:318|359:331,1,156.750004783631,10|0,0:2|0:2,0:0:0:0:
288,363,238196,6,0,B|230:347|230:347|218:310|218:310|146:289,1,156.750004783631,6|0,3:1|0:0,0:0:0:0:
91,320,238512,1,10,0:2:0:0:
279,158,238670,2,0,B|316:198|316:198|287:262,1,104.500003189087,2|0,0:2|3:0,0:0:0:0:
194,86,238986,1,2,3:2:0:0:
405,171,239144,1,8,0:2:0:0:
208,384,239301,6,0,L|164:171,1,209.000006378174,2|0,3:2|3:2,0:0:0:0:
41,0,239775,2,0,P|-18:55|12:131,1,156.750004783631,14|0,0:1|0:2,0:0:0:0:
60,171,240091,1,2,3:2:0:0:
241,13,240249,1,8,0:3:0:0:
282,0,240327,1,8,0:3:0:0:
324,10,240406,1,8,0:3:0:0:
356,39,240485,1,0,0:0:0:0:
369,80,240564,1,8,0:3:0:0:
361,122,240643,1,8,0:3:0:0:
333,155,240723,6,0,L|233:138,1,80.750001540184,6|0,3:1|0:0,0:0:0:0:
468,76,241038,2,0,L|438:249,1,161.500003080368,8|0,0:2|3:0,0:0:0:0:
262,275,241512,1,0,0:2:0:0:
378,384,241670,2,0,L|361:284,1,80.750001540184,10|0,0:2|0:0,0:0:0:0:
177,209,241986,6,0,P|146:256|191:352,1,161.500003080368,2|8,3:2|0:2,0:0:0:0:
274,161,242459,2,0,P|248:110|143:101,1,161.500003080368,2|0,0:2|0:0,0:0:0:0:
262,275,242933,2,0,P|319:256|378:242,1,121.125002310276,10|0,0:2|0:2,0:0:0:0:
443,206,243249,6,0,P|434:167|425:128,1,80.750001540184,6|0,3:2|0:0,0:0:0:0:
227,95,243565,1,8,0:2:0:0:
352,0,243723,2,0,P|342:39|334:78,1,80.750001540184,2|0,0:2|3:0,0:0:0:0:
171,196,244038,1,2,0:2:0:0:
258,2,244196,1,10,0:2:0:0:
243,253,244354,6,0,P|164:234|85:218,1,161.500003080368,2|0,0:0|3:2,0:0:0:0:
4,58,244828,2,0,P|68:11|130:45,1,121.125002310276,14|0,0:1|0:2,0:0:0:0:
181,0,245144,1,4,3:3:0:0:
172,39,245222,1,0,3:0:0:0:
163,78,245301,1,8,0:2:0:0:
155,118,245380,1,8,0:2:0:0:
146,157,245459,1,8,0:2:0:0:
354,302,245617,6,0,B|378:249|378:249|297:184|223:273,1,209.000006378174,4|0,3:2|3:2,0:0:0:0:
52,354,246091,2,0,L|161:382,1,104.500003189087,8|0,0:2|3:2,0:0:0:0:
259,135,246407,1,10,0:2:0:0:
92,241,246565,1,2,3:2:0:0:
172,39,246722,1,8,0:2:0:0:
242,252,246880,1,2,3:2:0:0:
10,152,247038,6,0,L|119:127,1,104.500003189087,8|0,0:2|3:2,0:0:0:0:
254,361,247354,2,0,L|355:384,1,104.500003189087,10|0,0:2|3:2,0:0:0:0:
502,159,247670,1,10,0:2:0:0:
327,293,247828,1,0,3:2:0:0:
378,53,247986,1,10,0:2:0:0:
450,345,248144,6,0,L|399:135,1,209.000006378174,4|0,3:2|3:2,0:0:0:0:
239,0,248617,5,10,0:2:0:0:
295,218,248775,1,0,3:2:0:0:
50,49,248933,5,10,0:2:0:0:
266,109,249091,1,0,3:2:0:0:
0,236,249249,5,10,0:2:0:0:
159,78,249407,1,0,3:2:0:0:
137,373,249565,5,10,0:2:0:0:
79,156,249723,1,0,3:2:0:0:
325,324,249880,5,10,0:2:0:0:
159,279,250038,1,8,0:3:0:0:
133,272,250116,1,8,0:3:0:0:
108,265,250195,5,10,0:2:0:0:
266,109,250354,1,4,3:3:0:0:
424,157,250512,1,2,3:2:0:0:
463,256,250670,6,0,L|440:387,1,128.249996086121,4|0,3:2|0:0,0:0:0:0:
295,218,251301,1,0,3:0:0:0:
496,93,251459,1,8,0:0:0:0:
253,5,251617,1,0,3:2:0:0:
227,12,251695,1,0,0:0:0:0:
202,19,251774,5,8,0:2:0:0:
407,162,251933,6,0,L|391:119,1,26.1250007972718,4|0,3:1|0:0,0:0:0:0:
398,137,252249,5,8,0:2:0:0:
366,112,252328,1,8,0:2:0:0:
328,111,252407,1,8,0:2:0:0:
295,132,252486,1,8,0:2:0:0:
280,168,252565,2,0,L|301:240,1,52.2500015945435,0|0,3:3|3:3,0:0:0:0:
213,358,252723,5,8,0:2:0:0:
170,364,252801,1,8,0:2:0:0:
133,344,252880,1,8,0:2:0:0:
115,304,252959,1,8,0:2:0:0:
126,263,253038,1,8,0:2:0:0:
159,236,253117,1,8,0:2:0:0:
202,235,253196,6,0,L|401:280,1,180.49999518013,4|0,3:1|3:0,0:0:0:0:
479,115,253670,1,10,0:2:0:0:
280,168,253828,2,0,L|379:190,1,90.2499975900651,2|0,0:0|3:2,0:0:0:0:
289,4,254144,1,2,3:2:0:0:
182,147,254301,2,0,L|204:246,1,90.2499975900651,10|0,0:2|3:2,0:0:0:0:
328,89,254617,5,2,0:0:0:0:
121,68,254775,2,0,P|81:112|88:153,1,90.2499975900651,2|8,3:2|0:2,0:0:0:0:
160,325,255091,1,2,0:0:0:0:
270,167,255249,2,0,L|181:147,1,90.2499975900651,2|0,3:2|3:2,0:0:0:0:
309,272,255565,1,10,0:2:0:0:
479,77,255723,6,0,B|439:61|439:61|380:135|478:209,1,180.49999518013,6|2,3:2|3:2,0:0:0:0:
379,372,256196,1,10,0:2:0:0:
512,302,256354,2,0,L|397:274,1,90.2499975900651,2|0,0:2|3:2,0:0:0:0:
320,122,256670,1,2,3:2:0:0:
221,293,256828,2,0,L|336:265,1,90.2499975900651,10|0,0:2|3:2,0:0:0:0:
166,149,257144,5,2,0:0:0:0:
155,356,257301,2,0,P|195:386|244:380,1,90.2499975900651,2|8,3:2|0:2,0:0:0:0:
253,189,257617,1,2,0:0:0:0:
77,254,257775,2,0,L|16:270,1,45.1249987950325,0|0,3:2|0:0,0:0:0:0:
145,144,257933,1,8,0:2:0:0:
155,146,258011,1,8,0:2:0:0:
166,149,258090,1,8,0:2:0:0:
44,0,258249,6,0,B|29:65|29:65|53:103|53:103|33:194,1,180.49999518013,4|2,3:2|3:2,0:0:0:0:
155,356,258723,2,0,L|307:316,1,135.374996385098,10|0,0:2|0:0,0:0:0:0:
316,312,259038,1,2,3:2:0:0:
153,235,259196,1,0,0:2:0:0:
337,148,259354,1,10,0:2:0:0:
198,0,259512,6,0,L|239:182,1,180.49999518013,2|2,0:2|0:2,0:0:0:0:
413,221,259986,2,0,P|453:163|425:90,1,135.374996385098,10|0,0:2|0:2,0:0:0:0:
420,80,260301,1,2,3:2:0:0:
315,252,260459,2,0,L|342:357,1,90.2499975900651,2|10,3:2|0:2,0:0:0:0:
191,75,260775,6,0,B|228:52|228:52|297:116|212:205,1,180.49999518013,6|0,3:1|3:2,0:0:0:0:
101,325,261249,2,0,L|74:226,1,90.2499975900651,10|0,0:2|0:2,0:0:0:0:
197,340,261565,1,2,3:2:0:0:
6,312,261723,1,2,0:2:0:0:
147,161,261880,2,0,L|170:248,1,90.2499975900651,10|2,0:2|0:2,0:0:0:0:
81,85,262196,6,0,P|118:57|180:66,1,90.2499975900651,0|2,3:0|0:2,0:0:0:0:
317,204,262512,2,0,P|272:202|237:175,1,90.2499975900651,14|2,0:2|3:2,0:0:0:0:
397,136,262828,1,0,3:2:0:0:
419,160,262906,1,0,3:0:0:0:
430,192,262985,1,0,3:2:0:0:
428,225,263064,1,8,3:2:0:0:
411,255,263143,1,8,2:2:0:0:
304,111,263301,6,0,B|337:-5|337:-5|339:24|365:60,1,180.49999518013,4|0,3:2|3:2,0:0:0:0:
317,204,263775,1,10,0:2:0:0:
207,86,263933,2,0,L|234:-10,1,90.2499975900651,2|0,0:0|3:2,0:0:0:0:
238,175,264249,1,2,3:2:0:0:
132,20,264407,2,0,P|84:5|42:25,1,90.2499975900651,10|0,0:2|3:2,0:0:0:0:
0,218,264723,5,2,0:0:0:0:
94,101,264880,2,0,L|-19:126,1,90.2499975900651,2|8,3:2|0:2,0:0:0:0:
79,299,265196,1,2,0:0:0:0:
173,182,265353,2,0,L|60:207,1,90.2499975900651,2|0,3:2|3:2,0:0:0:0:
158,380,265670,1,10,0:2:0:0:
280,202,265828,6,0,B|346:216|346:216|365:253|365:253|461:270,1,180.49999518013,6|2,3:2|3:2,0:0:0:0:
324,113,266301,1,10,0:2:0:0:
286,294,266459,2,0,L|308:400,1,90.2499975900651,2|0,0:2|3:2,0:0:0:0:
420,184,266775,1,2,3:2:0:0:
222,128,266933,2,0,L|116:150,1,90.2499975900651,10|0,0:2|3:2,0:0:0:0:
264,31,267249,5,2,0:0:0:0:
170,239,267407,2,0,P|113:251|64:217,1,90.2499975900651,2|14,3:2|0:1,0:0:0:0:
222,128,267723,1,2,0:2:0:0:
286,294,267880,2,0,L|276:350,1,45.1249987950325,2|0,3:2|3:2,0:0:0:0:
337,200,268038,1,8,3:2:0:0:
335,188,268117,1,8,3:2:0:0:
333,177,268196,1,8,3:2:0:0:
189,346,268354,6,0,L|398:392,1,180.49999518013,6|2,3:2|3:2,0:0:0:0:
512,231,268828,2,0,P|448:218|412:297,1,135.374996385098,10|0,0:2|0:0,0:0:0:0:
409,302,269144,1,2,3:2:0:0:
485,124,269301,1,0,0:2:0:0:
337,200,269459,1,10,0:2:0:0:
410,0,269617,6,0,B|443:34|443:34|376:92|305:17,1,180.49999518013,2|2,0:2|0:2,0:0:0:0:
143,178,270091,2,0,P|170:129|264:152,1,135.374996385098,10|0,0:2|0:2,0:0:0:0:
268,145,270407,1,2,3:2:0:0:
78,85,270565,2,0,P|52:37|81:-2,1,90.2499975900651,2|10,3:2|0:2,0:0:0:0:
226,237,270880,6,0,P|137:217|49:200,1,180.49999518013,6|0,3:2|3:2,0:0:0:0:
200,342,271354,2,0,P|255:329|311:319,1,90.2499975900651,10|0,0:2|0:2,0:0:0:0:
366,137,271670,1,2,3:2:0:0:
226,237,271828,1,2,0:2:0:0:
403,354,271986,2,0,P|390:298|380:242,1,90.2499975900651,10|2,0:2|0:2,0:0:0:0:
329,40,272301,5,0,3:0:0:0:
474,207,272459,1,2,3:2:0:0:
259,139,272617,1,10,0:2:0:0:
443,25,272775,1,8,0:3:0:0:
455,27,272854,1,8,0:3:0:0:
466,29,272933,5,8,0:2:0:0:
366,137,273091,1,4,3:3:0:0:
474,207,273249,5,2,3:3:0:0:
456,117,273407,1,0,3:2:0:0:
384,265,273565,6,0,P|319:283|255:306,1,135.374996385098,6|0,3:1|0:0,0:0:0:0:
232,330,273880,1,8,0:2:0:0:
114,138,274038,2,0,P|177:161|242:179,1,135.374996385098,6|0,3:2|0:0,0:0:0:0:
277,186,274354,1,0,3:2:0:0:
41,205,274512,6,0,P|1:146|28:78,1,135.374996385098,14|0,0:1|0:0,0:0:0:0:
39,66,274828,1,0,3:2:0:0:
152,273,274986,2,0,P|120:337|48:347,1,135.374996385098,10|0,0:2|0:0,0:0:0:0:
33,339,275301,1,0,3:2:0:0:
29,327,275380,1,0,3:2:0:0:
25,316,275459,5,8,0:2:0:0:
243,179,275617,2,0,P|341:191|440:207,1,178.12500679493,6|0,3:2|0:0,0:0:0:0:
435,215,276091,6,0,P|442:238|449:261,1,47.5,2|0,0:2|0:0,0:0:0:0:
460,359,276407,2,0,P|437:353|413:348,1,47.5,2|0,0:0|0:0,0:0:0:0:
324,308,276723,2,0,P|340:291|356:273,1,47.5,2|0,0:0|0:0,0:0:0:0:
201,60,277038,6,0,P|179:88|152:111,1,71.2500027179719,2|0,0:0|0:0,0:0:0:0:
272,221,277354,2,0,P|258:188|251:153,1,71.2500027179719,2|0,0:0|0:0,0:0:0:0:
97,201,277670,2,0,P|132:205|165:216,1,71.2500027179719,2|0,0:0|0:0,0:0:0:0:
360,147,277986,5,2,0:0:0:0:
437,81,278144,1,2,0:0:0:0:
372,4,278301,1,2,0:0:0:0:
294,69,278459,1,2,0:0:0:0:
