osu file format v14

[General]
AudioFilename: audio.mp3
AudioLeadIn: 0
PreviewTime: 224578
Countdown: 0
SampleSet: Soft
StackLeniency: 0.7
Mode: 0
LetterboxInBreaks: 0
WidescreenStoryboard: 1

[Editor]
Bookmarks: 145828,205354,276091
DistanceSpacing: 0.3
BeatDivisor: 4
GridSize: 16
TimelineZoom: 1.3

[Metadata]
Title:Determination Symphony
TitleUnicode:Determination Symphony
Artist:Roselia
ArtistUnicode:Roselia
Creator:KeyWee
Version:Mocaotic's Insane
Source:バンドリ! ガールズバンドパーティ!
Tags:Shirahane Suou Mocaotic Livermorium BanG Dream! Girls Band Party bandori バンドリ japanese rock j-rock jrock video game anime garupa ガルパ ロゼリア full size minato yukina 湊友希那 aiba aina 相羽あいな hikawa sayo 氷川紗夜 kudou haruka 工藤晴香 imai lisa 今井リサ endou yurika 遠藤ゆりか udagawa ako 宇田川あこ sakuragawa megu 櫻川めぐ shirokane rinko 白金燐子 akesaka satomi 明坂聡美 season 2 episode 9 Wahl version insert song
BeatmapID:3715317
BeatmapSetID:1755255

[Difficulty]
HPDrainRate:5
CircleSize:4
OverallDifficulty:8
ApproachRate:9
SliderMultiplier:1.6
SliderTickRate:1

[Events]
//Background and Video events
0,0,"Ako forgot to her dailes.jpg",0,0
//Break Periods
2,124712,128933
2,215659,219880
//Storyboard Layer 0 (Background)
//Storyboard Layer 1 (Fail)
//Storyboard Layer 2 (Pass)
//Storyboard Layer 3 (Foreground)
//Storyboard Layer 4 (Overlay)
//Storyboard Sound Samples

[TimingPoints]
723,315.789473684211,4,2,1,40,1,0
5144,-133.333333333333,4,2,1,52,0,0
5617,-80,4,2,80,80,0,0
5933,-80,4,2,1,80,0,0
6091,-100,4,2,1,80,0,0
14459,-80,4,2,1,80,0,0
16196,-100,4,2,1,80,0,0
24565,-80,4,2,1,80,0,0
25986,-100,4,2,1,80,0,0
28038,-133.333333333333,4,2,1,80,0,0
28512,-133.333333333333,4,2,1,55,0,0
37354,-133.333333333333,4,2,80,55,0,0
37512,-133.333333333333,4,2,1,40,0,0
38301,-100,4,2,1,50,0,0
38617,-100,4,2,1,60,0,0
50459,-100,4,2,1,70,0,0
53775,-133.333333333333,4,2,1,50,0,0
58354,-133.333333333333,4,2,1,70,0,0
58828,-100,4,2,1,58,0,0
62933,-80,4,2,1,58,0,0
63880,-100,4,2,1,70,0,0
68933,-166.666666666667,4,2,1,50,0,0
70828,-133.333333333333,4,2,1,50,0,0
71459,-133.333333333333,4,2,90,50,0,0
71775,-133.333333333333,4,2,1,50,0,0
73828,-80,4,2,80,85,0,1
74144,-80,4,2,1,85,0,1
75880,-100,4,2,1,85,0,1
76512,-80,4,2,1,85,0,1
79038,-100,4,2,1,85,0,1
84091,-80,4,2,1,85,0,1
85986,-100,4,2,1,85,0,1
86617,-80,4,2,1,85,0,1
89144,-100,4,2,1,85,0,1
90091,-80,4,2,1,85,0,1
90407,-100,4,2,1,85,0,1
91354,-80,4,2,1,85,0,1
91670,-100,4,2,1,85,0,1
92617,-80,4,2,1,85,0,1
98301,-80,4,2,1,85,0,1
99091,-133.333333333333,4,2,1,85,0,1
100354,-100,4,2,1,70,0,0
103828,-133.333333333333,4,2,1,70,0,0
104459,-133.333333333333,4,2,80,55,0,0
109354,-133.333333333333,4,2,1,55,0,0
109512,-133.333333333333,4,2,80,55,0,0
112986,-133.333333333333,4,2,1,55,0,0
113144,-133.333333333333,4,2,1,55,0,0
114407,-100,4,2,1,60,0,0
124512,-100,4,2,1,35,0,0
129564,-133.333333333333,4,2,1,35,0,0
129565,-133.333333333333,4,2,1,48,0,0
134617,-100,4,2,1,58,0,0
137144,-100,4,2,1,68,0,0
137459,-100,4,2,80,68,0,0
138249,-100,4,2,1,68,0,0
138407,-100,4,2,80,68,0,0
138723,-100,4,2,1,58,0,0
139512,-80,4,2,80,85,0,1
139828,-80,4,2,1,85,0,1
141565,-71.4285714285714,4,2,1,85,0,1
142196,-80,4,2,1,85,0,1
144723,-100,4,2,1,85,0,1
149775,-80,4,2,1,85,0,1
151670,-71.4285714285714,4,2,1,85,0,1
152301,-80,4,2,1,85,0,1
154828,-100,4,2,1,85,0,1
155775,-80,4,2,1,85,0,1
156091,-100,4,2,1,85,0,1
157039,-80,4,2,1,85,0,1
157354,-100,4,2,1,85,0,1
158302,-80,4,2,1,85,0,1
163986,-80,4,2,1,85,0,1
164775,-125,4,2,1,85,0,1
166038,-133.333333333333,4,2,1,70,0,0
167459,-133.333333333333,4,2,1,60,0,0
177565,-117.647058823529,4,2,1,60,0,0
183565,-117.647058823529,4,2,80,60,0,0
185144,-117.647058823529,4,2,1,60,0,0
185617,-117.647058823529,4,2,80,60,0,0
186407,-117.647058823529,4,2,1,60,0,0
187670,-100,4,2,1,70,0,0
195249,-80,4,2,1,45,0,1
195723,-80,4,2,1,52,0,1
196196,-80,4,2,1,58,0,1
196670,-80,4,2,1,64,0,1
197144,-80,4,2,1,70,0,1
197775,-80,4,2,1,55,0,1
198249,-80,4,2,1,60,0,1
198723,-80,4,2,1,65,0,1
199196,-80,4,2,1,70,0,1
199670,-80,4,2,1,75,0,1
199986,-80,4,2,1,80,0,1
200301,-100,4,2,1,70,0,0
205670,-100,4,2,80,70,0,0
209459,-100,4,2,1,70,0,0
210407,-100,4,2,1,60,0,0
214512,-80,4,2,1,60,0,0
215459,-80,4,2,1,35,0,0
219880,-80,4,2,1,40,0,0
220433,-80,4,2,1,5,0,0
220512,-166.666666666667,4,2,1,45,0,0
222407,-133.333333333333,4,2,1,45,0,0
225407,-133.333333333333,4,2,1,70,0,0
230617,-100,4,2,1,70,0,0
235591,-100,4,2,1,5,0,0
235670,-80,4,2,1,90,0,1
237565,-100,4,2,1,90,0,1
238196,-80,4,2,1,90,0,1
240723,-100,4,2,1,90,0,1
241670,-80,4,2,1,90,0,1
241986,-100,4,2,1,90,0,1
242933,-80,4,2,1,90,0,1
243249,-100,4,2,1,90,0,1
244196,-80,4,2,1,90,0,1
249880,-80,4,2,1,90,0,1
250670,-125,4,2,1,90,0,1
251933,-125,4,2,1,70,0,1
252249,-100,4,2,1,70,0,1
253196,-80,4,2,80,80,0,0
253512,-80,4,2,1,80,0,0
253670,-100,4,2,1,80,0,0
262038,-80,4,2,1,80,0,0
263775,-100,4,2,1,80,0,0
272144,-80,4,2,1,80,0,0
273565,-100,4,2,1,80,0,0
275144,-100,4,2,80,80,0,0
275301,-100,4,2,1,80,0,0
276091,-100,4,2,1,70,0,0
278617,-100,4,2,1,5,0,0

[Colours]
Combo1 : 239,88,92
Combo2 : 137,36,227
Combo3 : 168,109,220
Combo4 : 214,27,27

[HitObjects]
345,287,5144,6,0,P|357:300|345:288,2,60.0000022888184,2|2|2,0:0|0:0|0:0,0:0:0:0:
477,293,5617,6,0,B|416:270|374:311|392:331|355:378|283:351,1,200,4|0,3:1|3:0,0:0:0:0:
194,288,6091,5,10,0:2:0:0:
256,240,6249,2,0,P|296:250|319:285,1,80,2|0,0:0|3:2,0:0:0:0:
196,281,6565,5,2,3:2:0:0:
258,233,6723,2,0,P|298:243|321:278,1,80,10|0,0:2|3:2,0:0:0:0:
198,274,7038,5,2,0:0:0:0:
260,226,7196,2,0,P|300:236|323:271,1,80,2|8,3:2|0:2,0:0:0:0:
200,267,7512,5,2,0:0:0:0:
262,219,7670,2,0,P|302:229|325:264,2,80,2|0|8,3:2|3:2|0:2,0:0:0:0:
90,288,8144,6,0,P|163:273|157:175,1,160,6|2,3:2|3:2,0:0:0:0:
48,95,8617,5,10,0:2:0:0:
116,130,8775,2,0,P|98:196|102:232,1,80,2|0,0:2|3:2,0:0:0:0:
43,90,9091,5,2,3:2:0:0:
111,125,9249,2,0,P|93:191|97:227,1,80,10|0,0:2|3:2,0:0:0:0:
38,85,9565,5,2,0:0:0:0:
106,120,9723,2,0,P|88:186|92:222,1,80,2|8,3:2|0:2,0:0:0:0:
33,80,10038,5,2,0:0:0:0:
173,177,10196,1,2,3:2:0:0:
14,237,10354,1,8,0:2:0:0:
12,230,10433,1,8,0:2:0:0:
10,223,10512,1,8,0:2:0:0:
81,167,10670,6,0,B|157:186|157:186|161:193|161:193|258:218,1,160,6|2,3:2|3:2,0:0:0:0:
336,321,11144,2,0,P|285:334|244:357,1,80,10|0,0:2|0:0,0:0:0:0:
186,297,11459,1,2,3:2:0:0:
228,220,11617,1,0,0:2:0:0:
314,240,11775,1,10,0:2:0:0:
412,376,11933,6,0,P|424:290|453:212,1,160,2|2,0:2|0:2,0:0:0:0:
367,101,12407,2,0,P|371:171|386:181,1,80,10|0,0:2|0:0,0:0:0:0:
447,215,12723,1,2,3:2:0:0:
351,289,12880,2,0,P|290:295|262:311,1,80,2|10,3:2|0:2,0:0:0:0:
145,122,13196,6,0,B|189:110|207:74|207:74|205:120|247:158,1,160,6|0,3:1|3:2,0:0:0:0:
335,212,13670,2,0,P|272:221|244:237,1,80,10|0,0:2|0:2,0:0:0:0:
182,275,13986,2,0,P|173:234|151:173,2,80,2|2|10,3:2|0:2|0:2,0:0:0:0:
37,66,14459,6,0,B|127:60|97:125|188:117,1,150,2|0,0:2|0:0,0:0:0:0:
182,124,14775,1,2,0:2:0:0:
313,50,14933,6,0,P|268:1|182:44,1,150,14|0,0:2|0:0,0:0:0:0:
185,33,15249,1,0,3:2:0:0:
116,122,15407,1,8,3:2:0:0:
119,131,15486,1,8,3:2:0:0:
121,140,15565,1,8,3:2:0:0:
4,236,15723,6,0,B|65:260|99:209|81:195|121:152|186:173,1,200,4|0,3:2|3:2,0:0:0:0:
260,300,16196,5,10,0:2:0:0:
182,322,16354,2,0,P|170:277|150:229,1,80,2|0,0:0|3:2,0:0:0:0:
267,302,16670,5,2,3:2:0:0:
190,324,16828,2,0,P|178:279|158:231,1,80,10|0,0:2|3:2,0:0:0:0:
275,304,17143,5,2,0:0:0:0:
198,326,17301,2,0,P|186:281|166:233,1,80,2|8,3:2|0:2,0:0:0:0:
283,306,17617,5,2,0:2:0:0:
205,329,17775,2,0,P|193:284|173:236,2,80,2|0|8,3:2|3:2|0:2,0:0:0:0:
382,384,18249,6,0,P|366:302|328:206,1,160,6|2,3:2|3:2,0:0:0:0:
461,114,18723,5,10,0:2:0:0:
389,150,18880,2,0,P|344:152|308:134,1,80,2|0,0:2|3:2,0:0:0:0:
460,107,19196,5,2,3:2:0:0:
388,143,19354,2,0,P|343:145|307:127,1,80,10|0,0:2|3:2,0:0:0:0:
459,100,19671,5,2,3:0:0:0:
387,136,19828,2,0,P|342:138|306:120,1,80,2|12,3:2|0:1,0:0:0:0:
458,93,20144,5,2,0:2:0:0:
329,217,20301,1,2,3:2:0:0:
506,265,20459,1,8,3:2:0:0:
508,258,20538,1,8,3:2:0:0:
510,251,20617,1,8,3:2:0:0:
434,190,20775,6,0,B|358:209|358:209|354:216|354:216|257:241,1,160,6|2,3:2|3:2,0:0:0:0:
195,102,21249,2,0,P|239:117|285:125,1,80,10|0,0:2|0:0,0:0:0:0:
343,173,21565,1,2,3:2:0:0:
415,130,21723,1,0,0:2:0:0:
383,46,21880,1,10,0:2:0:0:
237,0,22038,6,0,P|258:73|266:175,1,160,2|2,0:2|0:2,0:0:0:0:
380,270,22512,2,0,P|407:228|397:183,1,80,10|0,0:2|0:0,0:0:0:0:
352,137,22828,1,2,3:2:0:0:
272,164,22986,1,2,3:2:0:0:
322,323,23144,1,10,0:2:0:0:
134,225,23301,6,0,B|176:238|185:283|185:283|220:244|277:261,1,160,6|0,3:2|3:2,0:0:0:0:
240,97,23775,2,0,P|224:141|214:201,1,80,10|0,0:2|0:2,0:0:0:0:
107,302,24091,2,0,P|70:285|20:281,2,80,2|2|10,3:2|0:2|0:2,0:0:0:0:
277,161,24565,6,0,B|199:160|217:216|138:213,1,150,2|0,0:2|0:0,0:0:0:0:
133,224,24880,1,2,3:2:0:0:
234,346,25038,6,0,P|242:305|263:240,1,100,10|8,0:2|0:3,0:0:0:0:
272,242,25275,1,8,0:3:0:0:
272,242,25354,1,8,0:2:0:0:
267,164,25512,1,4,3:3:0:0:
187,145,25670,1,2,3:3:0:0:
141,213,25828,1,0,3:2:0:0:
45,384,25986,6,0,P|29:302|-8:205,1,160,6|8,3:1|0:2,0:0:0:0:
147,359,26459,2,0,P|120:283|105:205,1,160,6|0,3:2|3:2,0:0:0:0:
232,10,26933,6,0,P|216:92|179:189,1,160,14|0,0:1|3:2,0:0:0:0:
334,35,27406,2,0,P|307:110|292:188,1,160,10|0,0:2|3:2,0:0:0:0:
292,188,27801,1,0,3:0:0:0:
292,188,27880,1,10,0:2:0:0:
409,308,28038,6,0,P|459:327|469:248,1,150.000005722046,6|0,3:2|0:2,0:0:0:0:
461,242,28512,5,6,3:2:0:0:
386,223,28670,1,2,3:2:0:0:
405,148,28828,1,10,3:2:0:0:
480,167,28986,1,2,0:0:0:0:
453,244,29459,5,10,0:2:0:0:
378,225,29617,1,2,0:0:0:0:
397,150,29775,1,2,0:0:0:0:
472,169,29933,1,2,0:0:0:0:
445,246,30407,5,2,0:0:0:0:
370,227,30565,1,2,0:0:0:0:
295,208,30723,1,10,0:2:0:0:
287,206,31038,5,2,3:2:0:0:
212,225,31196,1,2,3:2:0:0:
231,300,31354,1,10,0:2:0:0:
306,281,31512,1,2,0:0:0:0:
279,204,31985,5,10,0:2:0:0:
204,223,32143,1,2,0:0:0:0:
223,298,32301,1,2,0:0:0:0:
298,279,32459,1,2,0:0:0:0:
271,202,32933,5,2,0:0:0:0:
196,221,33091,1,2,0:0:0:0:
121,240,33249,1,10,0:2:0:0:
27,58,33565,5,6,3:2:0:0:
102,77,33723,1,2,3:2:0:0:
83,152,33881,1,10,3:2:0:0:
8,133,34039,1,2,0:0:0:0:
35,56,34512,5,10,0:2:0:0:
110,75,34670,1,2,0:0:0:0:
91,150,34828,1,2,0:0:0:0:
16,131,34986,1,2,0:0:0:0:
43,54,35460,5,2,0:0:0:0:
118,73,35618,1,2,0:0:0:0:
193,92,35776,1,10,0:2:0:0:
201,94,36091,5,2,3:2:0:0:
276,75,36249,1,2,3:2:0:0:
257,0,36407,1,10,0:2:0:0:
182,19,36565,1,2,0:0:0:0:
209,96,37038,5,10,0:2:0:0:
284,77,37196,2,0,L|272:27,2,30.0000011444092,0|0|12,3:2|3:2|0:2,0:0:0:0:
354,17,38301,1,8,0:2:0:0:
356,26,38380,1,8,0:2:0:0:
359,35,38459,1,8,0:2:0:0:
362,45,38538,1,8,0:2:0:0:
365,54,38617,6,0,P|337:130|324:210,1,160,4|8,3:2|0:2,0:0:0:0:
243,133,39091,1,2,0:0:0:0:
243,133,39407,2,0,P|283:109|323:117,1,80,2|8,0:2|0:0,0:0:0:0:
382,157,39723,1,2,0:2:0:0:
267,238,39880,6,0,P|199:209|108:203,1,160,2|10,3:2|0:2,0:0:0:0:
10,357,40354,2,0,P|64:334|94:334,1,80,2|0,0:2|3:2,0:0:0:0:
156,288,40670,1,2,0:2:0:0:
9,186,40828,1,10,0:2:0:0:
115,86,40986,1,10,0:3:0:0:
115,86,41065,1,8,0:3:0:0:
115,86,41144,6,0,P|96:149|88:250,1,160,0|8,3:2|0:2,0:0:0:0:
0,374,41617,1,2,0:0:0:0:
0,374,41933,1,2,0:2:0:0:
62,323,42091,1,10,0:2:0:0:
138,347,42249,1,2,0:2:0:0:
275,248,42407,6,0,P|295:189|239:110,1,160,2|10,3:2|0:2,0:0:0:0:
136,171,42880,2,0,P|184:179|223:197,1,80,2|0,0:2|3:2,0:0:0:0:
350,284,43196,1,10,0:3:0:0:
372,275,43275,1,8,0:3:0:0:
394,267,43354,1,8,0:3:0:0:
245,384,43512,6,0,P|225:325|281:246,1,160,6|0,3:2|3:2,0:0:0:0:
467,361,43986,2,0,P|394:338|281:327,1,160,10|2,0:2|3:2,0:0:0:0:
303,335,44617,1,10,0:2:0:0:
377,305,44775,1,2,0:2:0:0:
484,265,44933,6,0,P|404:254|328:231,2,160,0|8|0,3:2|0:2|3:2,0:0:0:0:
491,272,45880,1,10,0:2:0:0:
423,176,46038,1,10,0:2:0:0:
423,176,46117,1,8,0:2:0:0:
423,176,46196,6,0,P|398:259|387:360,1,160,2|8,3:2|0:2,0:0:0:0:
491,272,46670,1,2,0:2:0:0:
300,314,46828,1,0,3:0:0:0:
300,314,47144,2,0,P|311:234|334:158,1,160,10|0,0:2|3:0,0:0:0:0:
395,99,47617,1,2,0:2:0:0:
258,0,47775,6,0,P|213:24|216:80,1,80,10|8,0:2|0:3,0:0:0:0:
218,66,48012,1,8,0:3:0:0:
218,66,48091,1,8,0:2:0:0:
296,95,48249,1,4,3:3:0:0:
349,50,48407,1,2,3:3:0:0:
396,70,48565,1,0,3:2:0:0:
415,60,48723,6,0,P|385:141|377:221,1,160,4|8,3:2|0:2,0:0:0:0:
194,199,49196,2,0,P|279:184|352:151,1,160,4|0,3:1|3:2,0:0:0:0:
425,321,49670,2,0,P|369:254|304:207,1,160,12|8,2:2|0:2,0:0:0:0:
459,141,50144,5,6,3:3:0:0:
445,213,50459,1,2,3:3:0:0:
373,199,50775,1,4,3:3:0:0:
373,199,50933,1,2,3:3:0:0:
120,384,51249,6,0,P|150:303|158:223,1,160,4|8,3:2|0:2,0:0:0:0:
341,245,51722,2,0,P|256:260|183:293,1,160,4|0,3:1|3:2,0:0:0:0:
110,123,52196,2,0,P|166:190|231:237,1,160,12|4,0:2|3:1,0:0:0:0:
50,291,52723,5,8,0:2:0:0:
50,291,52828,2,0,P|8:277|-13:275,2,53.3333333333333,8|8|8,0:2|0:2|0:2,0:0:0:0:
122,259,53144,2,0,P|130:302|139:321,2,53.3333333333333,4|4|4,3:3|3:3|3:3,0:0:0:0:
59,213,53459,2,0,P|92:183|104:166,2,53.3333333333333,2|2|2,3:3|3:3|3:3,0:0:0:0:
0,144,53775,6,0,L|145:168,1,120.000004577637,4|2,3:2|3:2,0:0:0:0:
184,207,54249,1,0,3:2:0:0:
114,80,54407,1,10,0:2:0:0:
114,80,54723,5,2,3:2:0:0:
207,0,54880,2,0,P|199:32|201:72,1,60.0000022888184,0|2,3:2|0:2,0:0:0:0:
293,161,55196,2,0,P|234:146|175:146,1,120.000004577637,8|2,0:2|3:2,0:0:0:0:
81,44,55670,2,0,P|139:58|198:58,1,120.000004577637,10|2,0:2|0:0,0:0:0:0:
442,4,56301,6,0,P|493:35|474:104,1,120.000004577637,6|2,3:2|3:2,0:0:0:0:
422,130,56775,1,0,3:2:0:0:
367,81,56933,1,10,0:2:0:0:
367,81,57249,5,2,3:2:0:0:
422,130,57407,2,0,P|411:171|409:214,1,60.0000022888184,0|2,3:2|0:2,0:0:0:0:
318,306,57723,2,0,P|370:267|434:278,1,120.000004577637,8|0,0:2|3:2,0:0:0:0:
347,383,58196,1,10,0:2:0:0:
451,348,58354,2,0,P|399:387|335:376,1,120.000004577637,4|0,3:2|0:0,0:0:0:0:
336,185,58828,6,0,P|361:247|380:309,1,120,6|0,3:1|0:0,0:0:0:0:
382,310,59144,1,10,0:2:0:0:
499,174,59301,1,2,0:2:0:0:
499,174,59617,2,0,P|449:164|420:150,1,80,2|8,0:2|0:2,0:0:0:0:
353,105,59933,1,2,0:2:0:0:
271,241,60091,6,0,P|289:172|292:139,2,80,2|0|10,3:2|0:0|0:2,0:0:0:0:
378,352,60565,1,2,0:2:0:0:
378,352,60880,2,0,P|356:319|312:307,1,80,2|8,0:0|0:2,0:0:0:0:
200,384,61196,1,8,0:3:0:0:
200,384,61275,1,8,0:3:0:0:
200,384,61354,6,0,P|191:308|156:192,1,160,6|10,3:1|0:2,0:0:0:0:
305,252,61828,1,2,0:2:0:0:
305,252,62144,2,0,P|290:287|280:330,1,80,2|8,0:2|0:2,0:0:0:0:
238,168,62459,1,2,0:2:0:0:
238,168,62617,2,0,P|253:133|263:90,1,80,2|0,3:2|3:0,0:0:0:0:
67,179,62933,6,0,P|141:186|157:262,1,150,10|0,0:2|0:0,0:0:0:0:
121,333,63249,1,8,0:2:0:0:
127,337,63328,1,4,3:3:0:0:
133,341,63407,2,0,P|169:331|208:338,1,50,4|4,3:3|3:3,0:0:0:0:
236,265,63565,1,2,3:3:0:0:
242,261,63644,1,2,3:3:0:0:
249,258,63723,2,0,P|275:284|289:321,1,50,2|2,3:3|3:3,0:0:0:0:
350,383,63880,6,0,P|361:325|388:281,1,80,12|0,0:2|3:2,0:0:0:0:
512,227,64196,1,0,3:2:0:0:
375,105,64354,6,0,P|411:186|438:272,1,160,12|0,0:1|3:2,0:0:0:0:
512,66,64828,2,0,P|478:45|434:50,1,80,8|0,0:2|3:2,0:0:0:0:
376,94,65144,1,0,3:2:0:0:
269,236,65301,6,0,P|305:317|335:400,1,160,12|0,0:1|3:2,0:0:0:0:
350,201,65775,5,8,0:2:0:0:
279,141,65933,1,0,3:2:0:0:
183,283,66091,5,8,0:2:0:0:
259,229,66249,1,0,3:2:0:0:
83,135,66407,6,0,P|50:170|57:220,1,80,12|0,0:2|3:2,0:0:0:0:
130,349,66723,1,0,3:2:0:0:
3,329,66880,6,0,P|74:282|181:259,1,160,8|0,0:1|3:2,0:0:0:0:
285,149,67354,2,0,P|302:98|276:52,1,80,12|0,0:1|3:2,0:0:0:0:
230,30,67670,1,0,3:2:0:0:
123,170,67828,6,0,P|199:192|265:237,1,160,8|0,0:1|3:2,0:0:0:0:
388,238,68301,2,0,P|361:243|335:278,2,53.3333333333333,8|8|8,0:2|0:2|0:2,0:0:0:0:
424,311,68617,2,0,P|404:328|378:332,2,53.3333333333333,4|2|2,3:3|3:3|3:3,0:0:0:0:
499,368,68933,6,0,B|440:301|449:187|449:187|411:303|308:330,1,383.99998828125,4|0,3:2|0:0,0:0:0:0:
157,268,70828,6,0,B|208:292|230:355|230:355|227:280|268:236,1,240.000009155274,2|6,0:0|0:2,0:0:0:0:
256,192,71538,12,2,72565,0:2:0:0:
265,241,73828,6,0,L|64:297,1,200,4|0,3:1|3:2,0:0:0:0:
0,126,74301,1,10,0:2:0:0:
89,159,74459,2,0,P|119:203|104:250,1,100,2|0,0:2|3:2,0:0:0:0:
0,362,74775,2,0,P|54:371|110:389,1,100,2|8,3:2|0:2,0:0:0:0:
318,274,75091,6,0,P|245:291|162:335,1,150,2|0,3:2|0:0,0:0:0:0:
170,335,75407,1,2,3:2:0:0:
32,266,75565,2,0,P|2:222|17:175,1,100,8|0,0:2|0:0,0:0:0:0:
173,97,75880,6,0,B|190:123|220:136|220:136|186:132|142:164,1,120,2|0,3:2|0:0,0:0:0:0:
91,139,76196,2,0,B|73:112|43:99|43:99|77:103|121:71,1,120,10|0,0:2|0:2,0:0:0:0:
157,13,76512,6,0,P|128:116|119:234,1,200,6|10,3:1|0:2,0:0:0:0:
267,308,76986,2,0,P|309:277|306:213,1,100,2|0,0:2|3:2,0:0:0:0:
246,168,77301,1,2,3:2:0:0:
181,329,77459,1,8,0:2:0:0:
25,193,77617,6,0,B|83:163|129:210|109:234|169:272|234:226,1,200,2|0,3:2|3:2,0:0:0:0:
380,110,78091,2,0,P|326:73|285:76,1,100,10|0,0:2|0:0,0:0:0:0:
294,258,78407,2,0,P|295:201|312:152,1,100,2|0,3:2|0:0,0:0:0:0:
219,16,78723,1,10,0:2:0:0:
169,17,78801,1,8,0:3:0:0:
133,50,78880,1,8,0:3:0:0:
125,98,78959,1,8,0:3:0:0:
149,141,79038,6,0,P|221:151|326:208,1,160,6|10,3:2|0:2,0:0:0:0:
368,117,79512,2,0,P|357:63|328:38,1,80,2|0,0:2|3:2,0:0:0:0:
265,73,79828,2,0,P|276:127|305:152,1,80,2|8,0:2|0:2,0:0:0:0:
458,198,80144,6,0,P|396:200|360:258,1,120,2|0,0:2|0:0,0:0:0:0:
352,260,80459,2,0,P|374:307|379:356,1,80,2|8,0:2|0:2,0:0:0:0:
293,329,80775,2,0,P|360:294|473:284,1,160,2|0,0:2|0:2,0:0:0:0:
271,242,81249,1,10,0:2:0:0:
271,242,81565,6,0,P|204:207|91:197,1,160,6|10,3:1|0:2,0:0:0:0:
251,76,82038,2,0,P|274:107|278:147,1,80,2|0,0:2|3:2,0:0:0:0:
201,173,82354,2,0,P|177:141|173:101,1,80,2|8,0:2|0:2,0:0:0:0:
284,0,82670,6,0,P|351:35|464:45,1,160,2|0,0:2|0:2,0:0:0:0:
510,206,83144,2,0,P|475:251|392:235,1,120,14|0,0:1|0:2,0:0:0:0:
401,244,83459,1,2,3:2:0:0:
446,129,83617,5,8,0:3:0:0:
446,129,83696,1,8,0:3:0:0:
446,129,83775,2,0,P|436:157|432:184,1,40,8|0,0:2|0:0,0:0:0:0:
321,242,83933,1,8,0:2:0:0:
321,242,84012,1,8,0:2:0:0:
321,242,84091,6,0,P|394:263|428:334,1,150,6|0,3:2|0:0,0:0:0:0:
418,333,84407,1,10,0:2:0:0:
277,384,84565,2,0,P|218:368|173:369,1,100,2|0,0:2|3:2,0:0:0:0:
411,339,84880,2,0,P|470:355|515:354,1,100,2|8,3:2|0:2,0:0:0:0:
286,169,85196,6,0,P|322:246|331:319,1,150,2|0,3:2|0:0,0:0:0:0:
322,320,85512,1,2,3:2:0:0:
485,222,85670,2,0,P|444:187|396:189,1,100,8|0,0:2|0:2,0:0:0:0:
246,268,85986,6,0,B|229:242|199:229|199:229|233:233|277:201,1,120,2|0,3:2|0:0,0:0:0:0:
328,226,86301,2,0,B|346:253|376:266|376:266|342:262|298:294,1,120,10|0,0:2|0:2,0:0:0:0:
271,346,86617,6,0,P|287:261|272:122,1,200,6|10,3:1|0:2,0:0:0:0:
406,0,87091,2,0,P|399:62|411:108,1,100,2|0,0:2|3:0,0:0:0:0:
476,186,87407,1,2,3:2:0:0:
315,70,87565,1,8,0:2:0:0:
476,186,87723,6,0,B|422:162|379:203|397:228|350:265|290:234,1,200,2|0,3:2|3:2,0:0:0:0:
137,260,88196,2,0,P|181:293|234:266,1,100,14|0,0:1|0:0,0:0:0:0:
323,157,88512,1,2,3:2:0:0:
207,96,88670,1,8,0:3:0:0:
207,96,88749,1,8,0:3:0:0:
207,96,88828,2,0,P|225:130|233:167,1,50,8|0,0:2|0:0,0:0:0:0:
301,227,88986,1,8,0:2:0:0:
301,227,89065,1,8,0:2:0:0:
301,227,89144,6,0,P|225:235|234:328,1,160,6|8,3:1|0:2,0:0:0:0:
17,304,89617,2,0,P|89:279|120:367,1,160,2|0,0:0|0:2,0:0:0:0:
149,100,90091,6,0,B|131:129|136:171|136:171|120:137|80:119,1,150,10|0,0:2|0:0,0:0:0:0:
61,198,90407,6,0,P|125:159|227:159,1,160,2|8,3:2|0:2,0:0:0:0:
158,0,90880,2,0,P|94:39|-8:39,1,160,2|0,0:2|0:2,0:0:0:0:
268,17,91354,6,0,P|327:29|262:54,1,150,10|0,0:2|0:2,0:0:0:0:
211,65,91670,6,0,P|290:61|358:21,1,160,6|8,3:1|0:2,0:0:0:0:
408,175,92143,2,0,P|328:178|260:218,1,160,2|0,0:2|0:2,0:0:0:0:
276,25,92617,6,0,P|312:123|341:228,1,200,10|0,0:2|3:0,0:0:0:0:
255,279,93091,1,0,3:2:0:0:
462,384,93249,6,0,P|479:285|509:210,1,150,14|0,0:1|0:2,0:0:0:0:
471,169,93565,2,0,P|426:181|408:215,1,50,4|0,3:3|3:0,0:0:0:0:
366,235,93723,1,0,0:0:0:0:
366,235,93801,1,8,0:2:0:0:
366,235,93880,1,8,0:2:0:0:
253,358,94038,6,0,P|156:345|175:241,1,200,4|0,3:2|3:2,0:0:0:0:
352,226,94512,2,0,P|332:293|327:341,1,100,8|0,0:2|3:2,0:0:0:0:
202,174,94828,5,10,0:2:0:0:
286,153,94986,1,2,3:2:0:0:
176,316,95144,5,8,0:2:0:0:
92,295,95302,1,2,3:2:0:0:
92,295,95380,1,0,3:0:0:0:
92,295,95459,2,0,P|42:307|-16:346,1,100,8|0,0:2|3:2,0:0:0:0:
158,127,95775,5,8,0:2:0:0:
137,220,95933,1,0,3:2:0:0:
0,83,96091,5,10,0:2:0:0:
91,54,96249,1,0,3:2:0:0:
240,210,96407,5,10,0:2:0:0:
190,28,96565,2,0,P|166:144|158:238,1,200,4|0,3:2|3:2,0:0:0:0:
0,123,97038,6,0,P|53:96|98:93,1,100,10|0,0:2|3:2,0:0:0:0:
26,197,97354,2,0,P|75:190|118:166,1,100,10|0,0:2|3:2,0:0:0:0:
310,54,97670,6,0,P|257:27|212:24,1,100,10|0,0:2|3:2,0:0:0:0:
284,128,97986,2,0,P|234:121|191:97,1,100,10|0,0:2|3:2,0:0:0:0:
411,89,98301,6,0,P|376:165|370:219,1,100,10|8,0:2|0:3,0:0:0:0:
384,197,98538,1,8,0:3:0:0:
384,197,98617,1,10,0:2:0:0:
320,264,98775,1,4,3:3:0:0:
238,221,98933,1,2,3:2:0:0:
62,306,99091,6,0,B|11:292|-67:331|-13:437|95:445|103:370|65:282|122:225|247:255|239:356|169:366,1,420.000016021729,4|0,3:2|0:0,0:0:0:0:
86,232,100354,5,8,0:2:0:0:
471,383,101775,6,0,P|487:301|524:204,1,160,6|8,3:1|0:2,0:0:0:0:
369,358,102249,2,0,P|396:282|411:204,1,160,6|0,3:2|3:2,0:0:0:0:
274,55,102722,6,0,P|290:137|327:234,1,160,14|0,0:1|3:2,0:0:0:0:
172,80,103195,2,0,P|199:155|214:233,1,160,10|2,0:2|3:2,0:0:0:0:
214,233,103590,1,0,3:0:0:0:
214,233,103669,1,8,0:2:0:0:
91,337,103828,6,0,P|37:351|52:269,1,150.000005722046,4|0,3:2|0:0,0:0:0:0:
42,280,104301,5,6,3:1:0:0:
117,261,104459,1,0,3:2:0:0:
122,183,104617,1,8,0:2:0:0:
50,154,104775,1,0,3:2:0:0:
0,214,104933,1,8,0:2:0:0:
48,285,105249,5,2,3:2:0:0:
123,266,105407,1,8,0:2:0:0:
128,188,105565,1,0,3:2:0:0:
56,159,105723,1,0,3:2:0:0:
6,219,105881,1,8,0:2:0:0:
54,290,106196,5,2,3:2:0:0:
129,271,106354,1,8,0:2:0:0:
72,365,106512,1,0,3:2:0:0:
147,346,106670,1,8,0:2:0:0:
211,247,106827,5,2,3:2:0:0:
286,266,106985,1,0,3:2:0:0:
291,344,107144,1,8,0:2:0:0:
219,373,107302,1,0,3:2:0:0:
169,313,107460,1,8,0:2:0:0:
217,242,107775,5,2,3:2:0:0:
292,261,107934,1,8,0:2:0:0:
297,339,108092,1,0,3:2:0:0:
225,368,108250,1,0,3:2:0:0:
175,308,108408,1,8,0:2:0:0:
223,237,108723,5,2,3:2:0:0:
298,256,108880,1,8,0:2:0:0:
242,162,109038,1,0,3:2:0:0:
317,181,109195,1,8,0:2:0:0:
465,127,109354,5,6,3:2:0:0:
389,146,109512,1,0,3:2:0:0:
384,224,109670,1,8,0:2:0:0:
456,253,109828,1,0,3:2:0:0:
506,193,109986,1,8,0:2:0:0:
470,123,110302,5,2,3:2:0:0:
395,142,110460,1,8,0:2:0:0:
390,220,110617,1,0,3:2:0:0:
462,249,110775,1,0,3:2:0:0:
512,189,110933,1,8,0:2:0:0:
473,92,111249,5,2,3:2:0:0:
398,111,111407,1,8,0:2:0:0:
454,16,111565,1,0,3:2:0:0:
379,35,111723,1,8,0:2:0:0:
319,136,111880,5,2,3:2:0:0:
244,117,112037,1,0,3:2:0:0:
239,39,112196,1,8,0:2:0:0:
311,10,112354,1,0,3:2:0:0:
361,70,112512,1,8,0:2:0:0:
315,143,112828,5,2,3:2:0:0:
240,124,112986,2,0,L|230:172,2,30.0000011444092,10|2|2,0:2|0:0|0:0,0:0:0:0:
126,0,113301,6,0,L|132:29,1,30.0000011444092,2|0,3:3|0:0,0:0:0:0:
147,108,113459,1,12,0:1:0:0:
70,87,113617,1,0,3:2:0:0:
233,26,113775,1,8,0:2:0:0:
233,26,113854,1,8,0:2:0:0:
233,26,113933,1,8,0:2:0:0:
233,26,114012,1,8,0:2:0:0:
233,26,114091,2,0,P|252:29|275:36,3,30.0000011444092,8|8|8|8,0:2|0:2|0:2|0:2,0:0:0:0:
330,101,114407,6,0,P|253:113|159:149,1,160,4|8,3:2|0:2,0:0:0:0:
59,38,114880,1,2,0:0:0:0:
59,38,115196,2,0,P|101:77|93:124,1,80,2|10,0:2|0:2,0:0:0:0:
57,163,115512,1,2,0:2:0:0:
0,289,115669,6,0,P|64:256|161:253,1,160,2|10,3:2|0:2,0:0:0:0:
276,341,116143,2,0,P|230:347|192:329,1,80,2|0,0:2|3:2,0:0:0:0:
159,261,116459,1,2,0:2:0:0:
332,209,116617,1,10,0:2:0:0:
276,102,116775,1,10,0:2:0:0:
276,102,116854,1,8,0:2:0:0:
276,102,116933,6,0,P|255:164|246:268,1,160,0|8,3:2|0:2,0:0:0:0:
191,69,117406,1,2,0:0:0:0:
191,69,117722,1,2,0:2:0:0:
253,17,117880,1,10,0:2:0:0:
329,42,118038,1,2,0:2:0:0:
460,163,118196,6,0,P|375:132|284:120,1,160,2|10,3:2|0:2,0:0:0:0:
475,18,118669,2,0,P|502:62|491:104,1,80,2|0,0:2|3:2,0:0:0:0:
469,162,118986,1,2,3:2:0:0:
313,241,119144,1,8,0:2:0:0:
423,362,119301,6,0,P|414:266|386:197,1,160,6|0,3:1|3:2,0:0:0:0:
492,40,119775,2,0,P|500:108|424:132,1,160,10|2,0:2|3:2,0:0:0:0:
419,125,120407,1,10,0:2:0:0:
362,74,120565,1,2,0:2:0:0:
254,0,120723,6,0,P|228:63|295:106,2,160,0|8|0,3:0|0:2|3:2,0:0:0:0:
264,1,121669,1,10,0:2:0:0:
190,157,121827,1,10,0:2:0:0:
190,157,121906,1,8,0:2:0:0:
190,157,121985,6,0,P|273:132|374:121,1,160,2|8,3:2|0:2,0:0:0:0:
255,50,122459,1,2,0:2:0:0:
207,239,122617,1,0,3:0:0:0:
207,239,122933,2,0,P|290:214|391:203,1,160,10|0,0:2|3:0,0:0:0:0:
423,140,123406,1,2,3:2:0:0:
512,292,123564,6,0,P|477:317|416:293,1,80,10|8,0:2|0:3,0:0:0:0:
434,303,123801,1,8,0:3:0:0:
434,303,123880,1,8,0:2:0:0:
356,274,124038,1,8,0:2:0:0:
308,329,124196,1,6,3:3:0:0:
336,377,124354,1,6,3:3:0:0:
371,382,124512,1,4,3:2:0:0:
371,382,129565,6,0,P|419:352|493:364,1,120.000004577637,4|0,3:1|0:0,0:0:0:0:
512,289,130038,1,0,3:2:0:0:
460,232,130196,1,8,0:2:0:0:
455,238,130512,5,0,3:2:0:0:
379,259,130670,1,0,3:2:0:0:
274,91,130986,5,8,0:2:0:0:
352,115,131144,1,0,3:2:0:0:
352,115,131301,1,0,3:2:0:0:
331,191,131459,1,8,0:2:0:0:
196,70,131775,5,2,0:0:0:0:
196,70,132091,2,0,P|132:78|77:52,1,120.000004577637,2|0,3:2|0:0,0:0:0:0:
11,91,132565,1,2,3:2:0:0:
40,162,132723,1,8,0:2:0:0:
47,167,133038,5,2,3:2:0:0:
122,141,133196,1,0,3:2:0:0:
211,314,133512,5,8,0:2:0:0:
219,317,133828,2,0,L|228:269,2,30.0000011444092,8|8|8,0:3|0:3|0:2,0:0:0:0:
152,358,134144,1,4,3:3:0:0:
96,303,134301,1,2,3:3:0:0:
29,345,134459,1,0,3:2:0:0:
32,354,134538,1,0,3:2:0:0:
34,362,134617,6,0,P|111:339|205:320,1,160,4|0,3:2|3:2,0:0:0:0:
328,375,135091,1,4,3:3:0:0:
328,375,135170,1,4,3:3:0:0:
328,375,135249,1,0,3:2:0:0:
292,221,135407,6,0,P|274:275|276:327,1,80,8|0,0:2|3:2,0:0:0:0:
149,133,135723,2,0,P|167:79|165:27,1,80,8|0,0:2|3:2,0:0:0:0:
217,183,136038,1,0,3:2:0:0:
64,213,136196,6,0,P|103:217|140:232,2,80,8|2|0,0:2|3:3|3:2,0:0:0:0:
0,266,136670,1,0,3:2:0:0:
136,148,136828,1,8,0:2:0:0:
0,71,136986,1,2,3:3:0:0:
0,71,137065,1,2,3:3:0:0:
0,71,137144,6,0,P|41:85|114:91,1,80,12|0,0:2|0:0,0:0:0:0:
173,218,137459,2,0,P|164:175|133:109,1,80,12|0,0:2|3:2,0:0:0:0:
224,0,137775,2,0,P|191:28|149:88,1,80,12|0,0:2|3:2,0:0:0:0:
64,176,138091,1,12,0:2:0:0:
226,114,138249,5,12,3:2:0:0:
161,65,138407,1,0,3:0:0:0:
150,143,138565,1,0,3:2:0:0:
272,6,138723,6,0,P|315:21|387:29,1,80,12|0,0:1|0:0,0:0:0:0:
512,105,139038,1,8,0:2:0:0:
448,18,139196,1,8,0:3:0:0:
448,18,139274,1,8,0:3:0:0:
448,18,139354,2,0,P|436:47|433:73,1,40,8|8,0:2|0:2,0:0:0:0:
512,196,139512,6,0,P|420:158|294:134,1,200,4|0,3:1|3:2,0:0:0:0:
175,34,139986,1,10,0:2:0:0:
279,11,140144,2,0,P|259:58|247:121,1,100,2|0,0:2|3:2,0:0:0:0:
166,251,140459,2,0,P|155:202|135:156,1,100,2|8,3:2|0:2,0:0:0:0:
18,30,140776,6,0,P|83:54|192:77,1,150,2|0,3:2|0:0,0:0:0:0:
172,68,141092,1,2,3:2:0:0:
291,178,141249,2,0,P|242:186|187:214,1,100,8|0,0:2|0:0,0:0:0:0:
78,352,141565,6,0,B|116:391|153:356|158:337|152:288|91:279,1,167.999994873047,2|0,3:2|0:0,0:0:0:0:
114,190,141880,2,0,B|76:151|39:186|34:205|40:254|101:263,1,167.999994873047,10|0,0:2|0:2,0:0:0:0:
0,310,142196,6,0,P|117:265|236:265,1,200,6|10,3:1|0:2,0:0:0:0:
347,331,142671,2,0,P|323:371|264:382,1,100,2|0,0:2|3:2,0:0:0:0:
194,344,142986,1,2,3:2:0:0:
357,244,143144,1,8,0:2:0:0:
231,105,143301,6,0,P|262:203|271:304,1,200,2|0,3:2|3:2,0:0:0:0:
431,206,143775,2,0,P|376:165|338:165,1,100,10|0,0:2|0:0,0:0:0:0:
222,98,144091,2,0,P|285:70|304:37,1,100,2|0,3:2|0:0,0:0:0:0:
488,62,144407,1,10,0:2:0:0:
511,104,144485,1,8,0:0:0:0:
499,152,144564,1,8,0:3:0:0:
458,178,144643,1,8,0:3:0:0:
410,169,144723,6,0,P|391:84|416:2,1,160,6|10,3:2|0:2,0:0:0:0:
318,142,145197,2,0,P|278:138|246:114,1,80,2|0,0:2|3:2,0:0:0:0:
273,38,145513,2,0,P|312:41|344:65,1,80,2|8,0:2|0:2,0:0:0:0:
474,73,145828,6,0,P|418:133|409:168,1,120,2|0,0:2|0:0,0:0:0:0:
416,191,146144,2,0,P|463:192|496:178,1,80,2|8,0:2|0:2,0:0:0:0:
391,278,146460,2,0,P|317:253|218:257,1,160,2|0,0:2|0:2,0:0:0:0:
108,376,146934,1,10,0:2:0:0:
108,376,147250,6,0,P|42:345|63:248,1,160,6|10,3:1|0:2,0:0:0:0:
232,246,147723,2,0,P|228:285|205:316,1,80,2|0,0:2|3:2,0:0:0:0:
128,291,148039,2,0,P|131:251|155:219,1,80,2|8,0:2|0:2,0:0:0:0:
303,171,148354,6,0,P|227:158|144:118,1,160,2|0,0:2|0:2,0:0:0:0:
47,13,148829,2,0,P|-6:47|12:111,1,120,14|0,0:1|0:0,0:0:0:0:
15,109,149144,1,2,3:2:0:0:
133,47,149302,5,8,0:3:0:0:
133,47,149380,1,8,0:3:0:0:
133,47,149460,2,0,P|161:37|188:33,1,40,8|8,0:0|0:2,0:0:0:0:
270,0,149618,1,8,0:2:0:0:
270,0,149697,1,8,0:2:0:0:
270,0,149776,6,0,P|246:81|233:165,1,150,6|0,3:2|0:0,0:0:0:0:
245,156,150092,1,10,0:2:0:0:
129,255,150250,2,0,P|92:230|114:151,1,100,2|0,0:2|3:2,0:0:0:0:
232,260,150565,2,0,P|216:317|209:361,1,100,2|8,3:2|0:2,0:0:0:0:
324,172,150881,6,0,P|245:156|170:125,1,150,2|0,3:2|0:0,0:0:0:0:
174,116,151197,1,2,3:2:0:0:
332,11,151355,2,0,P|372:53|373:99,1,100,8|0,0:2|0:2,0:0:0:0:
445,325,151670,6,0,B|407:364|370:329|365:310|371:261|432:252,1,167.999994873047,2|0,3:2|0:0,0:0:0:0:
409,163,151985,2,0,B|447:124|484:159|489:178|483:227|422:236,1,167.999994873047,10|0,0:2|0:2,0:0:0:0:
512,275,152302,6,0,P|425:243|289:240,1,200,6|10,3:1|0:2,0:0:0:0:
196,140,152776,2,0,P|197:81|224:53,1,100,2|0,0:2|3:0,0:0:0:0:
308,75,153092,1,2,3:2:0:0:
213,236,153250,1,8,0:2:0:0:
308,75,153407,6,0,B|282:134|326:173|344:152|385:205|360:262,1,200,2|0,3:2|3:2,0:0:0:0:
220,372,153881,2,0,P|180:359|108:357,1,100,14|0,0:1|0:0,0:0:0:0:
275,295,154197,1,2,3:2:0:0:
222,171,154355,1,8,0:3:0:0:
222,171,154434,1,8,0:3:0:0:
222,171,154513,2,0,P|202:214|201:247,1,50,8|0,0:3|0:0,0:0:0:0:
131,293,154670,1,8,0:3:0:0:
131,293,154750,1,8,0:3:0:0:
131,293,154829,6,0,P|62:274|63:187,1,160,6|8,3:1|0:2,0:0:0:0:
70,46,155301,2,0,P|139:65|138:152,1,160,2|0,0:0|0:2,0:0:0:0:
0,137,155776,6,0,P|82:157|157:196,1,150,10|0,0:2|0:0,0:0:0:0:
210,220,156092,6,0,P|268:201|267:92,1,160,2|8,3:2|0:2,0:0:0:0:
222,309,156565,2,0,P|298:312|329:381,1,160,2|0,0:2|0:2,0:0:0:0:
448,196,157039,6,0,B|428:226|387:236|387:236|427:231|460:256,1,150,10|0,0:2|0:2,0:0:0:0:
401,314,157355,6,0,P|377:240|377:142,1,160,6|8,3:1|0:2,0:0:0:0:
230,179,157828,2,0,P|254:253|254:351,1,160,2|0,0:2|0:2,0:0:0:0:
422,230,158302,6,0,P|321:237|211:270,1,200,10|0,0:2|3:0,0:0:0:0:
151,357,158776,1,0,3:2:0:0:
9,201,158934,6,0,P|37:139|121:159,1,150,14|0,0:1|0:2,0:0:0:0:
161,202,159249,2,0,P|151:243|155:293,1,50,4|0,3:3|3:0,0:0:0:0:
93,305,159407,1,0,3:0:0:0:
93,305,159486,1,8,0:2:0:0:
93,305,159565,1,8,0:2:0:0:
232,384,159723,6,0,P|232:315|263:173,1,200,4|0,3:2|3:2,0:0:0:0:
441,56,160197,2,0,P|431:109|380:122,1,100,8|0,0:2|3:2,0:0:0:0:
258,0,160513,5,10,0:2:0:0:
296,84,160671,1,2,3:2:0:0:
424,210,160828,5,8,0:2:0:0:
472,117,160986,1,2,3:2:0:0:
472,117,161065,1,0,3:0:0:0:
472,117,161144,2,0,P|421:126|357:136,1,100,8|0,0:2|3:2,0:0:0:0:
479,277,161460,5,10,0:2:0:0:
512,192,161618,1,0,3:2:0:0:
330,223,161775,5,10,0:2:0:0:
387,294,161933,1,0,3:2:0:0:
413,128,162092,5,2,0:0:0:0:
306,303,162250,2,0,P|190:279|96:271,1,200,4|0,3:2|3:2,0:0:0:0:
77,93,162723,6,0,P|104:146|107:191,1,100,10|0,0:2|3:2,0:0:0:0:
3,119,163039,2,0,P|10:168|34:211,1,100,10|0,0:2|3:2,0:0:0:0:
217,372,163354,6,0,P|244:319|247:274,1,100,10|0,0:2|3:2,0:0:0:0:
143,346,163670,2,0,P|150:297|174:254,1,100,10|0,0:2|3:2,0:0:0:0:
289,190,163986,6,0,P|237:180|167:138,1,100,10|8,0:2|0:3,0:0:0:0:
187,147,164223,1,8,0:3:0:0:
187,147,164302,1,10,0:2:0:0:
226,69,164460,1,4,3:3:0:0:
305,105,164617,1,2,3:2:0:0:
463,70,164775,6,0,B|520:43|503:0|470:-25|439:-25|340:15|399:117,1,256,4|8,3:2|0:3,0:0:0:0:
388,93,165486,1,8,0:3:0:0:
388,93,165565,1,8,0:0:0:0:
331,148,165723,1,4,3:3:0:0:
266,104,165880,1,2,3:3:0:0:
289,30,166038,1,8,0:0:0:0:
289,30,166986,6,0,L|298:-12,2,30.0000011444092,0|0|6,3:2|3:2|0:3,0:0:0:0:
493,181,167459,5,6,3:2:0:0:
418,200,167617,1,2,3:2:0:0:
437,275,167775,1,10,0:2:0:0:
512,256,167933,1,2,0:0:0:0:
485,179,168406,5,10,0:2:0:0:
410,198,168564,1,2,0:0:0:0:
429,273,168722,1,2,0:0:0:0:
504,254,168880,1,2,0:0:0:0:
477,177,169354,5,2,0:0:0:0:
402,196,169512,1,2,0:0:0:0:
327,215,169670,1,10,0:2:0:0:
318,220,169986,5,2,3:2:0:0:
243,201,170144,1,2,3:2:0:0:
262,126,170302,1,10,0:2:0:0:
337,145,170460,1,2,0:0:0:0:
310,222,170933,5,10,0:2:0:0:
235,203,171091,1,2,0:0:0:0:
254,128,171249,1,2,0:0:0:0:
329,147,171407,1,2,0:0:0:0:
302,224,171881,5,2,0:0:0:0:
227,205,172039,1,2,0:0:0:0:
152,186,172197,1,10,0:2:0:0:
0,309,172512,5,6,3:1:0:0:
75,290,172670,1,2,3:2:0:0:
94,365,172828,1,10,0:2:0:0:
19,384,172986,1,2,0:0:0:0:
7,301,173459,5,10,0:2:0:0:
82,282,173617,1,2,0:2:0:0:
101,357,173775,1,2,0:0:0:0:
26,376,173933,1,2,0:2:0:0:
14,293,174407,5,2,3:2:0:0:
89,274,174565,1,2,3:2:0:0:
164,255,174723,1,10,0:2:0:0:
171,261,175038,5,6,3:1:0:0:
246,280,175196,1,2,3:2:0:0:
265,205,175354,1,10,0:2:0:0:
190,186,175512,1,2,0:0:0:0:
178,269,175985,5,10,0:2:0:0:
253,288,176143,1,2,0:2:0:0:
272,213,176301,1,2,0:2:0:0:
197,194,176459,1,2,0:2:0:0:
329,270,176617,5,14,0:2:0:0:
337,280,176933,5,2,3:2:0:0:
412,299,177091,1,2,3:2:0:0:
431,224,177249,1,8,0:2:0:0:
425,194,177327,1,8,0:2:0:0:
419,165,177406,1,8,0:2:0:0:
413,135,177485,1,8,0:2:0:0:
408,106,177565,6,0,B|342:87|342:87|273:133,1,136.000002593994,6|10,3:2|0:2,0:0:0:0:
217,160,178038,1,2,0:2:0:0:
163,104,178196,1,0,3:2:0:0:
0,242,178512,6,0,B|66:222|66:222|135:268,1,136.000002593994,10|2,0:2|3:2,0:0:0:0:
191,295,178985,1,2,0:2:0:0:
245,239,179143,1,8,0:2:0:0:
418,321,179459,5,2,3:2:0:0:
325,218,179617,2,0,P|342:283|345:304,1,68.0000012969971,8|2,0:2|3:2,0:0:0:0:
413,78,179933,1,8,0:2:0:0:
257,156,180091,6,0,B|347:135|347:135|367:153|398:166,1,136.000002593994,2|10,3:2|0:2,0:0:0:0:
453,194,180565,1,2,0:2:0:0:
506,137,180723,1,0,3:2:0:0:
285,66,181038,6,0,B|195:45|195:45|175:63|144:76,1,136.000002593994,10|2,0:2|3:2,0:0:0:0:
89,104,181512,1,2,3:2:0:0:
36,47,181670,1,12,0:2:0:0:
104,4,181828,1,0,3:2:0:0:
219,138,181986,5,8,0:2:0:0:
219,138,182065,1,4,3:3:0:0:
219,138,182144,2,0,P|206:180|206:196,1,34.0000006484985,4|4,3:3|3:3,0:0:0:0:
149,225,182301,1,2,3:3:0:0:
149,225,182380,1,2,3:3:0:0:
149,225,182459,2,0,P|162:267|162:283,1,34.0000006484985,2|2,3:3|3:3,0:0:0:0:
52,319,182617,6,0,P|121:329|171:386,1,136.000002593994,12|0,0:2|3:2,0:0:0:0:
249,246,183091,2,0,P|238:292|236:325,2,68.0000012969971,12|0|0,0:1|3:2|3:2,0:0:0:0:
351,166,183565,6,0,P|282:156|232:99,1,136.000002593994,8|0,0:2|3:2,0:0:0:0:
154,239,184038,2,0,P|165:193|167:160,2,68.0000012969971,8|0|0,0:2|3:2|3:2,0:0:0:0:
18,285,184512,6,0,P|66:284|105:298,1,68.0000012969971,8|0,0:2|3:2,0:0:0:0:
100,118,184828,2,0,P|52:119|13:105,1,68.0000012969971,8|0,0:2|3:2,0:0:0:0:
165,219,185144,5,12,0:2:0:0:
165,219,185301,1,0,3:2:0:0:
165,219,185459,1,0,3:2:0:0:
277,199,185617,5,8,0:2:0:0:
277,199,185774,1,0,3:2:0:0:
277,199,185932,1,0,3:2:0:0:
389,179,186092,5,8,0:2:0:0:
389,179,186249,1,0,3:2:0:0:
277,199,186407,5,12,0:2:0:0:
389,179,186565,1,0,3:2:0:0:
191,116,186723,5,12,0:2:0:0:
264,202,186881,1,0,3:2:0:0:
219,0,187038,5,8,0:2:0:0:
219,0,187117,1,4,3:3:0:0:
219,0,187196,2,0,P|211:16|205:38,1,34.0000006484985,4|4,3:3|3:3,0:0:0:0:
181,106,187354,1,2,3:3:0:0:
181,106,187433,1,2,3:3:0:0:
181,106,187512,2,0,P|202:111|219:120,1,34.0000006484985,2|2,3:3|3:3,0:0:0:0:
309,190,187670,6,0,B|223:189|255:258|166:262,1,160,14|0,0:1|3:2,0:0:0:0:
33,167,188144,2,0,P|76:138|122:146,1,80,14|0,0:1|0:0,0:0:0:0:
170,181,188459,1,0,3:2:0:0:
72,375,188617,6,0,P|87:316|94:209,1,160,10|0,0:1|3:2,0:0:0:0:
229,61,189091,2,0,P|227:102|243:148,1,80,14|2,0:2|3:2,0:0:0:0:
170,181,189407,1,0,3:2:0:0:
250,286,189565,5,10,0:1:0:0:
294,203,189723,1,0,3:2:0:0:
416,321,189880,5,10,0:2:0:0:
335,278,190038,1,0,3:2:0:0:
487,384,190196,6,0,P|497:337|519:296,1,80,14|2,0:1|3:2,0:0:0:0:
491,233,190512,1,2,3:2:0:0:
356,121,190670,6,0,P|319:171|291:285,1,160,14|2,0:2|3:2,0:0:0:0:
143,115,191144,2,0,P|214:61|269:90,1,160,10|0,0:1|3:2,0:0:0:0:
186,282,191617,2,0,P|135:220|67:179,1,160,14|0,0:2|3:2,0:0:0:0:
123,9,192091,5,14,0:1:0:0:
39,50,192249,1,0,3:2:0:0:
153,187,192407,5,10,0:2:0:0:
112,103,192565,1,0,3:0:0:0:
0,233,192723,5,6,3:1:0:0:
0,233,192880,1,2,3:2:0:0:
14,82,193038,6,0,P|33:127|40:172,1,80,10|0,0:2|0:0,0:0:0:0:
196,108,193354,2,0,P|177:63|170:18,1,80,10|2,0:2|3:2,0:0:0:0:
127,164,193670,1,0,3:0:0:0:
254,0,193828,6,0,P|272:65|329:153,1,160,10|2,0:2|3:2,0:0:0:0:
452,289,194301,2,0,P|421:257|368:251,1,80,10|2,0:2|3:2,0:0:0:0:
271,218,194617,5,8,0:2:0:0:
271,218,194696,1,4,3:3:0:0:
271,218,194775,2,0,P|239:234|232:241,1,40,4|4,3:3|3:3,0:0:0:0:
192,312,194933,1,2,3:3:0:0:
192,312,195012,1,2,3:3:0:0:
192,312,195091,2,0,P|224:328|231:335,1,40,2|2,3:3|3:3,0:0:0:0:
354,384,195249,6,0,P|363:333|394:263,1,100,12|0,0:1|3:2,0:0:0:0:
396,286,195486,1,0,3:2:0:0:
396,286,195565,1,0,3:2:0:0:
234,224,195723,6,0,P|282:206|358:198,1,100,12|0,3:2|3:2,0:0:0:0:
346,211,195960,1,0,3:2:0:0:
346,211,196039,1,0,3:2:0:0:
311,39,196196,6,0,P|350:72|395:134,1,100,12|0,3:1|3:2,0:0:0:0:
380,126,196433,1,0,3:2:0:0:
380,126,196512,1,0,3:2:0:0:
509,13,196670,6,0,P|500:64|469:134,1,100,12|0,3:2|3:2,0:0:0:0:
471,117,196907,1,0,3:2:0:0:
471,117,196986,1,0,3:2:0:0:
316,205,197144,6,0,P|256:184|198:188,1,100,12|0,3:2|3:2,0:0:0:0:
401,0,197459,2,0,P|461:21|519:17,1,100,12|0,3:2|3:2,0:0:0:0:
354,111,197775,5,8,0:2:0:0:
354,111,197854,1,2,0:3:0:0:
354,111,197933,2,0,P|342:79|325:59,3,50,2|2|2|2,0:3|0:3|0:3|0:3,0:0:0:0:
257,16,198249,5,8,0:2:0:0:
257,16,198328,1,2,0:3:0:0:
257,16,198407,2,0,P|245:48|228:68,3,50,2|2|2|2,0:3|0:3|0:3|0:3,0:0:0:0:
160,111,198722,5,8,0:2:0:0:
160,111,198801,1,2,0:3:0:0:
160,111,198880,2,0,P|148:79|131:59,3,50,2|2|2|2,0:3|0:3|0:3|0:3,0:0:0:0:
63,16,199196,5,8,0:2:0:0:
63,16,199275,1,2,0:3:0:0:
63,16,199354,2,0,P|51:48|34:68,3,50,2|2|2|2,0:3|0:3|0:3|0:3,0:0:0:0:
0,143,199670,5,8,0:2:0:0:
0,143,199749,1,8,0:2:0:0:
0,143,199828,2,0,P|32:155|52:172,1,50,8|8,0:2|0:2,0:0:0:0:
148,234,199987,1,8,0:0:0:0:
148,234,200065,1,8,0:2:0:0:
148,234,200145,2,0,P|116:246|96:263,1,50,8|8,0:2|0:2,0:0:0:0:
0,346,200301,6,0,P|42:356|99:395,1,80,6|0,3:2|0:0,0:0:0:0:
221,273,200617,1,8,0:2:0:0:
1,260,200775,2,0,P|87:283|167:341,1,160,2|0,0:2|0:2,0:0:0:0:
260,384,201249,1,10,0:2:0:0:
260,384,201565,6,0,P|232:308|275:235,1,160,2|8,3:2|0:2,0:0:0:0:
445,249,202038,2,0,P|393:311|308:310,1,160,2|0,0:2|0:2,0:0:0:0:
314,146,202512,1,10,0:2:0:0:
359,238,202670,1,8,0:3:0:0:
359,238,202749,1,8,0:3:0:0:
359,238,202828,6,0,P|382:290|392:335,1,80,2|0,3:2|0:0,0:0:0:0:
270,233,203144,1,8,0:2:0:0:
475,328,203301,2,0,P|452:236|415:163,1,160,2|0,0:2|0:2,0:0:0:0:
512,22,203775,1,10,0:2:0:0:
512,22,204091,6,0,P|485:67|373:83,1,160,2|8,3:2|0:2,0:0:0:0:
184,45,204565,2,0,P|236:45|306:134,1,160,2|0,0:2|3:2,0:0:0:0:
357,251,205038,2,0,P|364:203|391:142,1,80,14|0,0:2|0:0,0:0:0:0:
213,125,205354,6,0,P|151:140|70:148,1,120,4|0,3:1|0:0,0:0:0:0:
86,160,205670,2,0,P|104:210|104:247,1,80,8|0,0:2|3:2,0:0:0:0:
225,114,205986,2,0,P|207:64|207:27,1,80,8|0,0:2|3:2,0:0:0:0:
133,5,206301,1,0,3:2:0:0:
0,85,206459,6,0,B|95:81|56:157|163:150,1,160,8|0,0:2|3:2,0:0:0:0:
210,193,206933,1,8,0:2:0:0:
210,193,207249,5,0,3:2:0:0:
66,279,207407,2,0,P|0:253|10:162,1,160,8|8,0:2|0:2,0:0:0:0:
235,69,207880,6,0,P|213:125|200:185,1,120,0|0,3:2|0:0,0:0:0:0:
190,194,208196,2,0,P|139:180|96:178,1,80,8|0,0:2|3:2,0:0:0:0:
245,63,208512,2,0,P|296:77|339:79,1,80,8|0,0:2|3:2,0:0:0:0:
387,129,208828,1,0,3:2:0:0:
493,37,208986,6,0,P|475:110|466:194,1,160,8|0,0:2|3:2,0:0:0:0:
302,367,209459,2,0,P|342:334|386:336,1,80,12|8,0:2|0:3,0:0:0:0:
384,345,209696,1,8,0:3:0:0:
384,345,209775,1,8,0:2:0:0:
450,384,209933,1,4,3:3:0:0:
510,332,210091,1,2,3:3:0:0:
481,260,210249,1,2,3:3:0:0:
481,260,210328,1,2,3:3:0:0:
481,260,210407,6,0,L|352:243,1,120,4|0,3:1|0:0,0:0:0:0:
348,243,210723,1,8,0:2:0:0:
238,297,210880,2,0,P|230:327|232:352,2,40,4|4|0,3:3|3:3|3:2,0:0:0:0:
266,220,211196,1,0,3:2:0:0:
147,350,211354,2,0,P|155:285|177:238,1,80,8|0,0:2|3:2,0:0:0:0:
0,157,211670,6,0,P|20:214|103:207,1,120,0|0,3:2|0:0,0:0:0:0:
84,217,211986,1,8,0:2:0:0:
183,144,212144,2,0,P|211:135|231:135,2,40,2|2|0,3:3|3:3|3:2,0:0:0:0:
100,130,212459,1,0,3:2:0:0:
260,212,212617,2,0,P|200:217|163:241,1,80,8|0,0:2|3:2,0:0:0:0:
0,93,212933,6,0,P|72:89|142:67,1,120,4|0,3:2|0:0,0:0:0:0:
131,82,213249,1,8,0:2:0:0:
247,63,213407,2,0,P|251:32|249:15,2,40,4|4|0,3:3|3:3|3:2,0:0:0:0:
196,133,213723,1,0,3:2:0:0:
329,10,213880,2,0,P|330:54|320:98,1,80,8|0,0:2|3:2,0:0:0:0:
479,148,214196,5,0,3:2:0:0:
478,147,214512,2,0,P|395:155|326:210,1,150,12|0,0:2|0:0,0:0:0:0:
268,278,214828,6,0,B|248:250|248:250|256:218,2,66.6666666666667,8|8|8,0:2|0:2|0:2,0:0:0:0:
334,202,215144,2,0,B|353:230|353:230|345:261,2,66.6666666666667,6|6|6,3:3|3:3|3:3,0:0:0:0:
278,144,215459,1,6,3:2:0:0:
100,198,220512,6,0,B|8:175|33:90|95:71|166:77|198:151|169:165|196:228|286:222,1,383.99998828125,6|0,0:1|0:0,0:0:0:0:
401,118,222407,6,0,B|453:103|438:49|400:42|355:53|337:86|350:97|333:138|275:134,1,240.000009155274,2|2,0:0|0:2,0:0:0:0:
256,192,223117,12,2,224144,0:2:0:0:
275,134,225407,5,4,3:2:0:0:
287,130,228091,5,4,3:2:0:0:
299,126,229986,6,0,P|306:150|312:180,3,30.0000011444092,8|0|0|0,0:2|3:2|3:2|3:2,0:0:0:0:
375,201,230301,2,0,P|368:225|362:255,3,30.0000011444092,2|2|2|2,3:3|3:3|3:3|3:3,0:0:0:0:
263,280,230617,6,0,P|327:302|351:330,1,80,4|0,3:1|3:2,0:0:0:0:
504,384,230933,1,0,3:2:0:0:
478,162,231091,6,0,P|449:234|432:319,1,160,12|0,0:2|3:2,0:0:0:0:
286,166,231565,2,0,P|325:139|374:153,1,80,8|0,0:2|3:2,0:0:0:0:
428,177,231880,1,0,3:2:0:0:
266,314,232038,6,0,P|189:271|105:278,1,160,12|0,0:2|3:2,0:0:0:0:
225,113,232512,5,8,0:2:0:0:
250,189,232670,1,0,3:2:0:0:
82,198,232828,5,8,0:2:0:0:
158,173,232986,1,0,3:2:0:0:
273,29,233144,6,0,P|223:22|189:9,1,80,12|0,0:1|3:2,0:0:0:0:
59,120,233459,1,0,3:2:0:0:
90,0,233617,6,0,P|129:58|167:176,1,160,12|0,0:2|3:2,0:0:0:0:
0,273,234091,2,0,P|17:219|39:186,1,80,12|0,0:1|3:2,0:0:0:0:
220,216,234407,5,8,0:2:0:0:
220,216,234486,1,8,0:2:0:0:
220,216,234565,2,0,P|186:227|164:243,1,40,8|8,0:2|0:2,0:0:0:0:
109,142,234723,1,6,3:3:0:0:
109,142,234802,1,6,3:3:0:0:
109,142,234881,2,0,P|143:153|165:169,1,40,6|6,3:3|3:3,0:0:0:0:
193,78,235038,5,8,0:2:0:0:
193,78,235670,6,0,P|162:148|154:251,1,150,6|0,3:2|0:0,0:0:0:0:
161,234,235986,1,10,0:2:0:0:
34,384,236144,2,0,P|22:332|-15:262,1,100,2|0,0:2|3:2,0:0:0:0:
58,141,236459,2,0,P|106:130|151:154,1,100,2|8,3:2|0:2,0:0:0:0:
249,282,236775,6,0,P|259:207|289:139,1,150,2|0,3:2|0:0,0:0:0:0:
303,132,237091,1,2,3:2:0:0:
161,5,237249,2,0,P|192:51|243:62,1,100,8|0,0:2|0:0,0:0:0:0:
430,167,237565,6,0,B|398:154|384:125|384:125|388:161|351:198,1,120,2|0,3:2|0:0,0:0:0:0:
381,249,237880,2,0,B|412:261|426:290|426:290|423:255|460:218,1,120,10|0,0:2|0:2,0:0:0:0:
308,227,238196,6,0,P|403:210|508:181,1,200,6|10,3:1|0:2,0:0:0:0:
327,340,238670,2,0,P|273:327|209:327,1,100,2|0,0:2|3:0,0:0:0:0:
166,241,238986,1,2,3:2:0:0:
318,103,239144,1,8,0:2:0:0:
166,241,239301,6,0,B|220:265|266:221|248:203|292:162|353:189,1,200,2|0,3:2|3:2,0:0:0:0:
156,68,239775,2,0,P|181:130|188:164,1,100,14|0,0:1|0:0,0:0:0:0:
325,265,240091,1,2,3:2:0:0:
182,350,240249,1,8,0:3:0:0:
182,350,240328,1,8,0:3:0:0:
182,350,240407,2,0,P|144:338|118:338,1,50,8|0,0:3|0:0,0:0:0:0:
32,292,240565,1,8,0:3:0:0:
32,292,240644,1,8,0:3:0:0:
32,292,240723,6,0,P|95:249|84:160,1,160,6|8,3:1|0:2,0:0:0:0:
304,179,241196,2,0,P|228:186|179:111,1,160,2|0,0:0|0:2,0:0:0:0:
165,301,241670,6,0,B|204:318|223:347|223:347|216:308|243:258,1,150,10|0,0:2|0:0,0:0:0:0:
150,379,241986,6,0,P|208:344|327:320,1,160,2|8,3:2|0:2,0:0:0:0:
238,169,242459,2,0,P|180:204|61:228,1,160,2|0,0:2|0:0,0:0:0:0:
350,251,242933,6,0,B|367:212|396:193|396:193|357:200|307:173,1,150,10|0,0:2|0:2,0:0:0:0:
437,263,243249,6,0,P|399:185|380:75,1,160,6|8,3:2|0:2,0:0:0:0:
226,168,243723,2,0,P|263:245|282:355,1,160,2|0,0:2|0:2,0:0:0:0:
425,193,244196,6,0,P|313:216|236:265,1,200,10|0,0:2|3:0,0:0:0:0:
151,211,244670,1,0,3:2:0:0:
228,57,244828,6,0,P|294:70|375:122,1,150,14|0,0:1|0:2,0:0:0:0:
442,118,245144,2,0,P|458:89|458:60,1,50,4|0,3:3|3:0,0:0:0:0:
406,17,245301,1,8,0:2:0:0:
406,17,245380,1,8,0:2:0:0:
406,17,245459,1,8,0:2:0:0:
276,155,245617,6,0,P|297:205|320:356,1,200,4|0,3:2|3:2,0:0:0:0:
481,208,246091,2,0,P|433:174|373:189,1,100,8|0,0:2|3:2,0:0:0:0:
458,384,246407,5,10,0:2:0:0:
503,302,246565,1,2,3:2:0:0:
314,200,246723,5,8,0:2:0:0:
368,287,246881,1,2,3:2:0:0:
368,287,246959,1,0,3:0:0:0:
368,287,247038,2,0,P|355:331|350:393,1,100,8|0,0:2|3:2,0:0:0:0:
215,256,247354,5,10,0:2:0:0:
299,219,247512,1,0,3:2:0:0:
403,88,247670,5,10,0:2:0:0:
319,51,247828,1,0,3:2:0:0:
225,171,247986,5,10,0:2:0:0:
248,0,248144,2,0,P|285:92|309:199,1,200,4|0,3:2|3:2,0:0:0:0:
451,368,248617,6,0,P|463:293|481:264,1,100,10|0,0:2|3:2,0:0:0:0:
352,350,248933,2,0,P|372:304|375:254,1,100,10|0,0:2|3:2,0:0:0:0:
207,116,249249,6,0,P|219:191|237:220,1,100,10|0,0:2|3:2,0:0:0:0:
108,134,249565,2,0,P|128:179|131:229,1,100,10|0,0:2|3:2,0:0:0:0:
0,384,249880,6,0,P|49:347|99:361,1,100,10|8,0:2|0:3,0:0:0:0:
100,367,250117,1,8,0:3:0:0:
100,367,250196,1,10,0:2:0:0:
179,384,250354,1,4,3:3:0:0:
236,319,250512,1,2,3:2:0:0:
109,194,250670,6,0,B|90:152|32:164|32:164|9:235|74:249,1,192,4|0,3:2|0:0,0:0:0:0:
134,307,251301,6,0,P|157:296|179:296,2,32,0|0|8,3:0|3:0|0:0,0:0:0:0:
64,357,251617,1,0,3:2:0:0:
182,212,251775,5,8,0:2:0:0:
229,350,251933,1,4,3:1:0:0:
237,359,252249,6,0,P|270:350|301:352,1,40,8|8,0:2|0:2,0:0:0:0:
377,295,252407,1,8,0:2:0:0:
377,295,252486,1,8,0:2:0:0:
377,295,252565,2,0,P|343:286|318:269,1,40,0|0,3:3|3:3,0:0:0:0:
267,228,252723,5,8,0:2:0:0:
271,208,252801,1,8,0:2:0:0:
276,189,252880,1,8,0:2:0:0:
281,169,252959,1,8,0:2:0:0:
286,150,253038,2,0,L|310:218,1,40,8|8,0:2|0:2,0:0:0:0:
463,203,253196,6,0,B|402:180|360:221|378:241|335:291|269:261,1,200,4|0,3:1|3:0,0:0:0:0:
156,136,253670,5,10,0:2:0:0:
223,196,253828,2,0,P|202:257|197:303,1,80,2|0,0:0|3:2,0:0:0:0:
156,136,254144,5,2,3:2:0:0:
216,69,254302,2,0,P|277:90|323:95,1,80,10|0,0:2|3:2,0:0:0:0:
156,136,254617,5,2,0:0:0:0:
89,76,254775,2,0,P|110:15|115:-31,1,80,2|8,3:2|0:2,0:0:0:0:
156,136,255091,5,2,0:0:0:0:
96,203,255249,2,0,P|35:182|-11:177,2,80,2|0|8,3:2|3:2|0:2,0:0:0:0:
187,384,255723,6,0,P|196:303|216:225,1,160,6|2,3:2|3:2,0:0:0:0:
363,153,256196,5,10,0:2:0:0:
212,141,256354,2,0,P|250:152|285:177,1,80,2|0,0:2|3:2,0:0:0:0:
363,153,256670,5,2,3:2:0:0:
373,2,256828,2,0,P|361:40|336:75,1,80,10|0,0:2|3:2,0:0:0:0:
363,153,257144,5,2,0:0:0:0:
512,163,257301,2,0,P|473:151|438:126,1,80,2|8,3:2|0:2,0:0:0:0:
363,153,257618,5,2,0:0:0:0:
512,76,257775,1,2,3:2:0:0:
334,0,257933,1,8,0:2:0:0:
336,8,258012,1,8,0:2:0:0:
338,15,258091,1,8,0:2:0:0:
413,75,258249,6,0,B|396:152|396:152|389:158|389:158|368:254,1,160,4|2,3:2|3:2,0:0:0:0:
202,355,258723,2,0,P|199:301|219:265,1,80,10|0,0:2|0:0,0:0:0:0:
283,245,259038,1,2,3:2:0:0:
340,305,259196,1,0,0:2:0:0:
291,374,259354,1,10,0:2:0:0:
86,370,259512,6,0,P|116:272|110:181,1,160,2|2,0:2|0:2,0:0:0:0:
153,89,259986,2,0,P|187:136|182:175,1,80,10|0,0:2|0:0,0:0:0:0:
110,206,260302,1,2,3:2:0:0:
242,289,260459,2,0,P|285:269|334:274,1,80,2|10,3:2|0:2,0:0:0:0:
488,125,260775,6,0,B|453:95|452:55|452:55|435:91|377:107,1,160,6|0,3:1|3:2,0:0:0:0:
411,258,261249,2,0,P|420:195|436:160,1,80,10|0,0:2|0:2,0:0:0:0:
271,66,261565,2,0,P|302:136|305:165,2,80,2|2|10,3:2|0:2|0:2,0:0:0:0:
171,238,262038,6,0,P|250:223|299:295,1,150,2|0,0:2|0:0,0:0:0:0:
298,280,262354,1,2,0:2:0:0:
383,384,262512,6,0,P|386:316|413:213,1,150,14|0,0:2|0:0,0:0:0:0:
413,230,262828,1,0,3:2:0:0:
255,121,262986,1,0,3:2:0:0:
258,130,263065,1,8,3:2:0:0:
260,139,263144,1,8,2:2:0:0:
416,144,263302,6,0,B|357:129|317:177|338:192|298:235|233:214,1,200,4|0,3:2|3:2,0:0:0:0:
205,0,263775,5,10,0:2:0:0:
273,55,263933,2,0,P|257:117|256:163,1,80,2|0,0:0|3:2,0:0:0:0:
142,267,264249,5,2,3:2:0:0:
197,199,264407,2,0,P|259:214|305:215,1,80,10|0,0:2|3:2,0:0:0:0:
409,330,264722,5,2,0:0:0:0:
341,275,264880,2,0,P|356:212|357:166,1,80,2|8,3:2|0:2,0:0:0:0:
472,63,265196,5,2,0:0:0:0:
417,131,265354,2,0,P|354:115|308:114,2,80,2|0|8,3:2|3:2|0:2,0:0:0:0:
284,0,265829,6,0,P|233:17|116:31,1,160,6|2,3:2|3:2,0:0:0:0:
0,117,266301,5,10,0:2:0:0:
55,185,266459,2,0,P|117:170|163:169,1,80,2|0,0:2|3:2,0:0:0:0:
267,54,266774,5,2,3:2:0:0:
199,109,266932,2,0,P|214:172|215:218,1,80,10|0,0:2|3:2,0:0:0:0:
330,321,267249,5,2,0:0:0:0:
275,253,267407,2,0,P|212:268|166:269,1,80,2|12,3:2|0:1,0:0:0:0:
30,338,267723,5,2,0:2:0:0:
138,205,267880,1,2,3:2:0:0:
206,369,268038,1,8,3:2:0:0:
199,367,268117,1,8,3:2:0:0:
192,365,268196,1,8,3:2:0:0:
122,316,268354,6,0,B|104:242|104:242|96:236|96:236|74:139,1,160,6|2,3:2|3:2,0:0:0:0:
203,67,268828,2,0,P|188:111|180:157,1,80,10|0,0:2|0:0,0:0:0:0:
132,215,269144,1,2,3:2:0:0:
190,277,269302,1,0,0:2:0:0:
265,242,269459,1,10,0:2:0:0:
375,384,269617,6,0,P|355:318|356:222,1,160,2|2,0:2|0:2,0:0:0:0:
272,114,270091,2,0,P|230:112|193:143,1,80,10|0,0:2|0:0,0:0:0:0:
177,211,270407,1,2,3:2:0:0:
246,259,270565,1,2,3:2:0:0:
359,125,270723,1,10,0:2:0:0:
228,12,270880,6,0,P|258:106|274:186,1,160,6|0,3:2|3:2,0:0:0:0:
395,55,271354,2,0,P|362:31|298:51,1,80,10|0,0:2|0:2,0:0:0:0:
222,152,271670,2,0,P|168:156|138:128,2,80,2|2|10,3:2|0:2|0:2,0:0:0:0:
259,0,272144,6,0,P|292:92|304:165,1,150,2|0,0:2|0:0,0:0:0:0:
299,157,272459,1,2,3:2:0:0:
478,272,272617,6,0,P|446:244|376:242,1,100,10|8,0:2|0:3,0:0:0:0:
382,249,272854,1,8,0:3:0:0:
382,249,272933,1,8,0:2:0:0:
308,285,273091,1,4,3:3:0:0:
244,229,273249,1,2,3:3:0:0:
285,155,273407,1,0,3:2:0:0:
433,351,273565,6,0,P|449:269|486:172,1,160,6|8,3:1|0:2,0:0:0:0:
331,326,274038,2,0,P|358:250|373:172,1,160,6|0,3:2|3:2,0:0:0:0:
232,0,274512,6,0,P|248:82|285:179,1,160,14|0,0:1|3:2,0:0:0:0:
130,25,274986,2,0,P|157:101|172:179,1,160,10|0,0:2|3:2,0:0:0:0:
171,178,275380,1,0,3:2:0:0:
171,178,275459,1,8,0:2:0:0:
64,336,275617,6,0,P|23:325|110:282,1,240,6|2,3:2|0:2,0:0:0:0:
256,192,276170,12,0,278617,0:0:0:0:
