osu file format v14

[General]
AudioFilename: audio.mp3
AudioLeadIn: 0
PreviewTime: 52967
Countdown: 0
SampleSet: Soft
StackLeniency: 0.7
Mode: 3
LetterboxInBreaks: 0
SpecialStyle: 0
WidescreenStoryboard: 1

[Editor]
Bookmarks: 95969
DistanceSpacing: 1.8
BeatDivisor: 4
GridSize: 4
TimelineZoom: 1

[Metadata]
Title:Charles
TitleUnicode:シャルル
Artist:Roselia
ArtistUnicode:Roselia
Creator:Kama
Version:4K NM
Source:BanG Dream! Girls Band Party
Tags:bandori bang dream girls band party roselia charles
BeatmapID:1958482
BeatmapSetID:937425

[Difficulty]
HPDrainRate:3
CircleSize:4
OverallDifficulty:6
ApproachRate:5
SliderMultiplier:1.4
SliderTickRate:1

[Events]
//Background and Video events
0,0,"bh.jpg",0,0
Video,0,"video.mp4"
//Break Periods
//Storyboard Layer 0 (Background)
//Storyboard Layer 1 (Fail)
//Storyboard Layer 2 (Pass)
//Storyboard Layer 3 (Foreground)
//Storyboard Sound Samples

[TimingPoints]
830,413.793103448276,4,2,0,10,1,0
830,-100,4,2,2,10,0,0
933,-100,4,2,0,10,0,0
14071,-100,4,3,0,10,0,0
27416,-100,4,2,0,10,0,0
41174,-100,4,3,0,10,0,0
52967,-100,4,1,0,10,0,0
53692,-100,4,2,0,10,0,0
53795,-100,4,2,2,10,0,1
53898,-100,4,2,0,10,0,1
63726,-100,4,2,0,10,0,0
66933,-100,4,2,2,10,0,0
67036,-100,4,2,2,10,0,1
67140,-100,4,2,0,10,0,1
76967,-100,4,2,0,10,0,0

[HitObjects]
64,192,830,128,10,2485:0:0:0:0:
448,192,830,1,2,0:0:0:0:
192,192,1657,1,0,0:0:0:0:
320,192,2485,128,2,4140:0:0:0:0:
192,192,2485,1,0,0:0:0:0:
448,192,3312,1,0,0:0:0:0:
192,192,4140,128,2,5795:0:0:0:0:
448,192,4140,1,0,0:0:0:0:
64,192,4967,1,0,0:0:0:0:
448,192,5795,128,2,7450:0:0:0:0:
320,192,5795,1,0,0:0:0:0:
192,192,6623,1,0,0:0:0:0:
64,192,6830,1,0,0:0:0:0:
320,192,7036,1,0,0:0:0:0:
64,192,7450,1,2,0:0:0:0:
192,192,7864,1,8,0:0:0:0:
448,192,8278,1,2,0:0:0:0:
192,192,8692,1,0,0:0:0:0:
320,192,9105,1,8,0:0:0:0:
64,192,9519,1,2,0:0:0:0:
320,192,9933,1,8,0:0:0:0:
448,192,10347,1,0,0:0:0:0:
64,192,10761,128,2,12416:0:0:0:0:
192,192,10761,1,0,0:0:0:0:
320,192,11588,1,0,0:0:0:0:
192,192,12416,128,2,13243:0:0:0:0:
448,192,12416,1,0,0:0:0:0:
448,192,12830,1,0,0:0:0:0:
320,192,13243,128,8,13657:0:0:0:0:
448,192,13243,1,0,0:0:0:0:
192,192,13657,1,0,0:0:0:0:
64,192,14071,1,6,0:0:0:0:
448,192,14071,1,6,0:0:0:0:
192,192,14692,1,8,0:0:0:0:
320,192,14692,1,8,0:0:0:0:
320,192,15105,1,0,0:0:0:0:
64,192,15312,128,2,15726:0:0:0:0:
448,192,15312,1,2,0:0:0:0:
192,192,15726,1,4,0:0:0:0:
320,192,15726,1,4,0:0:0:0:
448,192,16347,1,8,0:0:0:0:
320,192,16347,1,8,0:0:0:0:
320,192,16761,1,0,0:0:0:0:
64,192,16967,1,2,0:0:0:0:
192,192,16967,128,2,17381:0:0:0:0:
320,192,17381,1,4,0:0:0:0:
448,192,17381,1,4,0:0:0:0:
64,192,18002,1,8,0:0:0:0:
320,192,18002,1,8,0:0:0:0:
448,192,18416,1,0,0:0:0:0:
320,192,18623,1,2,0:0:0:0:
192,192,18623,128,2,19036:0:0:0:0:
320,192,19036,1,2,0:0:0:0:
448,192,19036,128,2,19657:0:0:0:0:
64,192,19657,1,4,0:0:0:0:
192,192,19864,1,4,0:0:0:0:
64,192,20071,1,4,0:0:0:0:
192,192,20278,1,4,0:0:0:0:
320,192,20485,1,4,0:0:0:0:
448,192,20692,1,4,0:0:0:0:
64,192,20692,128,12,21519:0:0:0:0:
320,192,21105,1,2,0:0:0:0:
192,192,21312,1,0,0:0:0:0:
448,192,21519,128,12,22347:0:0:0:0:
320,192,21519,1,0,0:0:0:0:
192,192,21933,1,2,0:0:0:0:
64,192,22140,1,0,0:0:0:0:
320,192,22347,128,12,23174:0:0:0:0:
192,192,22347,1,0,0:0:0:0:
448,192,22761,1,2,0:0:0:0:
448,192,22967,1,0,0:0:0:0:
192,192,23174,128,12,24002:0:0:0:0:
448,192,23174,1,0,0:0:0:0:
64,192,23588,1,2,0:0:0:0:
320,192,23795,1,0,0:0:0:0:
448,192,24002,128,12,24830:0:0:0:0:
64,192,24002,1,0,0:0:0:0:
320,192,24416,1,2,0:0:0:0:
192,192,24623,1,0,0:0:0:0:
64,192,24830,128,12,25657:0:0:0:0:
192,192,24830,1,0,0:0:0:0:
448,192,25243,1,2,0:0:0:0:
320,192,25450,1,0,0:0:0:0:
192,192,25657,128,12,27312:0:0:0:0:
448,192,25657,1,0,0:0:0:0:
320,192,26071,128,12,27312:0:0:0:0:
448,192,26485,128,12,27312:0:0:0:0:
64,192,27312,1,0,0:0:0:0:
320,192,27933,1,8,0:0:0:0:
448,192,27933,1,0,0:0:0:0:
192,192,28347,1,0,0:0:0:0:
64,192,28554,1,2,0:0:0:0:
192,192,28761,1,2,0:0:0:0:
448,192,28967,1,0,0:0:0:0:
192,192,29588,1,8,0:0:0:0:
64,192,30002,1,0,0:0:0:0:
192,192,30209,1,2,0:0:0:0:
320,192,30416,1,2,0:0:0:0:
448,192,30623,1,0,0:0:0:0:
192,192,30623,1,0,0:0:0:0:
448,192,31243,1,8,0:0:0:0:
192,192,31657,1,0,0:0:0:0:
320,192,31864,1,2,0:0:0:0:
64,192,32071,1,2,0:0:0:0:
448,192,32278,1,0,0:0:0:0:
320,192,32278,1,0,0:0:0:0:
64,192,32898,128,8,33519:0:0:0:0:
448,192,33312,1,0,0:0:0:0:
192,192,33519,1,2,0:0:0:0:
64,192,33933,1,2,0:0:0:0:
192,192,34140,1,8,0:0:0:0:
448,192,34347,1,0,0:0:0:0:
320,192,34554,1,8,0:0:0:0:
64,192,34967,1,2,0:0:0:0:
64,192,35174,1,2,0:0:0:0:
448,192,35588,1,0,0:0:0:0:
192,192,35795,1,8,0:0:0:0:
64,192,36002,1,0,0:0:0:0:
320,192,36209,1,8,0:0:0:0:
448,192,36312,1,2,0:0:0:0:
64,192,36623,1,0,0:0:0:0:
192,192,36830,1,0,0:0:0:0:
192,192,37036,1,8,0:0:0:0:
320,192,37243,1,0,0:0:0:0:
448,192,37450,1,0,0:0:0:0:
192,192,37657,1,2,0:0:0:0:
64,192,37864,1,2,0:0:0:0:
320,192,38278,1,0,0:0:0:0:
320,192,38485,1,2,0:0:0:0:
192,192,38692,1,2,0:0:0:0:
448,192,38898,1,8,0:0:0:0:
64,192,38898,1,0,0:0:0:0:
320,192,38898,128,0,40140:0:0:0:0:
192,192,39726,1,0,0:0:0:0:
64,192,40140,1,4,0:0:0:0:
448,192,40140,1,4,0:0:0:0:
192,192,40347,1,4,0:0:0:0:
64,192,40554,1,14,0:0:0:0:
320,192,40554,1,14,0:0:0:0:
448,192,40761,1,0,0:0:0:0:
192,192,41174,1,2,0:0:0:0:
192,192,41381,1,14,0:0:0:0:
448,192,41381,1,14,0:0:0:0:
64,192,41588,1,2,0:0:0:0:
192,192,42002,1,2,0:0:0:0:
320,192,42002,1,2,0:0:0:0:
64,192,42209,1,0,0:0:0:0:
448,192,42209,1,0,0:0:0:0:
192,192,42416,1,2,0:0:0:0:
448,192,42830,1,14,0:0:0:0:
192,192,43036,1,2,0:0:0:0:
320,192,43036,1,2,0:0:0:0:
64,192,43243,1,14,0:0:0:0:
448,192,43243,1,14,0:0:0:0:
64,192,43657,1,14,0:0:0:0:
192,192,43864,1,2,0:0:0:0:
64,192,43864,1,2,0:0:0:0:
320,192,44071,1,14,0:0:0:0:
448,192,44485,1,14,0:0:0:0:
320,192,44692,1,2,0:0:0:0:
192,192,44692,1,2,0:0:0:0:
64,192,44692,128,2,45312:0:0:0:0:
448,192,45312,1,8,0:0:0:0:
192,192,45519,1,12,0:0:0:0:
320,192,45519,1,12,0:0:0:0:
64,192,45933,1,12,0:0:0:0:
192,192,45933,1,12,0:0:0:0:
448,192,46347,1,12,0:0:0:0:
320,192,46347,1,12,0:0:0:0:
64,192,46554,1,2,0:0:0:0:
320,192,46761,1,10,0:0:0:0:
192,192,46967,1,10,0:0:0:0:
448,192,47174,1,2,0:0:0:0:
448,192,47381,1,2,0:0:0:0:
64,192,47795,1,2,0:0:0:0:
64,192,48002,1,2,0:0:0:0:
64,192,48209,1,2,0:0:0:0:
192,192,48623,1,0,0:0:0:0:
448,192,48830,1,2,0:0:0:0:
64,192,49036,1,0,0:0:0:0:
448,192,49243,1,2,0:0:0:0:
192,192,49450,1,0,0:0:0:0:
320,192,49657,1,2,0:0:0:0:
192,192,49864,1,0,0:0:0:0:
448,192,50071,1,2,0:0:0:0:
64,192,50071,128,2,50485:0:0:0:0:
192,192,50485,128,8,51312:0:0:0:0:
448,192,51312,128,8,52140:0:0:0:0:
64,192,52140,128,2,52761:0:0:0:0:
192,192,52967,128,4,53381:0:0:0:0:
320,192,53692,1,8,0:0:0:0:
448,192,53795,1,10,0:0:0:0:
192,192,54209,1,2,0:0:0:0:
320,192,54416,1,0,0:0:0:0:
64,192,54623,1,2,0:0:0:0:
320,192,54933,1,8,0:0:0:0:
192,192,55036,1,0,0:0:0:0:
320,192,55243,1,2,0:0:0:0:
448,192,55450,1,2,0:0:0:0:
64,192,55761,1,8,0:0:0:0:
192,192,55864,1,0,0:0:0:0:
320,192,56071,1,2,0:0:0:0:
320,192,56278,1,2,0:0:0:0:
64,192,56588,1,8,0:0:0:0:
192,192,56692,1,0,0:0:0:0:
448,192,56898,1,0,0:0:0:0:
320,192,57105,1,2,0:0:0:0:
64,192,57416,1,8,0:0:0:0:
64,192,57519,1,0,0:0:0:0:
192,192,57726,1,0,0:0:0:0:
320,192,57933,1,2,0:0:0:0:
448,192,58243,1,8,0:0:0:0:
448,192,58347,1,0,0:0:0:0:
320,192,58554,1,0,0:0:0:0:
64,192,58761,1,8,0:0:0:0:
192,192,58761,128,2,59174:0:0:0:0:
320,192,59174,128,2,59588:0:0:0:0:
64,192,59588,128,2,60002:0:0:0:0:
448,192,60002,128,2,60416:0:0:0:0:
320,192,60002,128,2,60416:0:0:0:0:
64,192,60416,1,12,0:0:0:0:
192,192,60623,1,0,0:0:0:0:
320,192,61036,1,0,0:0:0:0:
64,192,61243,1,8,0:0:0:0:
448,192,61450,1,0,0:0:0:0:
320,192,61864,1,0,0:0:0:0:
448,192,62071,1,8,0:0:0:0:
64,192,62278,1,0,0:0:0:0:
192,192,62692,1,0,0:0:0:0:
320,192,62898,1,8,0:0:0:0:
448,192,62898,1,0,0:0:0:0:
64,192,63105,1,0,0:0:0:0:
192,192,63519,1,0,0:0:0:0:
448,192,63726,1,8,0:0:0:0:
320,192,63933,1,0,0:0:0:0:
64,192,64347,1,0,0:0:0:0:
192,192,64347,1,0,0:0:0:0:
320,192,64554,1,8,0:0:0:0:
448,192,64554,1,2,0:0:0:0:
192,192,64761,1,0,0:0:0:0:
64,192,64761,1,0,0:0:0:0:
320,192,64967,1,8,0:0:0:0:
448,192,64967,1,10,0:0:0:0:
192,192,65174,1,0,0:0:0:0:
64,192,65381,1,2,0:0:0:0:
320,192,65381,1,2,0:0:0:0:
192,192,65795,1,8,0:0:0:0:
448,192,65795,1,8,0:0:0:0:
64,192,66209,1,8,0:0:0:0:
320,192,66209,1,8,0:0:0:0:
320,192,66623,1,2,0:0:0:0:
64,192,66830,1,0,0:0:0:0:
192,192,66933,1,8,0:0:0:0:
320,192,67036,1,12,0:0:0:0:
448,192,67036,1,12,0:0:0:0:
64,192,67450,1,4,0:0:0:0:
320,192,67450,1,4,0:0:0:0:
192,192,67657,1,0,0:0:0:0:
320,192,67864,1,12,0:0:0:0:
448,192,67864,1,12,0:0:0:0:
64,192,68278,1,4,0:0:0:0:
192,192,68278,1,4,0:0:0:0:
320,192,68485,1,0,0:0:0:0:
192,192,68692,1,12,0:0:0:0:
320,192,68692,1,12,0:0:0:0:
448,192,69105,1,4,0:0:0:0:
320,192,69105,1,4,0:0:0:0:
192,192,69312,1,0,0:0:0:0:
64,192,69519,1,12,0:0:0:0:
192,192,69519,1,12,0:0:0:0:
320,192,69933,1,4,0:0:0:0:
448,192,69933,1,4,0:0:0:0:
192,192,70140,1,0,0:0:0:0:
320,192,70140,1,0,0:0:0:0:
64,192,70347,1,12,0:0:0:0:
448,192,70347,1,12,0:0:0:0:
64,192,70761,1,4,0:0:0:0:
448,192,70761,1,4,0:0:0:0:
192,192,70967,1,0,0:0:0:0:
448,192,71174,1,12,0:0:0:0:
320,192,71174,1,12,0:0:0:0:
64,192,71588,1,4,0:0:0:0:
320,192,71588,1,4,0:0:0:0:
192,192,71795,1,0,0:0:0:0:
448,192,72002,128,6,72416:0:0:0:0:
64,192,72002,1,6,0:0:0:0:
320,192,72416,128,6,72830:0:0:0:0:
192,192,72416,1,0,0:0:0:0:
64,192,72830,128,6,73243:0:0:0:0:
448,192,72830,1,0,0:0:0:0:
192,192,73243,128,6,73657:0:0:0:0:
320,192,73243,1,0,0:0:0:0:
320,192,73657,1,8,0:0:0:0:
448,192,73657,128,6,73967:0:0:0:0:
320,192,73967,1,8,0:0:0:0:
192,192,74278,1,0,0:0:0:0:
64,192,74485,1,8,0:0:0:0:
448,192,74485,128,0,74795:0:0:0:0:
192,192,74795,1,8,0:0:0:0:
448,192,75105,1,0,0:0:0:0:
320,192,75312,1,8,0:0:0:0:
448,192,75312,128,0,75623:0:0:0:0:
192,192,75623,1,8,0:0:0:0:
64,192,75726,1,2,0:0:0:0:
320,192,75933,1,0,0:0:0:0:
64,192,76140,1,0,0:0:0:0:
192,192,76347,1,0,0:0:0:0:
320,192,76554,128,2,76967:0:0:0:0:
192,192,76967,128,4,78623:0:0:0:0:
448,192,77174,1,0,0:0:0:0:
64,192,77588,1,0,0:0:0:0:
448,192,77795,1,0,0:0:0:0:
320,192,78209,1,0,0:0:0:0:
448,192,78416,1,0,0:0:0:0:
320,192,78623,1,4,0:0:0:0:
64,192,78623,1,4,0:0:0:0:
192,192,79036,1,2,0:0:0:0:
448,192,79036,1,2,0:0:0:0:
192,192,79450,1,2,0:0:0:0:
320,192,79657,1,4,0:0:0:0:
448,192,79657,1,4,0:0:0:0:
192,192,79864,1,4,0:0:0:0:
64,192,79864,1,4,0:0:0:0:
192,192,80278,1,8,0:0:0:0:
320,192,80278,1,2,0:0:0:0:
64,192,80692,1,0,0:0:0:0:
448,192,81105,1,0,0:0:0:0:
64,192,81105,128,8,81519:0:0:0:0:
192,192,81312,1,0,0:0:0:0:
320,192,81519,1,2,0:0:0:0:
448,192,81933,1,2,0:0:0:0:
320,192,81933,1,8,0:0:0:0:
64,192,82347,1,0,0:0:0:0:
320,192,82761,128,2,83174:0:0:0:0:
192,192,82761,1,8,0:0:0:0:
448,192,82967,1,0,0:0:0:0:
64,192,83174,1,2,0:0:0:0:
64,192,83588,1,8,0:0:0:0:
448,192,83588,1,2,0:0:0:0:
192,192,84002,1,0,0:0:0:0:
64,192,84416,128,8,84830:0:0:0:0:
448,192,84416,1,8,0:0:0:0:
320,192,84623,1,0,0:0:0:0:
192,192,84830,1,2,0:0:0:0:
448,192,85243,1,8,0:0:0:0:
320,192,85243,1,2,0:0:0:0:
64,192,85657,1,0,0:0:0:0:
192,192,86071,128,8,86485:0:0:0:0:
320,192,86071,1,8,0:0:0:0:
320,192,86278,1,0,0:0:0:0:
448,192,86485,1,2,0:0:0:0:
64,192,86898,1,12,0:0:0:0:
192,192,87105,1,0,0:0:0:0:
320,192,87312,1,0,0:0:0:0:
448,192,87726,1,12,0:0:0:0:
320,192,87933,1,0,0:0:0:0:
192,192,88140,1,0,0:0:0:0:
64,192,88554,1,12,0:0:0:0:
64,192,88761,1,0,0:0:0:0:
192,192,88967,1,0,0:0:0:0:
320,192,89381,1,12,0:0:0:0:
320,192,89588,1,0,0:0:0:0:
448,192,89795,1,0,0:0:0:0:
448,192,90209,1,6,0:0:0:0:
64,192,90416,1,0,0:0:0:0:
448,192,90623,1,0,0:0:0:0:
64,192,91036,1,6,0:0:0:0:
448,192,91243,1,0,0:0:0:0:
64,192,91450,1,0,0:0:0:0:
192,192,91864,1,6,0:0:0:0:
448,192,92071,1,0,0:0:0:0:
64,192,92278,1,6,0:0:0:0:
448,192,92485,1,0,0:0:0:0:
192,192,92692,1,6,0:0:0:0:
320,192,92898,1,0,0:0:0:0:
448,192,93105,1,6,0:0:0:0:
320,192,93209,1,0,0:0:0:0:
192,192,93312,1,6,0:0:0:0:
64,192,93416,1,6,0:0:0:0:
448,192,93416,1,6,0:0:0:0:
