osu file format v14

[General]
AudioFilename: audio.mp3
AudioLeadIn: 0
PreviewTime: 52967
Countdown: 0
SampleSet: Soft
StackLeniency: 0.7
Mode: 3
LetterboxInBreaks: 0
SpecialStyle: 0
WidescreenStoryboard: 1

[Editor]
DistanceSpacing: 1.8
BeatDivisor: 4
GridSize: 4
TimelineZoom: 1

[Metadata]
Title:Charles
TitleUnicode:シャルル
Artist:Roselia
ArtistUnicode:Roselia
Creator:Kama
Version:4K MX
Source:BanG Dream! Girls Band Party
Tags:bandori bang dream girls band party roselia charles
BeatmapID:1958854
BeatmapSetID:937425

[Difficulty]
HPDrainRate:8
CircleSize:4
OverallDifficulty:9.5
ApproachRate:5
SliderMultiplier:1.4
SliderTickRate:1

[Events]
//Background and Video events
0,0,"bh.jpg",0,0
Video,0,"video.mp4"
//Break Periods
//Storyboard Layer 0 (Background)
//Storyboard Layer 1 (Fail)
//Storyboard Layer 2 (Pass)
//Storyboard Layer 3 (Foreground)
//Storyboard Sound Samples

[TimingPoints]
830,413.793103448276,4,2,0,10,1,0
830,-100,4,2,2,10,0,0
933,-100,4,2,0,10,0,0
13036,-200,4,2,0,10,0,0
13657,-250,4,2,0,10,0,0
14071,-100,4,3,0,10,0,0
27416,-100,4,2,0,10,0,0
39933,-100,4,3,0,10,0,0
45416,-55.5555555555556,4,3,0,10,0,0
45519,-500,4,3,0,10,0,0
45623,-71.4285714285714,4,3,0,10,0,0
45933,-500,4,3,0,10,0,0
46036,-71.4285714285714,4,3,0,10,0,0
46347,-500,4,3,0,10,0,0
46450,-57.1428571428571,4,3,0,10,0,0
46554,-100,4,3,0,10,0,0
50433,-100,4,2,0,10,0,0
52554,-125,4,1,0,10,0,0
52967,-333.333333333333,4,1,0,10,0,0
53071,-57.1428571428571,4,1,0,10,0,0
53381,-333.333333333333,4,1,0,10,0,0
53588,-57.1428571428571,4,1,0,10,0,0
53692,-100,4,2,0,10,0,0
53795,-100,4,2,2,10,0,1
53898,-100,4,2,0,10,0,1
63726,-100,4,2,0,10,0,0
66933,-100,4,2,2,10,0,0
67036,-100,4,2,2,10,0,1
67140,-100,4,2,0,10,0,1
72002,-500,4,2,0,10,0,1
72105,-57.1428571428571,4,2,0,10,0,1
72312,-57.1428571428571,4,2,0,10,0,1
72416,-500,4,2,0,10,0,1
72519,-57.1428571428571,4,2,0,10,0,1
72726,-1000,4,2,0,10,0,1
72830,-500,4,2,0,10,0,1
72933,-57.1428571428571,4,2,0,10,0,1
73036,-100,4,2,0,10,0,1
76967,-100,4,2,0,10,0,0
78623,-100,4,2,0,10,0,0
80278,-100,4,2,0,10,0,0

[HitObjects]
64,192,830,5,8,0:0:0:0:
192,192,830,1,10,0:0:0:0:
320,192,1036,1,0,0:0:0:0:
192,192,1243,1,0,0:0:0:0:
448,192,1243,1,0,0:0:0:0:
320,192,1450,1,0,0:0:0:0:
192,192,1554,1,0,0:0:0:0:
64,192,1657,1,0,0:0:0:0:
448,192,1864,1,0,0:0:0:0:
320,192,1864,1,0,0:0:0:0:
192,192,2071,1,0,0:0:0:0:
64,192,2071,1,0,0:0:0:0:
320,192,2278,1,0,0:0:0:0:
448,192,2381,1,0,0:0:0:0:
192,192,2485,1,2,0:0:0:0:
64,192,2692,1,0,0:0:0:0:
320,192,2692,1,0,0:0:0:0:
64,192,2898,1,0,0:0:0:0:
320,192,2898,1,0,0:0:0:0:
448,192,3105,1,0,0:0:0:0:
320,192,3209,1,0,0:0:0:0:
192,192,3312,1,2,0:0:0:0:
64,192,3519,1,0,0:0:0:0:
192,192,3623,1,0,0:0:0:0:
320,192,3726,1,2,0:0:0:0:
448,192,3933,1,0,0:0:0:0:
448,192,4036,1,0,0:0:0:0:
448,192,4140,128,2,4554:0:0:0:0:
64,192,4140,1,2,0:0:0:0:
192,192,4347,1,0,0:0:0:0:
320,192,4554,1,0,0:0:0:0:
64,192,4761,1,0,0:0:0:0:
64,192,4864,1,0,0:0:0:0:
64,192,4967,128,2,5381:0:0:0:0:
320,192,4967,1,0,0:0:0:0:
192,192,5174,1,0,0:0:0:0:
320,192,5381,1,0,0:0:0:0:
192,192,5588,1,0,0:0:0:0:
320,192,5692,1,0,0:0:0:0:
448,192,5795,128,2,6209:0:0:0:0:
64,192,5795,1,0,0:0:0:0:
192,192,6002,1,0,0:0:0:0:
320,192,6209,1,0,0:0:0:0:
64,192,6416,1,0,0:0:0:0:
320,192,6416,1,0,0:0:0:0:
192,192,6623,1,2,0:0:0:0:
448,192,6623,1,2,0:0:0:0:
320,192,6830,1,0,0:0:0:0:
192,192,6933,1,0,0:0:0:0:
320,192,7036,1,2,0:0:0:0:
64,192,7140,1,0,0:0:0:0:
448,192,7243,1,0,0:0:0:0:
192,192,7347,1,0,0:0:0:0:
64,192,7450,1,2,0:0:0:0:
448,192,7450,1,2,0:0:0:0:
320,192,7450,128,4,8278:0:0:0:0:
192,192,7657,1,0,0:0:0:0:
64,192,7864,1,0,0:0:0:0:
192,192,8071,1,0,0:0:0:0:
64,192,8174,1,0,0:0:0:0:
64,192,8278,1,8,0:0:0:0:
448,192,8485,1,0,0:0:0:0:
320,192,8588,1,0,0:0:0:0:
192,192,8692,1,0,0:0:0:0:
320,192,8898,1,0,0:0:0:0:
192,192,9105,128,6,9933:0:0:0:0:
448,192,9105,1,2,0:0:0:0:
320,192,9312,1,0,0:0:0:0:
320,192,9416,1,0,0:0:0:0:
448,192,9519,1,0,0:0:0:0:
64,192,9726,1,0,0:0:0:0:
64,192,9830,1,0,0:0:0:0:
320,192,9933,128,8,10140:0:0:0:0:
448,192,10140,128,0,10347:0:0:0:0:
64,192,10347,128,2,10554:0:0:0:0:
320,192,10347,1,2,0:0:0:0:
192,192,10554,128,0,11588:0:0:0:0:
320,192,10554,1,0,0:0:0:0:
448,192,10761,1,2,0:0:0:0:
320,192,10967,1,0,0:0:0:0:
64,192,11071,1,0,0:0:0:0:
320,192,11174,1,0,0:0:0:0:
448,192,11381,1,0,0:0:0:0:
448,192,11588,1,2,0:0:0:0:
320,192,11692,1,0,0:0:0:0:
64,192,11795,1,0,0:0:0:0:
448,192,12002,1,0,0:0:0:0:
192,192,12105,1,0,0:0:0:0:
320,192,12209,1,0,0:0:0:0:
64,192,12416,1,2,0:0:0:0:
192,192,12519,1,0,0:0:0:0:
448,192,12623,1,8,0:0:0:0:
320,192,12830,1,0,0:0:0:0:
192,192,12933,1,2,0:0:0:0:
448,192,13036,1,8,0:0:0:0:
64,192,14071,1,8,0:0:0:0:
320,192,14071,1,8,0:0:0:0:
192,192,14174,1,0,0:0:0:0:
448,192,14381,1,0,0:0:0:0:
64,192,14381,1,0,0:0:0:0:
192,192,14485,1,0,0:0:0:0:
448,192,14692,1,8,0:0:0:0:
64,192,14692,128,8,14898:0:0:0:0:
320,192,14795,1,0,0:0:0:0:
192,192,14898,1,0,0:0:0:0:
192,192,15105,1,0,0:0:0:0:
448,192,15105,128,8,15312:0:0:0:0:
320,192,15209,1,0,0:0:0:0:
64,192,15312,1,12,0:0:0:0:
320,192,15416,1,0,0:0:0:0:
448,192,15519,1,8,0:0:0:0:
64,192,15519,1,8,0:0:0:0:
320,192,15623,1,0,0:0:0:0:
448,192,15623,1,0,0:0:0:0:
64,192,15726,1,8,0:0:0:0:
192,192,15726,128,8,16140:0:0:0:0:
320,192,15830,1,0,0:0:0:0:
448,192,16036,1,8,0:0:0:0:
320,192,16140,1,8,0:0:0:0:
64,192,16140,1,14,0:0:0:0:
448,192,16347,1,2,0:0:0:0:
192,192,16554,1,2,0:0:0:0:
64,192,16761,1,10,0:0:0:0:
192,192,16967,1,12,0:0:0:0:
320,192,17071,1,12,0:0:0:0:
64,192,17174,1,12,0:0:0:0:
448,192,17278,1,0,0:0:0:0:
64,192,17381,1,0,0:0:0:0:
448,192,17381,1,0,0:0:0:0:
192,192,17485,1,0,0:0:0:0:
320,192,17485,1,0,0:0:0:0:
448,192,17692,1,0,0:0:0:0:
320,192,17795,1,0,0:0:0:0:
64,192,17795,1,0,0:0:0:0:
192,192,18002,128,0,18209:0:0:0:0:
64,192,18002,1,0,0:0:0:0:
320,192,18209,128,0,18416:0:0:0:0:
64,192,18312,1,0,0:0:0:0:
448,192,18416,128,0,18623:0:0:0:0:
192,192,18519,1,0,0:0:0:0:
64,192,18623,128,0,19036:0:0:0:0:
320,192,18726,1,0,0:0:0:0:
192,192,18830,1,0,0:0:0:0:
320,192,18933,1,0,0:0:0:0:
448,192,19036,1,0,0:0:0:0:
192,192,19036,1,0,0:0:0:0:
320,192,19140,1,0,0:0:0:0:
64,192,19347,1,0,0:0:0:0:
448,192,19347,1,0,0:0:0:0:
192,192,19450,1,0,0:0:0:0:
320,192,19450,1,0,0:0:0:0:
448,192,19657,1,0,0:0:0:0:
320,192,19761,1,0,0:0:0:0:
192,192,19864,1,0,0:0:0:0:
64,192,19967,1,0,0:0:0:0:
192,192,20071,1,0,0:0:0:0:
320,192,20071,1,0,0:0:0:0:
448,192,20174,1,0,0:0:0:0:
64,192,20278,1,0,0:0:0:0:
192,192,20381,1,0,0:0:0:0:
320,192,20485,1,0,0:0:0:0:
448,192,20588,1,0,0:0:0:0:
64,192,20692,1,8,0:0:0:0:
320,192,20692,1,8,0:0:0:0:
320,192,20898,1,0,0:0:0:0:
192,192,21105,1,8,0:0:0:0:
64,192,21105,128,8,21519:0:0:0:0:
320,192,21209,1,0,0:0:0:0:
448,192,21312,1,0,0:0:0:0:
192,192,21519,1,8,0:0:0:0:
448,192,21519,128,8,21933:0:0:0:0:
320,192,21623,1,0,0:0:0:0:
192,192,21726,1,0,0:0:0:0:
192,192,21933,1,8,0:0:0:0:
320,192,21933,128,8,22347:0:0:0:0:
64,192,22036,1,0,0:0:0:0:
192,192,22140,1,0,0:0:0:0:
448,192,22347,128,8,22761:0:0:0:0:
192,192,22347,1,8,0:0:0:0:
64,192,22554,1,0,0:0:0:0:
320,192,22761,1,8,0:0:0:0:
192,192,22761,1,8,0:0:0:0:
64,192,22864,1,0,0:0:0:0:
448,192,22967,1,0,0:0:0:0:
448,192,23174,1,8,0:0:0:0:
64,192,23174,1,8,0:0:0:0:
192,192,23278,1,0,0:0:0:0:
320,192,23381,1,2,0:0:0:0:
192,192,23485,1,2,0:0:0:0:
64,192,23485,1,2,0:0:0:0:
448,192,23588,1,2,0:0:0:0:
320,192,23588,1,2,0:0:0:0:
64,192,23692,1,2,0:0:0:0:
192,192,23692,1,2,0:0:0:0:
320,192,23795,1,2,0:0:0:0:
448,192,23795,1,2,0:0:0:0:
192,192,24002,1,6,0:0:0:0:
64,192,24105,1,0,0:0:0:0:
192,192,24209,1,0,0:0:0:0:
320,192,24312,1,0,0:0:0:0:
448,192,24416,1,0,0:0:0:0:
192,192,24416,128,8,24623:0:0:0:0:
64,192,24623,1,0,0:0:0:0:
192,192,24830,1,2,0:0:0:0:
320,192,24830,1,2,0:0:0:0:
64,192,24933,1,0,0:0:0:0:
448,192,25036,1,0,0:0:0:0:
192,192,25140,1,0,0:0:0:0:
320,192,25243,1,0,0:0:0:0:
64,192,25243,128,8,25450:0:0:0:0:
448,192,25450,1,0,0:0:0:0:
64,192,25657,1,8,0:0:0:0:
320,192,25657,1,8,0:0:0:0:
192,192,25761,1,0,0:0:0:0:
64,192,25864,1,8,0:0:0:0:
448,192,25967,1,0,0:0:0:0:
64,192,26071,1,8,0:0:0:0:
320,192,26071,1,8,0:0:0:0:
192,192,26174,1,0,0:0:0:0:
448,192,26174,1,0,0:0:0:0:
64,192,26278,1,8,0:0:0:0:
192,192,26381,1,0,0:0:0:0:
320,192,26485,1,8,0:0:0:0:
448,192,26588,1,0,0:0:0:0:
64,192,26692,1,8,0:0:0:0:
320,192,26795,1,0,0:0:0:0:
448,192,26898,128,12,27726:0:0:0:0:
192,192,26898,1,6,0:0:0:0:
64,192,27312,128,0,27726:0:0:0:0:
320,192,27312,1,2,0:0:0:0:
192,192,27312,1,2,0:0:0:0:
320,192,27623,1,0,0:0:0:0:
192,192,27726,1,8,0:0:0:0:
320,192,27933,1,0,0:0:0:0:
320,192,28140,1,2,0:0:0:0:
64,192,28140,1,2,0:0:0:0:
192,192,28347,1,0,0:0:0:0:
448,192,28347,1,0,0:0:0:0:
320,192,28450,1,0,0:0:0:0:
192,192,28554,1,8,0:0:0:0:
64,192,28761,1,0,0:0:0:0:
64,192,28864,1,0,0:0:0:0:
64,192,28967,1,2,0:0:0:0:
448,192,28967,1,2,0:0:0:0:
320,192,29174,1,0,0:0:0:0:
192,192,29278,1,0,0:0:0:0:
448,192,29381,1,8,0:0:0:0:
64,192,29588,1,2,0:0:0:0:
320,192,29795,1,2,0:0:0:0:
64,192,30105,1,8,0:0:0:0:
192,192,30209,1,8,0:0:0:0:
320,192,30209,128,8,30623:0:0:0:0:
448,192,30416,1,0,0:0:0:0:
192,192,30623,1,0,0:0:0:0:
64,192,30623,128,0,31450:0:0:0:0:
448,192,30830,1,0,0:0:0:0:
320,192,31036,1,2,0:0:0:0:
448,192,31140,1,0,0:0:0:0:
320,192,31243,128,0,31657:0:0:0:0:
192,192,31450,128,8,32278:0:0:0:0:
448,192,31657,1,0,0:0:0:0:
64,192,31657,1,0,0:0:0:0:
64,192,31864,1,2,0:0:0:0:
320,192,31967,1,0,0:0:0:0:
448,192,32071,1,0,0:0:0:0:
320,192,32278,128,8,33105:0:0:0:0:
64,192,32278,1,8,0:0:0:0:
64,192,32485,1,0,0:0:0:0:
192,192,32588,1,0,0:0:0:0:
448,192,32588,1,0,0:0:0:0:
64,192,32692,1,2,0:0:0:0:
192,192,32898,1,0,0:0:0:0:
64,192,33002,1,0,0:0:0:0:
448,192,33105,128,8,33312:0:0:0:0:
192,192,33105,1,8,0:0:0:0:
64,192,33312,128,0,33933:0:0:0:0:
192,192,33312,1,0,0:0:0:0:
320,192,33519,1,2,0:0:0:0:
192,192,33519,1,2,0:0:0:0:
448,192,33726,1,0,0:0:0:0:
320,192,33726,1,0,0:0:0:0:
320,192,33933,1,6,0:0:0:0:
192,192,33933,128,6,34140:0:0:0:0:
448,192,34140,1,0,0:0:0:0:
320,192,34140,1,0,0:0:0:0:
64,192,34347,1,8,0:0:0:0:
320,192,34347,1,8,0:0:0:0:
192,192,34554,1,0,0:0:0:0:
320,192,34761,1,2,0:0:0:0:
64,192,34761,128,2,34967:0:0:0:0:
448,192,34967,1,0,0:0:0:0:
320,192,35071,1,0,0:0:0:0:
192,192,35174,1,8,0:0:0:0:
64,192,35278,1,0,0:0:0:0:
192,192,35381,1,0,0:0:0:0:
320,192,35485,1,0,0:0:0:0:
448,192,35588,128,2,35795:0:0:0:0:
64,192,35588,1,2,0:0:0:0:
192,192,35795,1,0,0:0:0:0:
448,192,36002,1,8,0:0:0:0:
320,192,36002,1,8,0:0:0:0:
64,192,36209,1,0,0:0:0:0:
192,192,36209,1,0,0:0:0:0:
320,192,36312,128,8,36416:0:0:0:0:
448,192,36416,128,2,36830:0:0:0:0:
64,192,36416,1,2,0:0:0:0:
320,192,36623,1,2,0:0:0:0:
192,192,36726,1,2,0:0:0:0:
64,192,36830,1,10,0:0:0:0:
192,192,37036,1,0,0:0:0:0:
320,192,37036,1,0,0:0:0:0:
64,192,37243,1,8,0:0:0:0:
448,192,37243,1,8,0:0:0:0:
192,192,37450,1,0,0:0:0:0:
320,192,37450,1,0,0:0:0:0:
448,192,37657,1,2,0:0:0:0:
320,192,37657,1,2,0:0:0:0:
64,192,37864,1,0,0:0:0:0:
320,192,37864,1,0,0:0:0:0:
192,192,38071,1,8,0:0:0:0:
320,192,38071,1,8,0:0:0:0:
448,192,38278,1,0,0:0:0:0:
320,192,38381,1,0,0:0:0:0:
192,192,38485,1,2,0:0:0:0:
448,192,38485,1,2,0:0:0:0:
64,192,38692,1,0,0:0:0:0:
192,192,38795,1,0,0:0:0:0:
320,192,38898,1,0,0:0:0:0:
448,192,38898,1,0,0:0:0:0:
64,192,39105,1,0,0:0:0:0:
192,192,39105,1,0,0:0:0:0:
320,192,39312,1,0,0:0:0:0:
448,192,39312,1,0,0:0:0:0:
192,192,39519,1,0,0:0:0:0:
192,192,39726,1,0,0:0:0:0:
320,192,39726,1,0,0:0:0:0:
448,192,39933,1,0,0:0:0:0:
64,192,39933,1,0,0:0:0:0:
192,192,40036,1,0,0:0:0:0:
320,192,40036,1,0,0:0:0:0:
64,192,40140,1,0,0:0:0:0:
448,192,40140,1,0,0:0:0:0:
192,192,40243,1,0,0:0:0:0:
320,192,40243,1,0,0:0:0:0:
320,192,40347,1,0,0:0:0:0:
448,192,40347,1,0,0:0:0:0:
64,192,40450,1,0,0:0:0:0:
192,192,40450,1,0,0:0:0:0:
320,192,40554,128,0,41381:0:0:0:0:
192,192,40657,1,0,0:0:0:0:
64,192,40761,1,0,0:0:0:0:
448,192,40864,1,0,0:0:0:0:
192,192,40967,1,0,0:0:0:0:
64,192,41174,1,0,0:0:0:0:
192,192,41381,128,0,42209:0:0:0:0:
448,192,41381,1,0,0:0:0:0:
320,192,41588,1,0,0:0:0:0:
448,192,41692,1,0,0:0:0:0:
64,192,41795,1,0,0:0:0:0:
320,192,42002,1,0,0:0:0:0:
448,192,42209,1,0,0:0:0:0:
320,192,42209,128,0,42416:0:0:0:0:
192,192,42416,1,0,0:0:0:0:
64,192,42416,128,0,42623:0:0:0:0:
192,192,42623,1,0,0:0:0:0:
320,192,42623,128,0,42830:0:0:0:0:
192,192,42830,1,0,0:0:0:0:
448,192,42830,128,0,43036:0:0:0:0:
320,192,43036,1,0,0:0:0:0:
192,192,43036,128,0,43243:0:0:0:0:
64,192,43036,1,0,0:0:0:0:
320,192,43243,1,0,0:0:0:0:
64,192,43243,128,0,43450:0:0:0:0:
448,192,43450,1,0,0:0:0:0:
320,192,43450,128,0,43864:0:0:0:0:
448,192,43657,1,0,0:0:0:0:
64,192,43761,1,0,0:0:0:0:
192,192,43864,128,0,44071:0:0:0:0:
64,192,43864,1,0,0:0:0:0:
448,192,44071,1,0,0:0:0:0:
320,192,44071,1,0,0:0:0:0:
64,192,44278,1,0,0:0:0:0:
192,192,44278,1,0,0:0:0:0:
448,192,44381,1,0,0:0:0:0:
320,192,44485,1,0,0:0:0:0:
64,192,44692,1,0,0:0:0:0:
192,192,44692,1,0,0:0:0:0:
320,192,44795,1,0,0:0:0:0:
448,192,44795,1,0,0:0:0:0:
192,192,44898,1,0,0:0:0:0:
64,192,44898,1,0,0:0:0:0:
320,192,45105,1,0,0:0:0:0:
448,192,45105,1,0,0:0:0:0:
192,192,45312,1,0,0:0:0:0:
192,192,45416,1,0,0:0:0:0:
192,192,45519,1,0,0:0:0:0:
448,192,45519,1,0,0:0:0:0:
320,192,45933,1,0,0:0:0:0:
64,192,45933,1,0,0:0:0:0:
192,192,46347,1,0,0:0:0:0:
320,192,46347,1,0,0:0:0:0:
448,192,46554,1,0,0:0:0:0:
64,192,46554,1,0,0:0:0:0:
320,192,46605,1,0,0:0:0:0:
192,192,46657,1,0,0:0:0:0:
64,192,46709,1,0,0:0:0:0:
448,192,46761,1,0,0:0:0:0:
320,192,46812,1,0,0:0:0:0:
192,192,46864,1,0,0:0:0:0:
64,192,46916,1,0,0:0:0:0:
448,192,46967,1,0,0:0:0:0:
320,192,47019,1,0,0:0:0:0:
192,192,47071,1,0,0:0:0:0:
64,192,47123,1,0,0:0:0:0:
448,192,47174,1,0,0:0:0:0:
320,192,47174,1,0,0:0:0:0:
192,192,47381,1,0,0:0:0:0:
320,192,47381,1,0,0:0:0:0:
64,192,47588,1,0,0:0:0:0:
192,192,47588,1,0,0:0:0:0:
448,192,47795,1,0,0:0:0:0:
320,192,47795,1,0,0:0:0:0:
192,192,47898,1,0,0:0:0:0:
192,192,48002,1,0,0:0:0:0:
320,192,48002,1,0,0:0:0:0:
448,192,48002,1,0,0:0:0:0:
64,192,48209,1,0,0:0:0:0:
192,192,48209,1,0,0:0:0:0:
192,192,48416,1,0,0:0:0:0:
320,192,48416,1,0,0:0:0:0:
448,192,48416,1,0,0:0:0:0:
192,192,48623,1,0,0:0:0:0:
64,192,48623,1,0,0:0:0:0:
192,192,48830,1,8,0:0:0:0:
320,192,48830,1,8,0:0:0:0:
448,192,48933,1,0,0:0:0:0:
64,192,49036,1,0,0:0:0:0:
192,192,49036,1,0,0:0:0:0:
320,192,49140,1,0,0:0:0:0:
192,192,49243,1,8,0:0:0:0:
448,192,49243,1,8,0:0:0:0:
64,192,49347,1,0,0:0:0:0:
192,192,49450,1,0,0:0:0:0:
320,192,49450,1,0,0:0:0:0:
448,192,49554,1,0,0:0:0:0:
320,192,49657,1,8,0:0:0:0:
192,192,49709,1,0,0:0:0:0:
64,192,49761,1,0,0:0:0:0:
448,192,49812,1,0,0:0:0:0:
320,192,49864,1,0,0:0:0:0:
192,192,49916,1,0,0:0:0:0:
64,192,49967,1,0,0:0:0:0:
448,192,50019,1,0,0:0:0:0:
320,192,50071,1,8,0:0:0:0:
192,192,50123,1,0,0:0:0:0:
64,192,50174,1,0,0:0:0:0:
448,192,50226,1,0,0:0:0:0:
320,192,50278,1,0,0:0:0:0:
192,192,50330,1,8,0:0:0:0:
64,192,50381,1,0,0:0:0:0:
448,192,50433,1,0,0:0:0:0:
320,192,50485,128,8,51312:0:0:0:0:
64,192,50898,128,2,51312:0:0:0:0:
192,192,50898,1,0,0:0:0:0:
192,192,51312,128,8,52140:0:0:0:0:
448,192,51312,128,2,51726:0:0:0:0:
320,192,51726,1,0,0:0:0:0:
64,192,51933,128,0,52140:0:0:0:0:
320,192,52140,128,2,52554:0:0:0:0:
448,192,52140,128,2,52554:0:0:0:0:
192,192,52967,1,0,0:0:0:0:
320,192,52967,1,0,0:0:0:0:
448,192,52967,1,2,0:0:0:0:
64,192,52967,1,8,0:0:0:0:
64,192,53381,1,8,0:0:0:0:
192,192,53381,1,0,0:0:0:0:
320,192,53381,1,0,0:0:0:0:
448,192,53381,1,2,0:0:0:0:
192,192,53795,1,8,0:0:0:0:
320,192,53795,128,0,53898:0:0:0:0:
192,192,53898,1,0,0:0:0:0:
64,192,54002,1,0,0:0:0:0:
320,192,54209,1,0,0:0:0:0:
192,192,54209,128,0,54312:0:0:0:0:
320,192,54312,1,0,0:0:0:0:
448,192,54416,1,0,0:0:0:0:
192,192,54519,1,0,0:0:0:0:
64,192,54623,1,0,0:0:0:0:
448,192,54623,128,0,54726:0:0:0:0:
320,192,54726,1,0,0:0:0:0:
192,192,54933,1,0,0:0:0:0:
448,192,55036,1,0,0:0:0:0:
320,192,55036,1,0,0:0:0:0:
64,192,55036,128,0,55140:0:0:0:0:
192,192,55140,1,0,0:0:0:0:
320,192,55243,1,0,0:0:0:0:
448,192,55243,1,0,0:0:0:0:
192,192,55347,1,0,0:0:0:0:
64,192,55450,1,0,0:0:0:0:
320,192,55450,1,0,0:0:0:0:
192,192,55554,1,0,0:0:0:0:
64,192,55657,1,0,0:0:0:0:
320,192,55657,1,0,0:0:0:0:
448,192,55864,1,0,0:0:0:0:
192,192,55864,1,0,0:0:0:0:
320,192,55967,1,0,0:0:0:0:
192,192,56071,1,0,0:0:0:0:
448,192,56071,1,0,0:0:0:0:
64,192,56174,1,0,0:0:0:0:
192,192,56278,1,0,0:0:0:0:
320,192,56278,1,0,0:0:0:0:
64,192,56381,1,0,0:0:0:0:
192,192,56485,1,0,0:0:0:0:
320,192,56485,1,0,0:0:0:0:
448,192,56588,1,0,0:0:0:0:
192,192,56692,1,0,0:0:0:0:
64,192,56692,1,0,0:0:0:0:
448,192,56795,1,0,0:0:0:0:
192,192,56898,1,0,0:0:0:0:
320,192,56898,1,0,0:0:0:0:
448,192,57002,1,0,0:0:0:0:
192,192,57105,128,0,57519:0:0:0:0:
320,192,57105,128,0,57519:0:0:0:0:
64,192,57416,1,0,0:0:0:0:
448,192,57519,1,0,0:0:0:0:
192,192,57726,1,0,0:0:0:0:
320,192,57726,1,0,0:0:0:0:
64,192,57830,1,0,0:0:0:0:
448,192,57933,1,0,0:0:0:0:
320,192,58036,1,0,0:0:0:0:
192,192,58140,1,0,0:0:0:0:
64,192,58140,1,0,0:0:0:0:
320,192,58243,1,0,0:0:0:0:
448,192,58243,1,0,0:0:0:0:
192,192,58347,1,0,0:0:0:0:
64,192,58347,1,0,0:0:0:0:
320,192,58450,1,0,0:0:0:0:
448,192,58450,1,0,0:0:0:0:
64,192,58554,1,0,0:0:0:0:
448,192,58554,1,0,0:0:0:0:
192,192,58657,1,0,0:0:0:0:
64,192,58761,128,0,59588:0:0:0:0:
320,192,58761,1,0,0:0:0:0:
448,192,58761,1,0,0:0:0:0:
320,192,58967,1,0,0:0:0:0:
192,192,59174,128,0,60002:0:0:0:0:
448,192,59174,1,0,0:0:0:0:
320,192,59174,1,0,0:0:0:0:
320,192,59381,1,0,0:0:0:0:
448,192,59588,128,0,60002:0:0:0:0:
320,192,59588,1,0,0:0:0:0:
320,192,59795,1,0,0:0:0:0:
64,192,59898,1,0,0:0:0:0:
64,192,60002,1,0,0:0:0:0:
320,192,60105,1,0,0:0:0:0:
64,192,60209,1,0,0:0:0:0:
192,192,60209,1,0,0:0:0:0:
448,192,60312,1,0,0:0:0:0:
320,192,60312,1,0,0:0:0:0:
64,192,60416,1,4,0:0:0:0:
192,192,60416,1,4,0:0:0:0:
64,192,60623,128,0,60830:0:0:0:0:
320,192,60623,128,0,60830:0:0:0:0:
192,192,60830,1,0,0:0:0:0:
448,192,60830,1,0,0:0:0:0:
192,192,61036,1,0,0:0:0:0:
448,192,61036,1,0,0:0:0:0:
192,192,61243,128,4,61450:0:0:0:0:
448,192,61243,128,4,61450:0:0:0:0:
64,192,61450,1,0,0:0:0:0:
320,192,61450,1,0,0:0:0:0:
64,192,61657,1,0,0:0:0:0:
192,192,61657,1,0,0:0:0:0:
192,192,61864,1,0,0:0:0:0:
320,192,61864,1,0,0:0:0:0:
64,192,61967,1,0,0:0:0:0:
192,192,62071,1,4,0:0:0:0:
320,192,62071,1,4,0:0:0:0:
448,192,62071,128,0,62485:0:0:0:0:
64,192,62278,1,0,0:0:0:0:
192,192,62381,1,0,0:0:0:0:
320,192,62485,1,4,0:0:0:0:
64,192,62485,1,4,0:0:0:0:
192,192,62692,1,0,0:0:0:0:
448,192,62692,1,0,0:0:0:0:
64,192,62795,1,0,0:0:0:0:
320,192,62795,1,0,0:0:0:0:
192,192,62898,1,4,0:0:0:0:
448,192,62898,1,4,0:0:0:0:
192,192,63105,1,0,0:0:0:0:
192,192,63312,1,4,0:0:0:0:
320,192,63312,1,4,0:0:0:0:
320,192,63519,1,0,0:0:0:0:
64,192,63519,1,0,0:0:0:0:
448,192,63726,1,4,0:0:0:0:
320,192,63726,1,4,0:0:0:0:
64,192,63726,128,8,64554:0:0:0:0:
192,192,63933,1,0,0:0:0:0:
448,192,63933,1,0,0:0:0:0:
320,192,64140,1,0,0:0:0:0:
192,192,64140,1,0,0:0:0:0:
448,192,64243,1,0,0:0:0:0:
320,192,64347,1,0,0:0:0:0:
192,192,64554,128,0,64967:0:0:0:0:
320,192,64554,1,0,0:0:0:0:
448,192,64554,1,0,0:0:0:0:
64,192,64761,1,0,0:0:0:0:
448,192,64864,1,0,0:0:0:0:
320,192,64967,128,0,65071:0:0:0:0:
64,192,64967,1,0,0:0:0:0:
448,192,65071,128,0,65174:0:0:0:0:
64,192,65174,128,0,65278:0:0:0:0:
192,192,65278,128,0,65795:0:0:0:0:
320,192,65588,1,0,0:0:0:0:
64,192,65588,1,0,0:0:0:0:
320,192,65795,128,0,67036:0:0:0:0:
64,192,65795,1,0,0:0:0:0:
448,192,65795,1,0,0:0:0:0:
64,192,66002,1,0,0:0:0:0:
448,192,66002,1,0,0:0:0:0:
192,192,66209,128,0,67036:0:0:0:0:
64,192,66209,1,0,0:0:0:0:
448,192,66209,1,0,0:0:0:0:
64,192,66416,1,0,0:0:0:0:
448,192,66623,128,0,67036:0:0:0:0:
64,192,66623,1,0,0:0:0:0:
64,192,66933,1,8,0:0:0:0:
64,192,67036,1,8,0:0:0:0:
64,192,67140,1,0,0:0:0:0:
192,192,67243,1,0,0:0:0:0:
448,192,67243,1,0,0:0:0:0:
320,192,67347,1,0,0:0:0:0:
448,192,67450,1,0,0:0:0:0:
64,192,67450,1,0,0:0:0:0:
64,192,67657,1,0,0:0:0:0:
320,192,67657,1,0,0:0:0:0:
192,192,67761,1,0,0:0:0:0:
320,192,67864,1,0,0:0:0:0:
448,192,67864,1,0,0:0:0:0:
192,192,67967,1,0,0:0:0:0:
64,192,68071,1,0,0:0:0:0:
320,192,68071,1,0,0:0:0:0:
192,192,68174,1,0,0:0:0:0:
320,192,68278,1,0,0:0:0:0:
448,192,68278,1,0,0:0:0:0:
64,192,68278,128,0,68692:0:0:0:0:
192,192,68485,1,0,0:0:0:0:
320,192,68485,1,0,0:0:0:0:
448,192,68692,1,0,0:0:0:0:
320,192,68692,128,0,68898:0:0:0:0:
192,192,68795,1,0,0:0:0:0:
64,192,68898,1,0,0:0:0:0:
448,192,68898,1,0,0:0:0:0:
192,192,69002,1,0,0:0:0:0:
320,192,69105,1,0,0:0:0:0:
448,192,69105,1,0,0:0:0:0:
64,192,69105,128,0,69312:0:0:0:0:
192,192,69209,1,0,0:0:0:0:
320,192,69312,1,0,0:0:0:0:
448,192,69416,1,0,0:0:0:0:
64,192,69519,1,0,0:0:0:0:
320,192,69519,1,0,0:0:0:0:
192,192,69519,128,0,69726:0:0:0:0:
320,192,69726,128,0,69933:0:0:0:0:
448,192,69726,1,0,0:0:0:0:
64,192,69933,128,0,70140:0:0:0:0:
448,192,69933,128,0,70140:0:0:0:0:
192,192,69933,1,0,0:0:0:0:
192,192,70140,128,0,70347:0:0:0:0:
320,192,70140,128,0,70347:0:0:0:0:
64,192,70347,1,0,0:0:0:0:
448,192,70347,1,0,0:0:0:0:
448,192,70450,1,0,0:0:0:0:
192,192,70554,1,0,0:0:0:0:
64,192,70761,1,0,0:0:0:0:
192,192,70864,1,0,0:0:0:0:
64,192,70967,1,0,0:0:0:0:
448,192,70967,1,0,0:0:0:0:
320,192,71071,1,0,0:0:0:0:
64,192,71174,1,0,0:0:0:0:
448,192,71174,1,0,0:0:0:0:
192,192,71278,1,0,0:0:0:0:
320,192,71381,1,0,0:0:0:0:
64,192,71381,1,0,0:0:0:0:
448,192,71485,1,0,0:0:0:0:
192,192,71588,1,0,0:0:0:0:
320,192,71588,1,0,0:0:0:0:
64,192,71692,1,0,0:0:0:0:
448,192,71795,1,0,0:0:0:0:
320,192,71795,1,0,0:0:0:0:
192,192,71898,1,0,0:0:0:0:
64,192,72002,1,2,0:0:0:0:
192,192,72002,1,2,0:0:0:0:
320,192,72002,1,2,0:0:0:0:
448,192,72002,1,2,0:0:0:0:
320,192,72416,1,8,0:0:0:0:
448,192,72416,1,8,0:0:0:0:
64,192,72416,1,8,0:0:0:0:
64,192,72830,1,2,0:0:0:0:
192,192,72830,1,2,0:0:0:0:
448,192,72830,1,2,0:0:0:0:
320,192,73036,1,8,0:0:0:0:
192,192,73036,1,8,0:0:0:0:
448,192,73140,1,0,0:0:0:0:
320,192,73243,1,4,0:0:0:0:
192,192,73347,1,0,0:0:0:0:
448,192,73347,1,0,0:0:0:0:
64,192,73450,1,4,0:0:0:0:
320,192,73450,1,0,0:0:0:0:
192,192,73554,1,0,0:0:0:0:
64,192,73657,1,4,0:0:0:0:
320,192,73657,128,2,73864:0:0:0:0:
448,192,73657,128,2,73864:0:0:0:0:
192,192,73967,1,0,0:0:0:0:
64,192,74071,1,8,0:0:0:0:
192,192,74071,1,8,0:0:0:0:
320,192,74278,1,0,0:0:0:0:
448,192,74278,1,0,0:0:0:0:
64,192,74485,128,2,74692:0:0:0:0:
192,192,74485,128,2,74692:0:0:0:0:
192,192,74795,1,0,0:0:0:0:
448,192,74898,1,8,0:0:0:0:
320,192,74898,1,8,0:0:0:0:
64,192,74898,128,0,75312:0:0:0:0:
192,192,75312,128,0,75726:0:0:0:0:
320,192,75726,128,0,76140:0:0:0:0:
448,192,76140,128,0,76554:0:0:0:0:
192,192,76347,128,0,76554:0:0:0:0:
64,192,76554,128,0,76967:0:0:0:0:
320,192,76554,128,0,76761:0:0:0:0:
192,192,76967,128,0,78002:0:0:0:0:
320,192,76967,1,0,0:0:0:0:
448,192,76967,1,0,0:0:0:0:
320,192,77174,1,0,0:0:0:0:
64,192,77174,1,0,0:0:0:0:
320,192,77381,1,0,0:0:0:0:
448,192,77381,1,0,0:0:0:0:
64,192,77588,1,0,0:0:0:0:
320,192,77588,1,0,0:0:0:0:
448,192,77692,1,0,0:0:0:0:
320,192,77795,1,0,0:0:0:0:
64,192,77795,1,0,0:0:0:0:
64,192,78002,1,0,0:0:0:0:
320,192,78002,1,0,0:0:0:0:
448,192,78002,1,0,0:0:0:0:
64,192,78105,1,0,0:0:0:0:
448,192,78209,1,0,0:0:0:0:
64,192,78312,1,0,0:0:0:0:
320,192,78416,1,0,0:0:0:0:
448,192,78416,1,0,0:0:0:0:
192,192,78519,1,0,0:0:0:0:
64,192,78623,1,0,0:0:0:0:
192,192,78623,1,0,0:0:0:0:
320,192,79036,1,0,0:0:0:0:
448,192,79036,1,0,0:0:0:0:
64,192,79450,1,0,0:0:0:0:
320,192,79450,1,0,0:0:0:0:
192,192,79450,1,0,0:0:0:0:
448,192,79450,1,0,0:0:0:0:
64,192,79554,1,0,0:0:0:0:
192,192,79554,1,0,0:0:0:0:
320,192,79554,1,0,0:0:0:0:
448,192,79554,1,0,0:0:0:0:
64,192,79657,1,0,0:0:0:0:
192,192,79657,1,0,0:0:0:0:
320,192,79657,1,0,0:0:0:0:
448,192,79657,1,0,0:0:0:0:
64,192,79761,1,0,0:0:0:0:
192,192,79761,1,0,0:0:0:0:
320,192,79761,1,0,0:0:0:0:
448,192,79761,1,0,0:0:0:0:
64,192,79864,1,4,0:0:0:0:
192,192,79864,1,4,0:0:0:0:
320,192,79864,1,4,0:0:0:0:
448,192,79864,1,4,0:0:0:0:
64,192,80278,1,0,0:0:0:0:
448,192,80278,1,0,0:0:0:0:
192,192,80381,1,0,0:0:0:0:
448,192,80588,1,0,0:0:0:0:
320,192,80692,1,0,0:0:0:0:
192,192,80692,1,0,0:0:0:0:
64,192,80898,128,0,81209:0:0:0:0:
320,192,80898,1,0,0:0:0:0:
448,192,80898,1,0,0:0:0:0:
320,192,81105,1,0,0:0:0:0:
192,192,81209,128,0,81312:0:0:0:0:
448,192,81209,1,0,0:0:0:0:
320,192,81312,128,0,81519:0:0:0:0:
448,192,81312,1,0,0:0:0:0:
448,192,81519,128,0,81726:0:0:0:0:
64,192,81519,128,0,81933:0:0:0:0:
192,192,81933,1,0,0:0:0:0:
320,192,81933,128,0,82140:0:0:0:0:
448,192,82036,1,0,0:0:0:0:
192,192,82243,1,0,0:0:0:0:
64,192,82347,1,0,0:0:0:0:
448,192,82347,1,0,0:0:0:0:
192,192,82554,1,0,0:0:0:0:
320,192,82554,1,0,0:0:0:0:
448,192,82554,1,0,0:0:0:0:
64,192,82554,128,0,82864:0:0:0:0:
320,192,82761,1,0,0:0:0:0:
448,192,82761,1,0,0:0:0:0:
192,192,82864,128,0,82967:0:0:0:0:
448,192,82967,128,0,83174:0:0:0:0:
320,192,82967,1,0,0:0:0:0:
64,192,83174,128,0,83588:0:0:0:0:
320,192,83174,128,0,83588:0:0:0:0:
192,192,83588,1,0,0:0:0:0:
448,192,83588,128,0,83795:0:0:0:0:
192,192,83692,1,0,0:0:0:0:
64,192,83898,1,0,0:0:0:0:
320,192,84002,1,0,0:0:0:0:
448,192,84002,1,0,0:0:0:0:
64,192,84209,128,0,84519:0:0:0:0:
320,192,84209,128,0,84519:0:0:0:0:
448,192,84416,1,0,0:0:0:0:
448,192,84519,128,0,84623:0:0:0:0:
192,192,84519,128,0,84623:0:0:0:0:
64,192,84623,128,0,84830:0:0:0:0:
320,192,84623,128,0,84830:0:0:0:0:
192,192,84830,128,0,85243:0:0:0:0:
448,192,84830,128,0,85243:0:0:0:0:
64,192,85243,1,0,0:0:0:0:
320,192,85243,128,0,85450:0:0:0:0:
448,192,85347,1,0,0:0:0:0:
192,192,85554,1,0,0:0:0:0:
64,192,85657,1,0,0:0:0:0:
448,192,85657,1,0,0:0:0:0:
320,192,85657,1,0,0:0:0:0:
192,192,85864,128,0,86898:0:0:0:0:
320,192,85864,1,0,0:0:0:0:
64,192,86071,1,0,0:0:0:0:
320,192,86174,1,0,0:0:0:0:
448,192,86174,1,0,0:0:0:0:
448,192,86278,1,0,0:0:0:0:
320,192,86381,1,0,0:0:0:0:
64,192,86485,1,0,0:0:0:0:
448,192,86485,1,0,0:0:0:0:
320,192,86588,1,0,0:0:0:0:
448,192,86692,1,0,0:0:0:0:
64,192,86795,1,0,0:0:0:0:
448,192,86898,1,0,0:0:0:0:
320,192,86898,1,0,0:0:0:0:
64,192,87105,1,0,0:0:0:0:
192,192,87105,1,0,0:0:0:0:
320,192,87209,1,0,0:0:0:0:
448,192,87209,1,0,0:0:0:0:
64,192,87312,1,0,0:0:0:0:
192,192,87312,1,0,0:0:0:0:
448,192,87519,1,0,0:0:0:0:
320,192,87519,1,0,0:0:0:0:
320,192,87623,1,0,0:0:0:0:
448,192,87623,1,0,0:0:0:0:
320,192,87726,1,0,0:0:0:0:
448,192,87726,1,0,0:0:0:0:
64,192,87933,1,0,0:0:0:0:
192,192,87933,1,0,0:0:0:0:
320,192,88036,1,0,0:0:0:0:
448,192,88036,1,0,0:0:0:0:
192,192,88140,1,0,0:0:0:0:
320,192,88140,1,0,0:0:0:0:
64,192,88347,1,0,0:0:0:0:
192,192,88347,1,0,0:0:0:0:
448,192,88450,1,0,0:0:0:0:
320,192,88450,1,0,0:0:0:0:
64,192,88554,1,0,0:0:0:0:
192,192,88554,1,0,0:0:0:0:
320,192,88657,1,0,0:0:0:0:
448,192,88761,1,0,0:0:0:0:
192,192,88761,1,0,0:0:0:0:
64,192,88864,1,0,0:0:0:0:
192,192,88967,1,0,0:0:0:0:
320,192,88967,1,0,0:0:0:0:
64,192,89071,1,0,0:0:0:0:
192,192,89174,1,0,0:0:0:0:
448,192,89174,1,0,0:0:0:0:
320,192,89278,1,0,0:0:0:0:
192,192,89381,1,0,0:0:0:0:
320,192,89381,1,0,0:0:0:0:
64,192,89485,1,0,0:0:0:0:
448,192,89588,1,0,0:0:0:0:
320,192,89588,1,0,0:0:0:0:
192,192,89692,1,0,0:0:0:0:
64,192,89795,1,0,0:0:0:0:
320,192,89795,1,0,0:0:0:0:
192,192,89898,1,0,0:0:0:0:
448,192,90002,1,0,0:0:0:0:
320,192,90002,1,0,0:0:0:0:
192,192,90105,1,0,0:0:0:0:
64,192,90105,1,0,0:0:0:0:
320,192,90209,1,0,0:0:0:0:
448,192,90209,1,0,0:0:0:0:
64,192,90209,1,0,0:0:0:0:
192,192,90312,1,0,0:0:0:0:
64,192,90416,1,0,0:0:0:0:
320,192,90416,1,0,0:0:0:0:
448,192,90519,1,0,0:0:0:0:
320,192,90623,1,0,0:0:0:0:
192,192,90623,1,0,0:0:0:0:
64,192,90623,1,0,0:0:0:0:
448,192,90726,1,0,0:0:0:0:
192,192,90830,1,0,0:0:0:0:
320,192,90830,1,0,0:0:0:0:
64,192,90830,1,0,0:0:0:0:
448,192,90933,1,0,0:0:0:0:
320,192,91036,1,0,0:0:0:0:
192,192,91036,1,0,0:0:0:0:
64,192,91036,1,0,0:0:0:0:
448,192,91140,1,0,0:0:0:0:
64,192,91243,1,0,0:0:0:0:
448,192,91243,1,0,0:0:0:0:
320,192,91243,1,0,0:0:0:0:
192,192,91347,1,0,0:0:0:0:
320,192,91450,1,0,0:0:0:0:
192,192,91450,1,0,0:0:0:0:
448,192,91450,1,0,0:0:0:0:
64,192,91554,1,0,0:0:0:0:
320,192,91657,1,0,0:0:0:0:
192,192,91657,1,0,0:0:0:0:
448,192,91761,1,0,0:0:0:0:
64,192,91864,1,0,0:0:0:0:
192,192,91864,128,0,91967:0:0:0:0:
320,192,91864,128,0,91967:0:0:0:0:
448,192,91967,128,0,92071:0:0:0:0:
64,192,92071,128,0,92174:0:0:0:0:
320,192,92174,128,0,92278:0:0:0:0:
448,192,92278,128,0,92381:0:0:0:0:
64,192,92381,128,0,92485:0:0:0:0:
192,192,92381,128,0,92485:0:0:0:0:
320,192,92485,128,0,92588:0:0:0:0:
448,192,92588,128,0,92692:0:0:0:0:
192,192,92588,128,0,92692:0:0:0:0:
64,192,92692,128,0,92795:0:0:0:0:
320,192,92692,128,0,92795:0:0:0:0:
192,192,92795,128,0,92898:0:0:0:0:
448,192,92898,128,0,93002:0:0:0:0:
64,192,92898,128,0,93002:0:0:0:0:
192,192,93002,128,0,93105:0:0:0:0:
320,192,93002,128,0,93105:0:0:0:0:
64,192,93105,1,0,0:0:0:0:
448,192,93105,1,0,0:0:0:0:
192,192,93209,1,0,0:0:0:0:
320,192,93209,1,0,0:0:0:0:
64,192,93312,1,0,0:0:0:0:
448,192,93312,1,0,0:0:0:0:
192,192,93416,1,4,0:0:0:0:
320,192,93416,1,4,0:0:0:0:
64,192,93416,1,4,0:0:0:0:
448,192,93416,1,4,0:0:0:0:
