osu file format v14

[General]
AudioFilename: audio.mp3
AudioLeadIn: 0
PreviewTime: 52944
Countdown: 1
SampleSet: Soft
StackLeniency: 0.7
Mode: 0
LetterboxInBreaks: 0
WidescreenStoryboard: 1

[Editor]
Bookmarks: 86888
DistanceSpacing: 0.8
BeatDivisor: 4
GridSize: 16
TimelineZoom: 2

[Metadata]
Title:Charles
TitleUnicode:Charles
Artist:Roselia
ArtistUnicode:Roselia
Creator:GodKei
Version:happy expert
Source:バンドリ!ガールズバンドパーティ!
Tags:バンドリ!ガールズバンドパーティ!
BeatmapID:1770696
BeatmapSetID:845880

[Difficulty]
HPDrainRate:5
CircleSize:4
OverallDifficulty:8.6
ApproachRate:9.8
SliderMultiplier:2.6
SliderTickRate:1

[Events]
//Background and Video events
0,0,"fpsDWTe.jpg",0,0
//Break Periods
//Storyboard Layer 0 (Background)
//Storyboard Layer 1 (Fail)
//Storyboard Layer 2 (Pass)
//Storyboard Layer 3 (Foreground)
//Storyboard Sound Samples

[TimingPoints]
820,413.793103448276,4,2,0,53,1,0
820,-133.333333333333,4,2,0,53,0,0
10544,-250,4,2,0,53,0,0
13026,-200,4,2,0,53,0,0
14061,-66.6666666666667,4,2,0,53,0,0
20682,-100,4,2,0,53,0,0
27302,-133.333333333333,4,2,0,53,0,0
39509,-100,4,2,0,53,0,0
47164,-133.333333333333,4,2,0,53,0,0
50061,-200,4,2,0,53,0,0
53785,-76.9230769230769,4,2,0,53,0,1
67026,-66.6666666666667,4,2,0,53,0,1
73647,-133.333333333333,4,2,0,53,0,1
74268,-66.6666666666667,4,2,0,53,0,1
74371,-133.333333333333,4,2,0,53,0,1
75091,-66.6666666666667,4,2,0,53,0,1
75199,-133.333333333333,4,2,0,53,0,1
79841,-66.6666666666667,4,2,0,53,0,0
86888,-66.6666666666667,4,2,0,53,0,1
93509,-66.6666666666667,4,2,0,53,0,0

[HitObjects]
112,96,820,5,0,0:0:0:0:
112,96,1026,1,0,0:0:0:0:
112,96,1233,2,0,L|224:176,1,97.50000371933
273,180,1509,1,0,0:0:0:0:
304,160,1647,2,0,L|384:112,1,48.750001859665
400,96,1854,1,0,0:0:0:0:
288,256,2061,1,0,0:0:0:0:
96,128,2268,1,0,0:0:0:0:
80,240,2475,6,0,P|48:320|64:368,1,97.50000371933
176,336,2888,1,0,0:0:0:0:
416,288,3095,1,0,0:0:0:0:
416,288,3199,2,0,L|336:240,1,48.750001859665
320,224,3406,2,0,L|272:208,1,48.750001859665
208,224,3613,2,0,L|240:288,1,48.750001859665
288,304,3820,2,0,L|352:288,1,48.750001859665
416,144,4337,5,0,0:0:0:0:
288,80,4544,1,0,0:0:0:0:
176,192,4751,1,0,0:0:0:0:
176,192,4957,2,0,L|224:96,1,97.50000371933
352,64,5371,2,0,L|416:144,1,97.50000371933
336,320,5785,6,0,L|224:272,1,97.50000371933
160,272,6095,2,0,B|128:176|128:176|192:144|192:144|160:48,1,243.750009298325
448,80,7440,5,0,0:0:0:0:
448,80,7544,1,0,0:0:0:0:
448,80,7647,2,0,L|368:144,1,97.50000371933
80,192,8061,1,0,0:0:0:0:
80,192,8164,2,0,L|144:224,1,48.750001859665
192,224,8371,1,0,0:0:0:0:
192,224,8475,1,0,0:0:0:0:
192,224,8578,1,0,0:0:0:0:
192,224,8682,1,0,0:0:0:0:
336,256,8888,1,0,0:0:0:0:
336,256,8992,1,0,0:0:0:0:
336,256,9095,6,0,L|288:208,1,48.750001859665
368,128,9302,2,0,L|288:80,1,48.750001859665
208,128,9509,2,0,L|160:160,1,48.750001859665
144,176,9716,1,0,0:0:0:0:
144,176,9820,1,0,0:0:0:0:
208,288,10130,5,0,0:0:0:0:
464,304,10337,1,0,0:0:0:0:
464,304,10544,2,0,B|399:225|399:225|448:173|448:173|383:94,1,260
240,64,11992,1,0,0:0:0:0:
64,256,12406,1,0,0:0:0:0:
32,304,13026,5,0,0:0:0:0:
144,64,13233,1,0,0:0:0:0:
432,96,13647,2,0,L|368:160,1,65
64,80,14061,5,0,0:0:0:0:
48,176,14164,2,0,P|96:224|144:256,1,97.50000371933
160,320,14371,1,0,0:0:0:0:
160,320,14475,2,0,B|240:320|240:320|320:304|320:304|368:272,1,195.00000743866
432,240,14785,1,0,0:0:0:0:
400,160,14888,2,0,B|372:141|372:141|292:125|292:125|212:125,1,195.00000743866
48,48,15302,1,0,0:0:0:0:
56,143,15405,1,0,0:0:0:0:
105,227,15508,1,0,0:0:0:0:
181,286,15612,1,0,0:0:0:0:
279,290,15716,5,0,0:0:0:0:
279,290,15820,2,0,B|295:242|295:242|279:194,1,97.50000371933
336,62,16026,1,0,0:0:0:0:
144,128,16130,2,0,B|96:240|96:240|144:336,1,195.00000743866
208,336,16440,1,0,0:0:0:0:
288,320,16544,2,0,B|336:240|336:240|288:128,1,195.00000743866
448,256,16957,1,0,0:0:0:0:
409,167,17060,1,0,0:0:0:0:
337,102,17163,1,0,0:0:0:0:
246,70,17267,1,0,0:0:0:0:
144,64,17371,5,0,0:0:0:0:
144,64,17475,2,0,P|160:128|208:160,1,97.50000371933
176,256,17682,1,0,0:0:0:0:
256,288,17785,2,0,B|352:336|352:336|448:320,1,195.00000743866
480,256,18095,1,0,0:0:0:0:
416,192,18199,2,0,B|329:206|329:206|233:158,1,195.00000743866
230,33,18613,1,0,0:0:0:0:
154,92,18717,1,0,0:0:0:0:
105,176,18820,1,0,0:0:0:0:
96,272,18923,1,0,0:0:0:0:
193,308,19026,5,0,0:0:0:0:
193,308,19130,2,0,P|257:308|305:276,1,97.50000371933
384,224,19337,1,0,0:0:0:0:
320,128,19440,2,0,B|240:144|160:192|64:160,1,195.00000743866
48,224,19751,1,0,0:0:0:0:
80,304,19854,2,0,B|160:320|240:368|336:336,1,195.00000743866
432,288,20268,1,0,0:0:0:0:
423,192,20371,1,0,0:0:0:0:
374,108,20474,1,0,0:0:0:0:
298,49,20578,1,0,0:0:0:0:
128,80,20682,6,0,P|80:112|64:208,1,130
362,322,21095,2,0,P|413:285|432:224,1,130
48,32,21509,2,0,P|112:64|160:128,1,130
464,288,21923,2,0,P|420:240|362:212,1,130
32,272,22337,6,0,P|96:288|144:368,1,130
464,272,22751,2,0,P|422:223|359:208,1,130
48,128,23164,2,0,P|110:142|152:191,1,130
464,112,23578,2,0,P|422:63|359:48,1,130
64,304,23992,5,0,0:0:0:0:
176,128,24199,1,0,0:0:0:0:
224,320,24406,1,0,0:0:0:0:
336,144,24613,1,0,0:0:0:0:
384,336,24820,1,0,0:0:0:0:
496,160,25027,1,0,0:0:0:0:
320,48,25233,1,0,0:0:0:0:
304,64,25337,1,0,0:0:0:0:
32,336,25647,6,0,L|64:272,1,65
112,112,25854,2,0,L|96:192,1,65
176,352,26061,2,0,L|208:288,1,65
256,128,26268,2,0,L|240:208,1,65
432,336,26475,1,0,0:0:0:0:
381,295,26578,1,0,0:0:0:0:
324,272,26681,1,0,0:0:0:0:
298,227,26785,1,0,0:0:0:0:
256,176,26888,2,0,L|192:160,1,65
112,176,27095,2,0,L|32:224,1,65
96,320,27302,5,0,0:0:0:0:
176,272,27509,2,0,L|288:224,1,97.50000371933
448,192,28026,1,0,0:0:0:0:
448,192,28130,2,0,L|448:128,1,48.750001859665
304,112,28337,2,0,L|304:160,1,48.750001859665
176,96,28544,2,0,L|176:47,1,48.750001859665
48,176,28751,1,0,0:0:0:0:
48,176,28854,1,0,0:0:0:0:
48,176,28957,6,0,L|192:320,1,195.00000743866
320,304,29578,1,0,0:0:0:0:
416,192,29785,2,0,L|336:112,1,97.50000371933
192,48,30199,1,0,0:0:0:0:
64,176,30406,1,0,0:0:0:0:
320,32,30820,5,0,0:0:0:0:
240,80,31026,1,0,0:0:0:0:
176,144,31233,1,0,0:0:0:0:
64,240,31440,5,0,0:0:0:0:
144,288,31646,1,0,0:0:0:0:
224,336,31854,2,0,L|304:272,1,97.50000371933
432,192,32268,6,0,L|336:128,1,97.50000371933
320,128,32578,1,0,0:0:0:0:
272,128,32682,2,0,P|144:176|64:224,1,195.00000743866
64,320,33302,1,0,0:0:0:0:
224,272,33509,1,0,0:0:0:0:
384,320,33716,1,0,0:0:0:0:
416,48,33923,6,0,L|416:112,1,48.750001859665
304,224,34130,2,0,L|304:160,1,48.750001859665
208,48,34337,2,0,L|208:128,1,48.750001859665
176,256,34544,1,0,0:0:0:0:
176,256,34647,1,0,0:0:0:0:
176,256,34751,2,0,L|208:208,1,48.750001859665
384,128,34958,2,0,L|320:80,1,48.750001859665
176,32,35164,2,0,L|112:64,1,48.750001859665
48,160,35371,1,0,0:0:0:0:
48,160,35475,1,0,0:0:0:0:
48,160,35578,6,0,L|96:208,1,48.750001859665
128,320,35785,2,0,L|192:288,1,48.750001859665
256,208,35992,1,0,0:0:0:0:
464,240,36199,2,0,L|400:192,1,48.750001859665
256,32,36613,1,0,0:0:0:0:
32,256,36820,2,0,L|112:320,1,97.50000371933
432,288,37233,6,0,L|336:208,1,97.50000371933
48,272,37647,2,0,L|128:176,1,97.50000371933
240,48,38061,2,0,L|352:112,1,97.50000371933
464,208,38475,1,0,0:0:0:0:
288,320,38682,1,0,0:0:0:0:
208,144,38888,5,0,0:0:0:0:
48,320,39095,1,0,0:0:0:0:
208,144,39302,1,0,0:0:0:0:
464,320,39509,1,0,0:0:0:0:
32,208,39716,2,0,L|144:128,1,130
288,64,40130,1,0,0:0:0:0:
464,288,40337,1,0,0:0:0:0:
48,352,40544,6,0,B|112:224|112:224|128:288|128:288|176:320|304:256,1,390
384,240,41268,2,0,B|320:112|320:112|304:176|304:176|256:208|128:144,1,390
64,48,41992,2,0,L|128:96,1,65
48,320,42199,6,0,P|96:272|176:240,1,130
464,192,42613,2,0,P|448:112|368:48,1,130
256,160,43026,2,0,P|293:212|301:276,1,130
32,80,43440,2,0,P|90:107|131:156,1,130
224,192,43854,5,0,0:0:0:0:
352,272,44061,2,0,L|416:240,1,65
400,144,44268,2,0,L|320:112,1,65
192,144,44475,2,0,L|112:224,1,65
64,288,44682,2,0,P|160:352|208:352,1,130
400,224,45095,1,0,0:0:0:0:
400,224,45199,1,0,0:0:0:0:
400,224,45302,2,0,L|288:192,1,65
32,352,45509,5,0,0:0:0:0:
256,16,45923,1,0,0:0:0:0:
480,352,46337,1,0,0:0:0:0:
464,160,46544,1,0,0:0:0:0:
420,111,46647,1,0,0:0:0:0:
365,77,46750,1,0,0:0:0:0:
303,59,46854,1,0,0:0:0:0:
238,60,46957,1,0,0:0:0:0:
176,79,47061,1,0,0:0:0:0:
128,112,47164,6,0,B|80:192|72:252|112:320,1,195.00000743866
256,368,47785,1,0,0:0:0:0:
411,280,47992,2,0,B|440:236|432:176|384:96,1,195.00000743866
224,32,48613,1,0,0:0:0:0:
64,128,48820,6,0,L|112:240,1,97.50000371933
336,320,49233,2,0,L|297:230,1,97.50000371933
448,128,49647,2,0,L|409:38,1,97.50000371933
272,48,50061,2,0,P|192:112|144:144,1,130
48,336,50682,5,0,0:0:0:0:
176,192,50888,1,0,0:0:0:0:
256,336,51095,1,0,0:0:0:0:
48,192,51302,1,0,0:0:0:0:
288,240,51509,1,0,0:0:0:0:
48,336,51716,1,0,0:0:0:0:
208,304,51923,2,0,L|384:176,1,195.00000743866
128,64,52957,6,0,L|160:128,1,65
64,224,53268,1,0,0:0:0:0:
64,224,53371,2,0,L|112:288,1,65
384,64,53785,6,0,B|325:136|325:136|208:176,1,168.999992263794
256,32,54095,1,0,0:0:0:0:
208,48,54199,2,0,B|149:120|149:120|32:160,1,168.999992263794
176,224,54509,1,0,0:0:0:0:
224,240,54613,2,0,B|283:312|283:312|400:352,1,168.999992263794
432,256,54923,1,0,0:0:0:0:
432,256,55026,2,0,P|464:176|432:96,1,168.999992263794
32,48,55440,6,0,L|144:96,1,84.4999961318971
32,288,55647,2,0,L|160:240,1,84.4999961318971
208,304,55854,2,0,P|288:256|336:144,1,168.999992263794
320,48,56268,2,0,L|176:144,1,168.999992263794
112,224,56578,1,0,0:0:0:0:
192,304,56682,2,0,P|320:272|384:224,1,168.999992263794
448,64,57095,5,0,0:0:0:0:
288,48,57302,2,0,L|224:112,1,84.4999961318971
48,160,57509,2,0,L|144:224,1,84.4999961318971
224,320,57716,2,0,L|283:260,1,84.4999961318971
464,208,57923,2,0,L|393:161,1,84.4999961318971
48,192,58337,2,0,L|128:256,1,84.4999961318971
272,320,58544,2,0,L|368:272,1,84.4999961318971
416,224,58751,6,0,P|448:144|368:48,1,168.999992263794
144,192,59061,1,0,0:0:0:0:
144,192,59164,2,0,P|112:112|192:16,1,168.999992263794
320,48,59475,1,0,0:0:0:0:
320,48,59578,2,0,P|286:123|319:198,1,168.999992263794
432,256,59992,1,0,0:0:0:0:
351,230,60095,1,0,0:0:0:0:
270,205,60198,1,0,0:0:0:0:
190,180,60302,1,0,0:0:0:0:
190,180,60406,6,0,P|96:208|32:272,1,168.999992263794
304,320,60820,1,0,0:0:0:0:
320,48,61026,1,0,0:0:0:0:
320,48,61233,2,0,L|160:144,1,168.999992263794
48,240,61647,1,0,0:0:0:0:
336,288,61854,1,0,0:0:0:0:
336,288,62061,6,0,P|448:208|464:160,1,168.999992263794
256,64,62475,2,0,P|144:112|64:224,1,253.499988395691
80,288,62888,1,0,0:0:0:0:
80,288,62992,2,0,B|192:288|192:288|256:240|256:240|352:256,1,253.499988395691
448,240,63509,1,0,0:0:0:0:
368,112,63716,5,0,0:0:0:0:
80,64,63923,2,0,L|192:144,1,84.4999961318971
192,240,64130,2,0,L|320:192,1,84.4999961318971
480,176,64337,2,0,L|448:256,1,84.4999961318971
288,32,64544,2,0,L|358:79,1,84.4999961318971
128,192,64751,2,0,L|240:256,1,84.4999961318971
273,249,64957,1,0,0:0:0:0:
343,233,65060,1,0,0:0:0:0:
349,163,65164,1,0,0:0:0:0:
303,113,65267,1,0,0:0:0:0:
48,64,65371,6,0,L|112:224,1,168.999992263794
176,352,65682,1,0,0:0:0:0:
176,352,65785,2,0,L|336:176,1,168.999992263794
464,320,66095,1,0,0:0:0:0:
464,320,66199,2,0,L|368:128,1,168.999992263794
288,48,66613,1,0,0:0:0:0:
209,78,66716,1,0,0:0:0:0:
145,133,66819,1,0,0:0:0:0:
102,205,66923,1,0,0:0:0:0:
64,320,67026,5,0,0:0:0:0:
64,320,67130,2,0,L|176:288,1,97.50000371933
416,256,67337,1,0,0:0:0:0:
416,256,67440,2,0,P|400:160|368:112,1,97.50000371933
96,64,67647,1,0,0:0:0:0:
96,64,67751,1,0,0:0:0:0:
96,64,67854,2,0,P|48:128|64:176,1,97.50000371933
240,320,68061,1,0,0:0:0:0:
240,320,68164,1,0,0:0:0:0:
240,320,68268,2,0,L|400:208,1,195.00000743866
384,32,68682,6,0,L|288:96,1,97.50000371933
48,96,68888,2,0,L|160:160,1,97.50000371933
432,304,69095,2,0,L|336:240,1,97.50000371933
48,352,69301,2,0,L|160:288,1,97.50000371933
304,272,69509,2,0,P|400:224|432:128,1,195.00000743866
272,48,69820,1,0,0:0:0:0:
272,48,69923,2,0,L|112:176,1,195.00000743866
64,336,70337,5,0,0:0:0:0:
176,304,70544,2,0,L|288:256,1,97.50000371933
448,208,70751,2,0,L|352:144,1,97.50000371933
304,32,70957,2,0,L|176:80,1,97.50000371933
64,144,71164,2,0,B|80:256|80:256|176:304,1,195.00000743866
464,304,71578,2,0,L|368:224,1,97.50000371933
256,48,71785,2,0,L|144:112,1,97.50000371933
48,352,71992,6,0,B|160:304|160:304|272:320,1,195.00000743866
448,48,72406,2,0,B|407:117|407:117|295:165,1,195.00000743866
48,224,72820,2,0,B|88:293|88:293|200:341,1,195.00000743866
320,224,73233,1,0,0:0:0:0:
295,149,73336,1,0,0:0:0:0:
248,88,73439,1,0,0:0:0:0:
183,46,73543,1,0,0:0:0:0:
64,128,73647,5,0,0:0:0:0:
64,128,73751,2,0,L|176:240,1,146.250005578995
208,320,74268,2,0,L|320:256,1,97.50000371933
464,224,74475,2,0,L|288:112,1,195.00000743866
64,176,75095,2,0,L|160:256,1,97.50000371933
448,272,75302,6,0,L|320:160,1,146.250005578995
272,144,75716,1,0,0:0:0:0:
160,224,75820,1,0,0:0:0:0:
160,224,75923,1,0,0:0:0:0:
160,224,76026,2,0,L|224:256,1,48.750001859665
336,288,76233,1,0,0:0:0:0:
336,288,76337,1,0,0:0:0:0:
336,288,76440,2,0,L|384:256,1,48.750001859665
464,192,76751,1,0,0:0:0:0:
288,64,76957,5,0,0:0:0:0:
64,160,77164,2,0,L|128:192,1,48.750001859665
48,320,77371,2,0,L|112:288,1,48.750001859665
320,304,77578,2,0,L|272:240,1,48.750001859665
288,144,77785,2,0,L|208:176,1,48.750001859665
80,64,78199,1,0,0:0:0:0:
208,320,78406,1,0,0:0:0:0:
464,240,78613,5,0,0:0:0:0:
64,48,79026,1,0,0:0:0:0:
256,288,79440,1,0,0:0:0:0:
352,80,79578,1,0,0:0:0:0:
480,256,79716,1,0,0:0:0:0:
208,176,79854,1,0,0:0:0:0:
448,80,80268,5,0,0:0:0:0:
464,176,80371,2,0,P|416:224|368:256,1,97.50000371933
352,320,80578,1,0,0:0:0:0:
352,320,80682,2,0,B|272:320|272:320|192:304|192:304|144:272,1,195.00000743866
80,240,80992,1,0,0:0:0:0:
112,160,81095,2,0,B|140:141|140:141|220:125|220:125|300:125,1,195.00000743866
464,48,81509,1,0,0:0:0:0:
456,143,81612,1,0,0:0:0:0:
407,227,81715,1,0,0:0:0:0:
331,286,81819,1,0,0:0:0:0:
240,304,81923,5,0,0:0:0:0:
240,304,82027,2,0,B|224:256|224:256|240:208,1,97.50000371933
240,96,82233,1,0,0:0:0:0:
368,128,82337,2,0,B|416:240|416:240|368:336,1,195.00000743866
304,336,82647,1,0,0:0:0:0:
224,320,82751,2,0,B|176:240|176:240|224:128,1,195.00000743866
64,256,83164,1,0,0:0:0:0:
103,167,83267,1,0,0:0:0:0:
175,102,83370,1,0,0:0:0:0:
266,70,83474,1,0,0:0:0:0:
368,64,83578,5,0,0:0:0:0:
368,64,83682,2,0,P|352:128|304:160,1,97.50000371933
336,256,83889,1,0,0:0:0:0:
256,288,83992,2,0,B|160:336|160:336|64:320,1,195.00000743866
32,256,84302,1,0,0:0:0:0:
96,192,84406,2,0,B|183:206|183:206|279:158,1,195.00000743866
282,33,84820,1,0,0:0:0:0:
358,92,84924,1,0,0:0:0:0:
407,176,85027,1,0,0:0:0:0:
416,272,85130,1,0,0:0:0:0:
320,320,85233,5,0,0:0:0:0:
320,320,85337,2,0,P|256:320|208:288,1,97.50000371933
128,224,85544,1,0,0:0:0:0:
192,128,85647,2,0,B|272:144|352:192|448:160,1,195.00000743866
464,224,85958,1,0,0:0:0:0:
432,304,86061,2,0,B|352:320|272:368|176:336,1,195.00000743866
80,288,86475,1,0,0:0:0:0:
89,192,86578,1,0,0:0:0:0:
138,108,86681,1,0,0:0:0:0:
214,49,86785,1,0,0:0:0:0:
288,32,86888,6,0,L|294:158,1,97.50000371933
447,199,87095,2,0,L|332:271,1,97.50000371933
208,336,87302,1,0,0:0:0:0:
48,272,87406,1,0,0:0:0:0:
208,192,87509,1,0,0:0:0:0:
112,352,87613,1,0,0:0:0:0:
128,176,87716,1,0,0:0:0:0:
224,336,87820,1,0,0:0:0:0:
48,256,87923,2,0,P|64:176|112:144,1,97.50000371933
240,48,88130,2,0,B|264:89|160:144|160:144|240:176|240:176|288:240,1,292.50001115799
304,80,88544,5,0,0:0:0:0:
464,144,88648,1,0,0:0:0:0:
304,224,88751,1,0,0:0:0:0:
400,64,88855,1,0,0:0:0:0:
384,240,88958,1,0,0:0:0:0:
288,128,89061,1,0,0:0:0:0:
464,224,89164,1,0,0:0:0:0:
304,64,89268,1,0,0:0:0:0:
496,96,89371,1,0,0:0:0:0:
304,208,89475,1,0,0:0:0:0:
320,320,89578,6,0,L|208:272,1,97.50000371933
48,16,89785,2,0,B|91:37|33:140|33:140|117:123|117:123|192:150,1,292.50001115799
224,64,90199,1,0,0:0:0:0:
272,192,90302,1,0,0:0:0:0:
304,48,90406,1,0,0:0:0:0:
368,176,90509,1,0,0:0:0:0:
384,32,90613,1,0,0:0:0:0:
448,160,90716,1,0,0:0:0:0:
304,48,90820,1,0,0:0:0:0:
368,176,90923,1,0,0:0:0:0:
256,192,91026,2,0,L|160:112,1,97.50000371933
48,224,91233,2,0,B|112:304|176:336|208:336|208:336|272:336,1,195.00000743866
202,335,91544,1,0,0:0:0:0:
202,335,91647,1,0,0:0:0:0:
202,335,91751,1,0,0:0:0:0:
464,304,91854,6,0,L|400:224,1,97.50000371933
352,112,92061,1,0,0:0:0:0:
256,272,92164,1,0,0:0:0:0:
128,144,92268,1,0,0:0:0:0:
336,272,92371,1,0,0:0:0:0:
224,96,92474,1,0,0:0:0:0:
144,288,92578,1,0,0:0:0:0:
304,128,92682,2,0,L|208:48,1,97.50000371933
48,224,92889,2,0,B|112:304|176:336|208:336|208:336|272:336,1,195.00000743866
288,320,93199,1,0,0:0:0:0:
367,264,93302,1,0,0:0:0:0:
418,182,93405,1,0,0:0:0:0:
417,86,93509,1,0,0:0:0:0:
