osu file format v14

[General]
AudioFilename: audio.mp3
AudioLeadIn: 0
PreviewTime: 63986
Countdown: 1
SampleSet: Normal
StackLeniency: 0.3
Mode: 0
LetterboxInBreaks: 0
WidescreenStoryboard: 0

[Editor]
DistanceSpacing: 1.3
BeatDivisor: 4
GridSize: 8
TimelineZoom: 1.9

[Metadata]
Title:Brave Jewel
TitleUnicode:Brave Jewel
Artist:Roselia
ArtistUnicode:Roselia
Creator:Feruver
Version:Resilience
Source:BanG Dream! 2nd Season
Tags:バンドリ! ガールズバンドパーティ! Girls Band Party bandori garupa ガルパ ロゼリア opening minato yukina 湊友希那 aiba aina 相羽あいな hikawa sayo 氷川紗夜 kudou haruka 工藤晴香 imai lisa 今井リサ nakashima yuki 中島由貴 udagawa ako 宇田川あこ sakuragawa megu 櫻川めぐ shirokane rinko 白金燐子 akesaka satomi 明坂聡美 shizaki kanon 志崎樺音 anime video game japanese
BeatmapID:1982008
BeatmapSetID:949152

[Difficulty]
HPDrainRate:6
CircleSize:4
OverallDifficulty:9.2
ApproachRate:9.5
SliderMultiplier:1.7
SliderTickRate:1

[Events]
//Background and Video events
0,0,"921355.jpg",0,0
//Break Periods
2,161060,170336
//Storyboard Layer 0 (Background)
//Storyboard Layer 1 (Fail)
//Storyboard Layer 2 (Pass)
//Storyboard Layer 3 (Foreground)
//Storyboard Sound Samples

[TimingPoints]
861,312.5,4,1,1,65,1,0
861,-117.647058823529,4,1,1,65,0,0
5861,-158.730158730159,4,1,1,65,0,0
10392,-117.647058823529,4,1,1,65,0,0
12111,-90.9090909090909,4,1,1,65,0,0
13048,-90.9090909090909,4,1,1,65,0,0
16095,-74.0740740740741,4,1,1,5,0,0
16173,-74.0740740740741,4,1,1,65,0,0
18048,-83.3333333333333,4,1,1,65,0,0
28361,-90.9090909090909,4,2,1,65,0,0
37736,-90.9090909090909,4,1,1,65,0,0
48361,-158.730158730159,4,1,1,65,0,0
58361,-95.2380952380952,4,1,1,65,0,0
64142,-250,4,1,1,65,0,0
64376,-200,4,1,1,5,0,0
64454,-76.9230769230769,4,1,1,85,0,1
84611,-76.9230769230769,4,1,1,40,0,0
84923,-76.9230769230769,4,1,1,50,0,0
85236,-76.9230769230769,4,1,1,60,0,0
85548,-76.9230769230769,4,1,1,70,0,0
85861,-76.9230769230769,4,1,1,65,0,0
87111,-200,4,1,1,65,0,0
88361,-100,4,1,1,65,0,0
89064,-100,4,1,1,5,0,0
89142,-100,4,1,1,65,0,0
118907,-100,4,1,1,5,0,0
118986,-100,4,1,1,65,0,0
119611,-133.333333333333,4,1,1,45,0,0
130236,-80,4,1,1,65,0,0
130861,-400,4,1,1,65,0,0
131173,-80,4,1,1,65,0,0
135704,-71.4285714285714,4,1,1,65,0,1
147345,-71.4285714285714,4,1,1,5,0,1
147423,-71.4285714285714,4,1,1,65,0,1
147657,-71.4285714285714,4,1,1,5,0,1
147736,-71.4285714285714,4,1,1,65,0,1
152111,-71.4285714285714,4,1,1,65,0,0
153673,-71.4285714285714,4,1,1,65,0,1
158361,-222.222222222222,4,1,1,65,0,0
159611,-100,4,1,1,65,0,0
170861,-200,4,1,1,45,0,0
180704,-100,4,1,1,65,0,0
180861,-100,4,2,1,65,0,0
188361,-100,4,1,1,65,0,0
192501,-100,4,1,1,5,0,0
192579,-100,4,1,1,65,0,0
192657,-100,4,1,1,5,0,0
193204,-100,4,1,1,65,0,0
198204,-500,4,1,1,65,0,0
198595,-500,4,1,1,5,0,0
198673,-76.9230769230769,4,1,1,65,0,1
198907,-76.9230769230769,4,1,1,5,0,0
198986,-500,4,1,1,65,0,0
199220,-500,4,1,1,5,0,0
199298,-76.9230769230769,4,1,1,65,0,1
199532,-76.9230769230769,4,1,1,5,0,0
199611,-500,4,1,1,65,0,0
199845,-500,4,1,1,5,0,0
199923,-76.9230769230769,4,1,1,65,0,1
200157,-76.9230769230769,4,1,1,5,0,0
200236,-500,4,1,1,65,0,0
200470,-500,4,1,1,5,0,0
200548,-76.9230769230769,4,1,1,65,0,1
200782,-76.9230769230769,4,1,1,5,0,0
200861,-500,4,1,1,65,0,0
201095,-500,4,1,1,5,0,0
201173,-76.9230769230769,4,1,1,65,0,1
203204,-76.9230769230769,4,1,1,65,0,0
203282,-76.9230769230769,4,1,1,65,0,0
203673,-66.6666666666667,4,1,1,85,0,1
209611,-66.6666666666667,4,1,1,85,0,0
211173,-66.6666666666667,4,1,1,85,0,1
213361,-66.6666666666667,4,1,1,60,0,1
213986,-66.6666666666667,4,1,1,72,0,1
214611,-66.6666666666667,4,1,1,85,0,1
215861,-166.666666666667,4,1,1,70,0,0
217111,-80,4,1,1,70,0,0
223126,-80,4,1,1,90,0,0
223361,-80,4,1,1,70,0,0
226876,-80,4,1,1,5,0,0
226954,-80,4,1,1,70,0,0
231954,-66.6666666666667,4,1,1,70,0,0

[HitObjects]
162,78,861,5,0,0:0:0:0:
122,217,1017,1,0,0:0:0:0:
246,150,1173,1,0,0:0:0:0:
76,145,1329,1,0,0:0:0:0:
168,289,1486,1,0,0:0:0:0:
162,148,1642,2,0,L|162:45,1,72.2500013780594
34,75,1954,6,0,P|6:115|29:213,1,144.500002756119
95,302,2423,1,0,0:0:0:0:
224,197,2579,1,0,0:0:0:0:
311,301,2736,2,0,L|314:384,1,72.2500013780594
188,234,3048,2,0,L|185:148,1,72.2500013780594
185,119,3282,1,0,0:0:0:0:
191,76,3361,6,0,P|203:43|254:25,1,72.2500013780594
370,22,3673,1,0,0:0:0:0:
376,190,3829,1,0,0:0:0:0:
261,102,3986,1,0,0:0:0:0:
410,103,4142,2,0,L|503:103,1,72.2500013780594
291,182,4454,1,0,0:0:0:0:
435,314,4611,1,0,0:0:0:0:
472,288,4689,2,0,L|471:203,1,72.2500013780594
477,24,5001,5,0,0:0:0:0:
443,14,5079,1,0,0:0:0:0:
408,15,5157,1,0,0:0:0:0:
374,25,5236,1,0,0:0:0:0:
345,43,5314,2,0,L|298:80,3,36.1250006890297
217,123,5626,2,0,L|219:172,1,36.1250006890297
262,263,5782,1,0,0:0:0:0:
257,301,5861,2,4,B|249:347|227:377|176:392|79:341|147:289|196:224|98:177|98:177|38:199|46:255,1,428.39998692627
366,188,7579,5,8,0:0:0:0:
131,20,7892,1,0,0:0:0:0:
166,146,8048,1,0,0:0:0:0:
166,146,8204,1,0,0:0:0:0:
310,112,8361,6,0,B|355:126|362:122|399:65|399:65|418:130|455:175|455:175|434:296|310:262,1,428.39998692627,4|4,0:0|0:0,0:0:0:0:
170,148,9923,1,0,0:0:0:0:
168,262,10079,1,0,0:0:0:0:
367,187,10392,1,0,0:0:0:0:
369,73,10548,1,0,0:0:0:0:
263,8,10704,1,0,0:0:0:0:
165,69,10861,6,0,L|76:67,1,72.2500013780594,4|0,0:0|0:0,0:0:0:0:
239,122,11173,2,0,L|323:125,1,72.2500013780594
128,42,11486,2,0,L|40:39,1,72.2500013780594
276,149,11798,2,0,L|362:152,1,72.2500013780594
501,163,12111,1,0,0:0:0:0:
389,54,12267,1,0,0:0:0:0:
373,275,12423,1,0,0:0:0:0:
232,50,12579,1,0,0:0:0:0:
94,258,12736,5,8,2:0:0:0:
117,298,12814,1,8,2:0:0:0:
159,319,12892,1,8,2:0:0:0:
205,314,12970,1,8,2:0:0:0:
241,284,13048,1,8,0:0:0:0:
256,240,13126,1,8,0:0:0:0:
244,195,13204,1,8,0:0:0:0:
210,163,13282,1,8,0:0:0:0:
164,156,13361,1,8,0:0:0:0:
164,156,13673,5,12,0:0:0:0:
349,350,13829,2,0,L|345:228,1,93.5000028533936
333,25,14142,5,12,0:0:0:0:
474,205,14298,2,0,L|470:327,1,93.5000028533936
265,379,14611,5,12,0:0:0:0:
174,230,14767,2,0,L|181:105,1,93.5000028533936
34,15,15079,5,12,0:0:0:0:
282,143,15236,2,0,L|399:131,1,93.5000028533936
502,54,15548,5,8,0:0:0:0:
461,29,15626,1,8,0:0:0:0:
415,18,15704,1,8,0:0:0:0:
368,21,15782,1,8,0:0:0:0:
324,38,15861,2,0,P|270:63|175:36,1,140.25000428009,8|0,0:0|0:0,0:0:0:0:
156,19,16173,6,8,L|99:19,3,57.3750002188683
157,140,16486,2,8,L|216:138,3,57.3750002188683
35,253,16798,1,8,0:0:0:0:
39,299,16876,1,8,0:0:0:0:
69,334,16954,1,8,0:0:0:0:
114,345,17032,1,8,0:0:0:0:
157,327,17111,1,8,0:0:0:0:
404,30,18048,5,8,0:0:0:0:
403,77,18126,1,8,0:0:0:0:
402,124,18204,1,8,0:0:0:0:
401,171,18282,1,8,0:0:0:0:
400,218,18361,5,4,0:0:0:0:
165,160,18517,1,0,0:0:0:0:
318,10,18673,1,8,0:0:0:0:
314,227,18829,1,0,0:0:0:0:
196,46,18986,1,0,0:0:0:0:
402,124,19142,2,0,L|515:120,1,101.999996887207,0|8,0:0|0:0,0:0:0:0:
298,154,19454,6,0,P|249:188|240:238,1,101.999996887207
240,377,19767,1,0,0:0:0:0:
126,290,19923,1,8,0:0:0:0:
282,291,20079,1,0,0:0:0:0:
109,366,20236,2,0,P|60:332|53:268,1,101.999996887207
39,66,20548,2,0,P|88:101|100:146,1,101.999996887207,8|0,0:0|0:0,0:0:0:0:
97,183,20782,1,0,0:0:0:0:
68,220,20861,1,0,0:0:0:0:
0,170,21017,5,0,0:0:0:0:
174,48,21173,1,8,0:0:0:0:
185,240,21329,1,0,0:0:0:0:
54,123,21486,1,0,0:0:0:0:
225,147,21642,2,0,P|279:158|363:158,1,101.999996887207,8|0,0:0|0:0,0:0:0:0:
504,172,21954,6,0,P|504:112|373:77,1,203.999993774414,4|0,0:0|0:0,0:0:0:0:
323,241,22423,2,0,L|326:350,1,101.999996887207,8|0,0:0|0:0,0:0:0:0:
171,64,22736,5,0,0:0:0:0:
220,296,22892,1,8,0:0:0:0:
289,75,23048,5,0,0:0:0:0:
88,262,23204,1,8,0:0:0:0:
171,64,23361,5,4,0:0:0:0:
177,242,23517,2,0,L|170:360,1,101.999996887207,0|8,0:0|0:0,0:0:0:0:
75,174,23829,1,0,0:0:0:0:
261,149,23986,1,0,0:0:0:0:
170,343,24142,2,0,P|112:357|68:352,1,101.999996887207,0|8,0:0|0:0,0:0:0:0:
289,282,24454,2,0,P|347:268|393:274,1,101.999996887207
496,349,24767,1,0,0:0:0:0:
348,349,24923,1,8,0:0:0:0:
336,175,25079,1,0,0:0:0:0:
469,72,25236,6,0,P|496:156|454:216,1,152.999995330811
431,230,25548,2,0,P|409:177|429:137,1,101.999996887207,8|0,0:0|0:0,0:0:0:0:
492,277,25861,2,0,P|446:303|388:286,1,101.999996887207
263,186,26173,1,8,0:0:0:0:
116,280,26329,1,0,0:0:0:0:
260,357,26486,1,0,0:0:0:0:
188,209,26642,2,0,P|193:150|246:110,1,101.999996887207
395,26,26954,6,0,B|444:85|409:122|409:122|375:157|434:210,1,203.999993774414,12|0,0:0|0:0,0:0:0:0:
370,381,27423,2,0,L|357:270,1,101.999996887207,8|0,0:0|0:0,0:0:0:0:
305,119,27736,1,8,0:0:0:0:
258,110,27814,1,8,0:0:0:0:
214,124,27892,1,8,0:0:0:0:
181,157,27970,1,8,0:0:0:0:
167,202,28048,1,8,0:0:0:0:
153,247,28126,1,8,0:0:0:0:
120,280,28204,1,8,0:0:0:0:
76,294,28282,1,8,0:0:0:0:
30,285,28361,6,0,L|33:185,1,93.5000028533936,12|0,0:0|0:0,0:0:0:0:
44,17,28673,1,8,0:0:0:0:
125,126,28829,1,0,0:0:0:0:
0,122,28986,1,8,0:0:0:0:
124,40,29142,2,0,L|224:53,1,93.5000028533936,0|8,0:0|0:0,0:0:0:0:
393,73,29454,6,0,P|407:120|378:188,1,94.5000003604889,0|8,0:0|0:0,0:0:0:0:
265,284,29767,1,0,0:0:0:0:
302,147,29923,1,8,0:0:0:0:
357,331,30079,1,0,0:0:0:0:
229,176,30236,2,0,P|232:111|269:76,1,94.5000003604889,8|0,0:0|0:0,0:0:0:0:
421,287,30548,2,0,P|430:351|400:392,1,94.5000003604889,8|0,0:0|0:0,0:0:0:0:
273,378,30861,6,0,L|157:372,1,94.5000003604889,8|0,0:0|0:0,0:0:0:0:
18,358,31173,1,8,0:0:0:0:
99,238,31329,1,0,0:0:0:0:
94,349,31486,1,8,0:0:0:0:
16,200,31642,2,0,P|26:118|51:78,1,94.5000003604889,0|8,0:0|0:0,0:0:0:0:
165,17,31954,2,0,B|237:18|240:68|240:68|245:113|327:111,1,187.000005706787
495,130,32423,1,8,0:0:0:0:
383,24,32579,1,0,0:0:0:0:
316,199,32736,2,0,L|322:322,1,94.5000003604889,8|0,0:0|0:0,0:0:0:0:
495,130,33048,2,0,L|489:7,1,94.5000003604889,8|0,0:0|0:0,0:0:0:0:
326,110,33361,5,8,0:0:0:0:
182,4,33517,1,0,0:0:0:0:
197,204,33673,1,8,0:0:0:0:
254,49,33829,1,0,0:0:0:0:
98,149,33986,1,8,0:0:0:0:
287,188,34142,2,0,L|394:178,1,94.5000003604889,0|8,0:0|0:0,0:0:0:0:
447,54,34454,6,0,P|377:58|327:97,1,94.5000003604889,0|8,0:0|0:0,0:0:0:0:
243,196,34767,1,0,0:0:0:0:
178,363,34923,1,8,0:0:0:0:
292,271,35079,1,0,0:0:0:0:
134,269,35236,2,0,L|16:266,1,94.5000003604889,8|0,0:0|0:0,0:0:0:0:
323,202,35548,6,0,P|362:248|362:297,2,93.5000028533936,8|0|8,0:0|0:0|0:0,0:0:0:0:
190,120,36017,1,0,0:0:0:0:
285,18,36173,1,8,0:0:0:0:
373,123,36329,1,0,0:0:0:0:
238,81,36486,2,0,L|121:75,1,93.5000028533936,8|0,0:0|0:0,0:0:0:0:
222,218,36798,1,8,0:0:0:0:
371,46,36954,6,0,P|434:71|428:179,1,187.000005706787
192,126,37423,1,8,0:0:0:0:
182,334,37579,1,0,0:0:0:0:
279,124,37736,5,8,0:0:0:0:
265,79,37814,1,8,0:0:0:0:
230,48,37892,1,8,0:0:0:0:
184,40,37970,1,8,0:0:0:0:
141,57,38048,1,8,0:0:0:0:
113,95,38126,1,8,0:0:0:0:
109,141,38204,1,8,0:0:0:0:
95,185,38282,1,8,0:0:0:0:
60,216,38361,6,0,B|31:201|27:186|27:186|15:153|36:103,1,93.5000028533936,4|0,0:0|0:0,0:0:0:0:
71,11,38673,1,8,0:0:0:0:
192,126,38829,1,0,0:0:0:0:
0,197,38986,1,0,0:0:0:0:
159,58,39142,2,0,P|224:58|258:92,1,93.5000028533936,0|8,0:0|0:0,0:0:0:0:
363,237,39454,6,0,L|365:29,1,187.000005706787
273,192,39923,1,8,0:0:0:0:
453,139,40079,1,0,0:0:0:0:
362,331,40236,2,0,L|363:211,1,94.5000003604889
192,31,40548,2,0,L|190:150,1,94.5000003604889,8|0,0:0|0:0,0:0:0:0:
189,239,40782,5,0,0:0:0:0:
184,285,40861,2,0,P|145:335|109:339,1,94.5000003604889
63,143,41173,1,8,0:0:0:0:
109,266,41329,1,0,0:0:0:0:
239,185,41486,1,0,0:0:0:0:
150,31,41642,2,0,L|150:157,1,94.5000003604889,0|8,0:0|0:0,0:0:0:0:
264,265,41954,6,0,B|336:264|339:216|339:216|344:169|426:171,1,187.000005706787
511,268,42423,1,8,0:0:0:0:
431,74,42579,1,0,0:0:0:0:
412,253,42736,2,0,L|418:351,1,94.5000003604889,0|8,0:0|0:0,0:0:0:0:
295,90,43048,5,0,0:0:0:0:
431,369,43204,1,8,0:0:0:0:
209,223,43361,6,0,P|197:147|221:105,1,94.5000003604889,4|0,0:0|0:0,0:0:0:0:
299,11,43673,1,8,0:0:0:0:
397,123,43829,2,0,L|506:118,1,94.5000003604889
211,60,44142,2,0,P|152:78|132:112,1,94.5000003604889,0|8,0:0|0:0,0:0:0:0:
45,301,44454,6,0,B|82:239|42:209|42:209|5:182|49:112,1,187.000005706787
142,9,44923,1,8,0:0:0:0:
159,203,45079,1,0,0:0:0:0:
0,56,45236,2,0,L|103:68,1,93.5000028533936
296,121,45548,2,0,L|193:133,1,93.5000028533936,8|0,0:0|0:0,0:0:0:0:
291,47,45861,2,0,P|358:75|367:120,1,93.5000028533936
352,280,46173,1,8,0:0:0:0:
490,200,46329,2,0,L|481:82,1,93.5000028533936
300,215,46642,6,0,L|178:217,1,93.5000028533936,0|8,0:0|0:0,0:0:0:0:
38,174,46954,2,0,P|30:120|75:74,1,93.5000028533936,4|0,0:0|0:0,0:0:0:0:
225,37,47267,1,0,0:0:0:0:
254,331,47423,2,0,L|252:205,1,93.5000028533936,8|8,0:0|0:0,0:0:0:0:
255,192,47657,1,8,0:0:0:0:
257,148,47736,1,8,0:0:0:0:
371,26,47892,1,8,0:0:0:0:
398,162,48048,1,8,0:0:0:0:
301,77,48204,1,8,0:0:0:0:
466,121,48361,6,0,P|476:169|435:230,1,107.099996731567,4|0,0:0|0:0,0:0:0:0:
345,249,48829,1,0,0:0:0:0:
257,171,48986,2,0,L|256:50,1,107.099996731567,8|0,0:0|0:0,0:0:0:0:
165,26,49454,1,0,0:0:0:0:
105,143,49611,6,0,L|105:213,2,53.5499983657837,0|8|0,0:0|0:0|0:0,0:0:0:0:
124,304,50079,1,0,0:0:0:0:
203,247,50236,2,0,P|247:239|273:242,1,53.5499983657837,8|0,0:0|0:0,0:0:0:0:
318,309,50548,1,0,0:0:0:0:
408,365,50704,1,0,0:0:0:0:
432,272,50861,2,0,L|423:146,1,107.099996731567,12|0,0:0|0:0,0:0:0:0:
414,47,51329,1,0,0:0:0:0:
332,116,51486,2,0,L|211:107,1,107.099996731567,8|0,0:0|0:0,0:0:0:0:
144,69,51954,2,0,L|134:190,1,107.099996731567,0|8,0:0|0:0,0:0:0:0:
125,294,52423,5,0,0:0:0:0:
207,173,52579,1,8,0:0:0:0:
195,141,52657,1,8,0:0:0:0:
173,120,52736,1,8,0:0:0:0:
61,135,52892,1,8,0:0:0:0:
19,252,53048,2,0,L|18:324,1,53.5499983657837
167,364,53361,6,0,P|191:339|193:255,1,107.099996731567,4|0,0:0|0:0,0:0:0:0:
137,204,53829,1,0,0:0:0:0:
217,153,53986,2,0,L|339:156,1,107.099996731567,8|0,0:0|0:0,0:0:0:0:
444,158,54454,1,0,0:0:0:0:
379,80,54611,2,0,L|315:78,1,53.5499983657837,0|8,0:0|0:0,0:0:0:0:
187,79,54923,1,0,0:0:0:0:
262,33,55079,1,0,0:0:0:0:
266,126,55236,2,0,P|265:191|309:222,1,107.099996731567,8|0,0:0|0:0,0:0:0:0:
445,269,55861,5,4,0:0:0:0:
339,283,56017,2,0,P|293:287|216:268,1,107.099996731567
145,237,56486,2,0,L|141:113,1,107.099996731567,8|0,0:0|0:0,0:0:0:0:
130,11,56954,1,0,0:0:0:0:
63,77,57111,1,0,0:0:0:0:
205,89,57267,2,0,L|326:95,1,107.099996731567,8|0,0:0|0:0,0:0:0:0:
401,112,57736,2,0,P|386:150|314:174,1,107.099996731567,8|8,0:0|0:0,0:0:0:0:
300,177,58126,1,8,0:0:0:0:
276,188,58204,1,8,0:0:0:0:
263,210,58282,1,8,0:0:0:0:
265,236,58361,1,8,0:0:0:0:
180,353,59298,5,8,0:0:0:0:
148,322,59376,1,8,2:0:0:0:
127,284,59454,1,8,2:0:0:0:
119,241,59532,1,8,2:0:0:0:
123,197,59611,1,8,2:0:0:0:
124,172,59689,1,8,2:0:0:0:
122,150,59767,1,8,2:0:0:0:
112,127,59845,1,8,2:0:0:0:
105,107,59923,6,0,P|96:58|100:8,1,89.2499972763062,12|0,0:0|0:0,0:0:0:0:
239,191,60236,1,0,0:0:0:0:
429,128,60392,2,0,P|420:86|379:40,1,89.2499972763062,12|0,0:0|0:0,0:0:0:0:
188,105,60704,1,0,0:0:0:0:
337,222,60861,2,0,L|340:334,1,89.2499972763062,12|0,0:0|0:0,0:0:0:0:
183,349,61173,1,0,0:0:0:0:
49,221,61329,2,0,L|56:89,1,89.2499972763062,12|0,0:0|0:0,0:0:0:0:
157,17,61642,1,0,0:0:0:0:
261,136,61798,2,0,L|265:239,1,89.2499972763062,12|0,0:0|0:0,0:0:0:0:
124,180,62111,5,8,0:0:0:0:
283,17,62267,1,0,0:0:0:0:
383,228,62423,1,0,0:0:0:0:
184,86,62579,5,8,0:0:0:0:
413,83,62736,1,0,0:0:0:0:
333,304,62892,1,0,0:0:0:0:
323,91,63048,5,8,0:0:0:0:
378,384,63204,1,8,0:0:0:0:
172,216,63517,5,8,0:0:0:0:
333,304,63673,1,8,0:0:0:0:
352,171,63986,5,0,0:0:0:0:
430,187,64142,2,0,P|430:142|419:126,1,51
413,93,64454,6,0,B|371:62|313:102|313:102|262:129|207:73,1,220.999989883423,4|0,0:0|0:0,0:0:0:0:
278,39,64923,2,0,L|273:186,1,110.499994941712,8|0,0:0|0:0,0:0:0:0:
270,355,65236,2,0,P|236:307|233:246,1,110.499994941712
155,162,65548,2,0,L|38:169,1,110.499994941712,8|0,0:0|0:0,0:0:0:0:
214,87,65861,5,0,0:0:0:0:
369,146,66017,2,0,L|495:142,1,110.499994941712,0|8,0:0|0:0,0:0:0:0:
358,74,66329,2,0,P|306:104|300:167,1,110.499994941712
313,355,66642,1,0,0:0:0:0:
159,238,66798,1,8,0:0:0:0:
322,226,66954,1,8,0:0:0:0:
376,226,67032,1,8,0:0:0:0:
420,258,67111,6,0,B|437:307|437:336|437:336|472:318|485:285|467:195,1,220.999989883423,4|8,0:0|0:0,0:0:0:0:
472,92,67579,2,0,L|331:97,1,110.499994941712
145,113,67892,1,0,0:0:0:0:
315,12,68048,1,8,0:0:0:0:
322,226,68204,2,0,L|325:351,1,110.499994941712,4|0,0:0|0:0,0:0:0:0:
159,238,68517,1,0,0:0:0:0:
257,174,68673,2,0,P|308:153|372:166,1,110.499994941712,8|0,0:0|0:0,0:0:0:0:
445,343,68986,5,8,2:0:0:0:
408,343,69064,1,8,2:0:0:0:
371,344,69142,1,8,0:0:0:0:
334,345,69220,1,8,0:0:0:0:
297,346,69298,1,8,0:0:0:0:
252,349,69376,1,8,0:0:0:0:
212,350,69454,2,0,P|181:292|277:172,1,220.999989883423,12|0,0:0|0:0,0:0:0:0:
260,269,69923,6,0,L|116:268,1,110.499994941712,8|0,0:0|0:0,0:0:0:0:
3,235,70236,1,0,0:0:0:0:
130,128,70392,1,0,0:0:0:0:
76,344,70548,2,0,L|81:213,1,110.499994941712,8|0,0:0|0:0,0:0:0:0:
98,47,70861,1,0,0:0:0:0:
199,196,71017,2,0,P|275:176|299:109,1,110.499994941712,0|8,0:0|0:0,0:0:0:0:
300,61,71329,2,0,P|243:77|225:132,1,110.499994941712
200,337,71642,5,8,0:0:0:0:
236,296,71720,1,8,0:0:0:0:
288,281,71798,1,8,0:0:0:0:
341,294,71876,1,8,0:0:0:0:
393,307,71954,1,8,0:0:0:0:
446,292,72032,1,8,0:0:0:0:
482,251,72111,1,8,0:0:0:0:
453,68,72267,1,0,0:0:0:0:
190,179,72423,5,4,0:0:0:0:
344,52,72579,1,0,0:0:0:0:
393,244,72736,1,0,0:0:0:0:
141,119,72892,5,8,0:0:0:0:
378,141,73048,1,0,0:0:0:0:
257,345,73204,1,0,0:0:0:0:
241,61,73361,5,4,0:0:0:0:
393,244,73517,1,0,0:0:0:0:
163,302,73673,1,0,0:0:0:0:
338,88,73829,5,8,0:0:0:0:
316,324,73986,1,0,0:0:0:0:
112,203,74142,1,0,0:0:0:0:
303,160,74298,1,8,0:0:0:0:
233,375,74454,2,0,L|-2:364,1,220.999989883423,4|0,0:0|0:0,0:0:0:0:
200,209,74923,1,8,0:0:0:0:
5,130,75079,1,0,0:0:0:0:
73,293,75236,1,0,0:0:0:0:
144,135,75392,2,0,L|142:9,1,110.499994941712,0|8,0:0|0:0,0:0:0:0:
303,160,75704,5,0,0:0:0:0:
467,133,75861,1,0,0:0:0:0:
319,51,76017,1,0,0:0:0:0:
444,248,76173,2,0,L|441:375,1,110.499994941712,8|0,0:0|0:0,0:0:0:0:
224,151,76486,2,0,P|263:90|381:170,1,220.999989883423,0|8,0:0|0:0,0:0:0:0:
324,291,76954,6,0,L|93:274,1,220.999989883423,4|0,0:0|0:0,0:0:0:0:
62,100,77423,1,8,0:0:0:0:
224,151,77579,1,0,0:0:0:0:
103,274,77736,2,0,P|105:228|136:144,1,110.499994941712
211,17,78048,1,8,0:0:0:0:
353,106,78204,1,0,0:0:0:0:
170,100,78361,2,0,L|34:99,1,110.499994941712,8|0,0:0|0:0,0:0:0:0:
245,223,78673,1,8,0:0:0:0:
473,46,78829,1,0,0:0:0:0:
408,179,78986,5,8,2:0:0:0:
387,229,79064,1,8,2:0:0:0:
392,284,79142,1,8,2:0:0:0:
422,330,79220,1,8,2:0:0:0:
470,356,79298,1,8,2:0:0:0:
455,304,79376,1,8,2:0:0:0:
416,266,79454,1,8,2:0:0:0:
363,253,79532,1,8,2:0:0:0:
311,269,79611,6,0,P|261:295|190:280,1,110.499994941712,12|0,0:0|0:0,0:0:0:0:
41,214,79923,1,0,0:0:0:0:
165,115,80079,2,0,P|222:118|288:128,1,110.499994941712,8|0,0:0|0:0,0:0:0:0:
394,223,80392,1,0,0:0:0:0:
219,173,80548,1,8,0:0:0:0:
202,121,80626,1,8,0:0:0:0:
224,72,80704,1,8,0:0:0:0:
273,51,80782,1,8,0:0:0:0:
324,68,80861,1,8,0:0:0:0:
492,253,81798,5,8,0:0:0:0:
440,281,81876,1,0,0:0:0:0:
384,287,81954,1,0,0:0:0:0:
327,268,82032,1,0,0:0:0:0:
277,258,82111,1,8,2:0:0:0:
252,255,82189,1,8,2:0:0:0:
231,254,82267,1,8,2:0:0:0:
207,258,82345,1,8,2:0:0:0:
188,263,82423,6,0,P|118:243|100:183,1,110.499994941712,12|0,0:0|0:0,0:0:0:0:
193,9,82736,1,0,0:0:0:0:
350,117,82892,2,0,L|346:237,1,110.499994941712,12|0,0:0|0:0,0:0:0:0:
180,97,83204,1,0,0:0:0:0:
43,209,83361,2,0,L|44:360,1,110.499994941712,12|0,0:0|0:0,0:0:0:0:
198,203,83673,1,0,0:0:0:0:
295,54,83829,2,0,P|380:40|441:69,1,110.499994941712,12|0,0:0|0:0,0:0:0:0:
480,258,84142,1,0,0:0:0:0:
335,364,84298,2,0,L|192:362,1,110.499994941712,12|0,0:0|0:0,0:0:0:0:
43,198,84611,5,8,2:0:0:0:
203,53,84767,1,8,2:0:0:0:
254,275,84923,1,8,0:0:0:0:
53,99,85079,1,8,0:0:0:0:
310,166,85236,1,8,0:0:0:0:
123,316,85392,1,8,0:0:0:0:
108,26,85548,1,8,0:0:0:0:
337,247,85704,1,8,0:0:0:0:
90,174,85861,6,0,L|5:177,1,73.6666632944744,8|0,0:0|0:0,0:0:0:0:
201,103,86069,2,0,L|286:100,1,73.6666632944744,8|0,0:0|0:0,0:0:0:0:
215,278,86277,2,0,L|218:363,1,73.6666632944744,8|0,0:0|0:0,0:0:0:0:
128,113,86486,6,0,L|77:45,1,73.6666632944744,8|0,0:0|0:0,0:0:0:0:
250,163,86694,2,0,L|301:231,1,73.6666632944744,8|0,0:0|0:0,0:0:0:0:
115,275,86902,2,0,L|47:326,1,73.6666632944744,8|0,0:0|0:0,0:0:0:0:
201,103,87111,6,0,B|282:60|339:160|339:160|398:248|499:186,1,340,12|8,0:0|0:0,0:0:0:0:
237,240,88517,1,0,0:0:0:0:
383,42,88673,1,0,0:0:0:0:
459,271,88829,2,0,P|460:320|375:352,1,127.5,8|0,0:0|0:0,0:0:0:0:
362,337,89142,1,8,0:0:0:0:
320,326,89220,1,8,0:0:0:0:
278,321,89298,1,8,0:0:0:0:
236,322,89376,1,8,0:0:0:0:
194,327,89454,1,8,0:0:0:0:
152,338,89532,1,8,0:0:0:0:
113,354,89611,6,0,L|12:357,1,85,4|0,0:0|0:0,0:0:0:0:
96,202,89923,1,8,0:0:0:0:
194,327,90079,1,0,0:0:0:0:
14,253,90236,1,0,0:0:0:0:
186,158,90392,2,0,L|300:165,1,85,0|8,0:0|0:0,0:0:0:0:
479,178,90704,6,0,P|485:136|467:81,1,85
313,14,91017,2,0,P|307:56|325:111,1,85,0|8,0:0|0:0,0:0:0:0:
402,205,91329,1,0,0:0:0:0:
260,235,91486,6,0,L|131:225,1,127.5
88,220,91798,2,0,P|81:175|93:113,1,85,8|0,0:0|0:0,0:0:0:0:
164,18,92111,1,4,0:0:0:0:
160,151,92267,1,0,0:0:0:0:
57,67,92423,1,8,0:0:0:0:
225,81,92579,1,0,0:0:0:0:
189,267,92736,1,0,0:0:0:0:
15,202,92892,2,0,P|22:256|71:292,1,85,0|8,0:0|0:0,0:0:0:0:
259,240,93204,6,0,P|217:197|115:258,1,170,4|0,0:0|0:0,0:0:0:0:
226,361,93673,1,8,0:0:0:0:
178,148,93829,1,0,0:0:0:0:
357,137,93986,5,0,0:0:0:0:
189,267,94142,1,8,0:0:0:0:
233,59,94298,5,0,0:0:0:0:
318,315,94454,1,8,0:0:0:0:
84,269,94611,6,0,L|88:162,1,85,4|0,0:0|0:0,0:0:0:0:
106,17,94923,1,8,0:0:0:0:
197,164,95079,1,0,0:0:0:0:
22,117,95236,1,0,0:0:0:0:
233,59,95392,2,0,L|345:70,1,85,0|8,0:0|0:0,0:0:0:0:
471,177,95704,2,0,P|451:216|325:186,1,170
407,16,96173,1,8,0:0:0:0:
398,163,96329,1,0,0:0:0:0:
215,183,96486,2,0,P|153:186|64:175,1,127.5
50,170,96798,2,0,L|54:75,1,85,8|0,0:0|0:0,0:0:0:0:
189,5,97111,5,0,0:0:0:0:
275,146,97267,2,0,L|262:257,1,85,0|8,0:0|0:0,0:0:0:0:
165,372,97579,1,0,0:0:0:0:
95,246,97736,1,0,0:0:0:0:
265,230,97892,2,0,P|334:219|366:222,1,85,0|8,0:0|0:0,0:0:0:0:
434,235,98204,2,0,L|458:344,1,85,4|0,0:0|0:0,0:0:0:0:
275,357,98517,1,0,0:0:0:0:
434,149,98673,2,0,L|458:40,1,85,12|0,0:0|0:0,0:0:0:0:
276,176,98986,6,8,P|267:242|274:268,2,56.6666666666667
164,75,99298,2,8,P|173:9|166:-17,2,56.6666666666667
42,160,99611,6,0,P|36:212|50:260,1,85,4|0,0:0|0:0,0:0:0:0:
217,330,99923,1,8,2:1:0:0:
237,293,100001,1,8,2:0:0:0:
231,252,100079,1,8,2:0:0:0:
199,225,100157,1,8,2:0:0:0:
158,223,100236,1,8,2:0:0:0:
125,249,100314,1,8,2:0:0:0:
115,289,100392,1,8,2:0:0:0:
134,327,100470,1,8,2:0:0:0:
172,344,100548,1,8,2:1:0:0:
215,344,100626,1,8,2:0:0:0:
257,344,100704,2,8,L|321:343,3,42.5,8|8|8|8,2:0|2:0|2:0|2:0,2:0:0:0:
391,277,101017,5,8,2:0:0:0:
427,256,101095,1,8,2:0:0:0:
468,262,101173,1,8,2:1:0:0:
495,294,101251,1,8,2:0:0:0:
497,335,101329,1,8,2:0:0:0:
471,368,101407,1,8,2:0:0:0:
431,378,101486,1,8,2:0:0:0:
393,359,101564,1,8,2:0:0:0:
376,321,101642,1,8,2:0:0:0:
376,278,101720,1,8,2:0:0:0:
376,236,101798,2,8,L|377:172,3,42.5,8|8|8|8,2:1|2:0|2:0|2:0,2:0:0:0:
332,36,102111,5,12,2:1:0:0:
294,16,102189,1,8,2:0:0:0:
252,16,102267,1,8,2:0:0:0:
215,36,102345,1,8,2:0:0:0:
192,71,102423,1,8,2:1:0:0:
187,113,102501,1,8,2:0:0:0:
182,154,102579,1,8,2:0:0:0:
159,189,102657,1,8,2:0:0:0:
122,209,102736,2,8,P|93:213|67:208,1,42.5,8|0,2:0|2:0,2:0:0:0:
93,109,102892,5,8,2:0:0:0:
135,108,102970,1,8,2:0:0:0:
173,125,103048,1,8,2:1:0:0:
201,156,103126,1,8,2:0:0:0:
213,197,103204,1,8,2:0:0:0:
207,239,103282,1,8,2:0:0:0:
184,274,103361,2,8,L|150:327,1,42.5,8|8,2:0|2:0,2:0:0:0:
289,276,103517,5,8,2:0:0:0:
327,258,103595,1,8,2:0:0:0:
369,252,103673,1,8,2:1:0:0:
411,258,103751,1,8,2:0:0:0:
449,276,103829,1,8,2:0:0:0:
465,313,103907,1,8,2:0:0:0:
445,349,103986,1,8,2:0:0:0:
404,355,104064,1,8,2:0:0:0:
375,327,104142,1,8,2:0:0:0:
379,286,104220,1,8,2:0:0:0:
390,246,104298,1,8,2:1:0:0:
385,203,104376,1,8,2:0:0:0:
367,165,104454,1,8,2:0:0:0:
337,136,104532,1,8,2:0:0:0:
298,119,104611,6,0,B|238:114|227:149|227:149|215:186|156:184,1,170,4|0,0:0|0:0,0:0:0:0:
39,88,105079,1,0,0:0:0:0:
163,224,105236,2,0,L|157:331,1,85,8|0,0:0|0:0,0:0:0:0:
31,370,105548,2,0,L|25:263,1,85
12,159,105861,1,0,0:0:0:0:
197,201,106017,2,0,L|312:206,1,85,8|0,0:0|0:0,0:0:0:0:
446,213,106329,1,0,0:0:0:0:
369,68,106486,2,0,P|319:65|236:102,1,127.5,4|0,0:0|0:0,0:0:0:0:
214,119,106798,2,0,P|161:132|114:121,1,85,8|0,0:0|0:0,0:0:0:0:
54,34,107111,6,0,P|136:55|108:144,1,170,4|0,0:0|0:0,0:0:0:0:
9,217,107579,1,8,0:0:0:0:
42,242,107657,1,8,0:0:0:0:
82,256,107736,2,0,L|177:250,1,85,8|0,0:0|0:0,0:0:0:0:
344,231,108048,1,0,0:0:0:0:
296,110,108204,6,0,P|237:116|224:205,1,127.5,8|0,0:0|0:0,0:0:0:0:
235,216,108517,2,0,P|240:263|202:320,1,85,12|0,0:0|0:0,0:0:0:0:
77,349,108829,1,8,0:0:0:0:
81,146,108986,1,8,0:0:0:0:
235,216,109142,1,8,0:0:0:0:
277,213,109220,1,8,0:0:0:0:
319,210,109298,1,8,0:0:0:0:
362,208,109376,1,8,0:0:0:0:
404,205,109454,1,8,0:0:0:0:
447,202,109532,1,8,0:0:0:0:
489,200,109611,6,0,P|488:132|470:81,1,85,4|0,0:0|0:0,0:0:0:0:
413,9,109923,1,8,0:0:0:0:
344,107,110079,1,8,2:0:0:0:
303,119,110157,1,8,2:0:0:0:
261,119,110236,1,8,2:0:0:0:
158,23,110392,2,0,L|159:124,1,85,0|8,0:0|0:0,0:0:0:0:
167,255,110704,6,0,P|160:301|44:276,1,170,8|0,0:0|0:0,0:0:0:0:
17,142,111173,1,8,0:0:0:0:
147,182,111329,1,0,0:0:0:0:
216,47,111486,2,0,L|116:46,1,85
288,136,111798,2,0,L|388:137,1,85,8|8,0:0|0:0,0:0:0:0:
415,136,112032,1,8,0:0:0:0:
457,136,112111,6,0,P|472:192|459:234,1,85,12|0,0:0|0:0,0:0:0:0:
311,297,112423,1,8,0:0:0:0:
388,212,112579,1,0,0:0:0:0:
407,366,112736,1,0,0:0:0:0:
273,223,112892,2,0,L|162:224,1,85
34,196,113204,2,0,P|7:137|104:112,1,170,8|0,0:0|0:0,0:0:0:0:
119,258,113673,1,8,0:0:0:0:
220,139,113829,1,0,0:0:0:0:
251,307,113986,2,0,P|304:322|358:319,1,85,0|8,0:0|0:0,0:0:0:0:
375,317,114220,1,8,0:0:0:0:
413,301,114298,2,0,P|417:242|404:154,1,127.5,8|0,0:0|0:0,0:0:0:0:
400,138,114611,6,0,P|333:135|283:151,1,85,4|0,0:0|0:0,0:0:0:0:
198,233,114923,1,8,0:0:0:0:
323,223,115079,2,0,L|315:130,1,85
240,20,115392,2,0,P|181:21|133:55,1,85,0|8,0:0|0:0,0:0:0:0:
86,156,115704,2,0,L|92:258,1,85
255,366,116017,2,0,L|261:264,1,85,0|8,0:0|0:0,0:0:0:0:
230,120,116329,1,0,0:0:0:0:
160,264,116486,2,0,P|114:309|48:292,1,127.5
25,272,116798,2,0,P|17:223|17:160,1,85,8|0,0:0|0:0,0:0:0:0:
47,31,117111,6,0,B|103:22|125:58|125:58|141:87|204:74,1,170,4|8,0:0|0:0,0:0:0:0:
369,70,117579,2,0,L|481:61,1,85
296,63,117892,2,0,P|310:113|346:140,1,85
493,211,118204,2,0,P|475:255|349:269,1,170,12|0,0:0|0:0,0:0:0:0:
236,207,118673,2,0,P|154:207|119:257,1,127.5,8|0,0:0|0:0,0:0:0:0:
116,278,118986,1,8,0:0:0:0:
131,317,119064,1,8,0:0:0:0:
166,341,119142,1,8,0:0:0:0:
208,341,119220,1,8,0:0:0:0:
248,328,119298,1,8,0:0:0:0:
290,324,119376,1,8,0:0:0:0:
332,328,119454,1,8,0:0:0:0:
372,342,119532,1,8,0:0:0:0:
409,367,119611,1,8,0:0:0:0:
237,204,119923,6,0,L|242:117,1,63.7500024318696
285,20,120236,2,0,P|331:15|361:99,1,127.500004863739
304,178,120704,2,0,L|160:177,1,127.500004863739
58,177,121173,2,0,P|54:215|64:255,1,63.7500024318696
153,321,121486,2,0,L|297:320,1,127.500004863739
413,299,121954,1,0,0:0:0:0:
356,376,122111,2,0,L|355:225,1,127.500004863739
358,58,122736,6,0,P|308:49|236:100,1,127.500004863739
231,186,123204,1,0,0:0:0:0:
137,236,123361,2,0,P|73:221|40:156,1,127.500004863739
72,16,123986,2,0,P|136:31|169:96,1,127.500004863739
119,156,124454,1,0,0:0:0:0:
231,186,124611,2,0,P|297:196|386:194,1,127.500004863739
110,263,125861,6,0,L|112:365,2,95.6250036478044
97,153,126486,2,0,P|130:132|221:168,1,127.500004863739
380,265,127111,6,0,P|420:279|489:269,2,95.6250036478044
283,200,127736,2,0,L|127:206,1,127.500004863739
392,94,128361,6,0,L|491:98,2,95.6250036478044
275,32,128986,2,0,P|238:31|183:108,1,127.500004863739
216,260,129611,6,0,L|213:366,2,95.6250036478044
210,121,130236,1,0,0:0:0:0:
111,260,130392,1,8,0:0:0:0:
64,284,130470,1,8,0:0:0:0:
12,279,130548,2,0,P|3:201|28:136,1,106.25
88,73,130861,6,0,L|111:73,1,21.25,12|0,0:0|0:0,0:0:0:0:
314,85,131173,5,12,0:0:0:0:
282,325,131329,1,0,0:0:0:0:
92,165,131486,1,0,0:0:0:0:
348,209,131642,5,12,0:0:0:0:
210,32,131798,1,0,0:0:0:0:
229,261,131954,1,0,0:0:0:0:
371,35,132111,5,12,0:0:0:0:
402,349,132267,1,0,0:0:0:0:
268,172,132423,1,0,0:0:0:0:
498,147,132579,5,12,0:0:0:0:
223,69,132736,1,0,0:0:0:0:
242,372,132892,1,0,0:0:0:0:
420,187,133048,2,0,P|399:123|343:88,1,106.25,12|0,0:0|0:0,0:0:0:0:
128,238,133361,5,8,0:0:0:0:
370,98,133517,1,0,0:0:0:0:
396,359,133673,1,0,0:0:0:0:
195,96,133829,5,8,0:0:0:0:
448,213,133986,1,0,0:0:0:0:
250,382,134142,1,0,0:0:0:0:
319,62,134298,5,8,0:0:0:0:
396,359,134454,1,8,0:0:0:0:
270,118,134767,5,8,0:0:0:0:
186,335,134923,1,8,0:0:0:0:
459,135,135236,5,8,0:0:0:0:
170,239,135392,1,8,0:0:0:0:
161,290,135470,1,8,0:0:0:0:
186,335,135548,1,8,0:0:0:0:
235,354,135626,1,8,0:0:0:0:
285,338,135704,6,0,B|371:317|370:266|370:266|369:214|478:202,1,237.999992736817,12|0,0:0|0:0,0:0:0:0:
504,370,136173,2,0,L|368:369,1,118.999996368408,8|0,0:0|0:0,0:0:0:0:
186,335,136486,2,0,P|181:280|208:207,1,118.999996368408
300,17,136798,2,0,P|314:69|304:134,1,118.999996368408,8|0,0:0|0:0,0:0:0:0:
254,288,137111,1,0,0:0:0:0:
142,106,137267,2,0,L|5:117,1,118.999996368408,0|8,0:0|0:0,0:0:0:0:
305,209,137579,2,0,L|442:220,1,118.999996368408
263,384,137892,1,0,0:0:0:0:
191,228,138048,5,8,0:0:0:0:
220,186,138126,1,8,0:0:0:0:
229,136,138204,1,8,0:0:0:0:
225,87,138282,1,8,0:0:0:0:
241,39,138361,2,0,B|302:-4|369:45|369:45|417:89|476:76,1,237.999992736817,12|8,0:0|0:0,0:0:0:0:
302,104,138829,5,0,0:0:0:0:
142,87,138986,1,0,0:0:0:0:
189,289,139142,1,0,0:0:0:0:
30,215,139298,1,8,0:0:0:0:
218,103,139454,6,0,P|202:38|65:75,1,237.999992736817,4|0,0:0|0:0,0:0:0:0:
73,318,139923,2,0,P|146:347|281:325,1,178.499994552612,8|0,0:0|0:0,0:0:0:0:
291,321,140235,1,8,0:0:0:0:
332,291,140313,1,8,0:0:0:0:
365,252,140392,1,8,0:0:0:0:
389,208,140469,1,8,0:0:0:0:
403,158,140547,1,8,0:0:0:0:
405,108,140626,1,8,0:0:0:0:
395,58,140704,6,0,P|283:40|287:165,1,237.999992736817,12|0,0:0|0:0,0:0:0:0:
324,366,141173,2,0,L|181:369,1,118.999996368408,8|0,0:0|0:0,0:0:0:0:
389,207,141486,2,0,L|532:210,1,118.999996368408
242,337,141798,2,0,L|99:334,1,118.999996368408,8|0,0:0|0:0,0:0:0:0:
8,176,142111,1,0,0:0:0:0:
169,80,142267,2,0,L|312:84,1,118.999996368408,0|8,0:0|0:0,0:0:0:0:
497,94,142579,6,0,P|438:37|401:164,1,237.999992736817
511,317,143048,1,8,0:0:0:0:
462,351,143126,1,8,0:0:0:0:
404,361,143204,1,8,0:0:0:0:
347,345,143282,1,8,0:0:0:0:
303,306,143361,2,0,P|262:250|246:180,1,118.999996368408,8|0,0:0|0:0,0:0:0:0:
194,20,143673,5,12,0:0:0:0:
153,299,143829,1,0,0:0:0:0:
157,47,143986,1,0,0:0:0:0:
271,294,144142,5,12,0:0:0:0:
312,15,144298,1,0,0:0:0:0:
308,267,144454,1,0,0:0:0:0:
409,42,144611,5,12,0:0:0:0:
450,321,144767,1,0,0:0:0:0:
446,69,144923,1,0,0:0:0:0:
202,182,145079,5,12,0:0:0:0:
501,210,145236,1,0,0:0:0:0:
310,379,145392,1,0,0:0:0:0:
301,60,145548,1,8,0:0:0:0:
118,215,145704,2,0,P|164:261|230:277,1,118.999996368408,4|0,0:0|0:0,0:0:0:0:
395,271,146017,5,0,0:0:0:0:
194,90,146173,1,8,0:0:0:0:
142,366,146329,1,0,0:0:0:0:
294,181,146486,1,0,0:0:0:0:
46,176,146642,1,0,0:0:0:0:
225,339,146798,1,8,0:0:0:0:
172,40,146954,1,0,0:0:0:0:
14,314,147111,2,0,P|106:305|162:233,1,178.499994552612
193,173,147423,2,0,P|214:117|337:85,1,178.499994552612,8|0,0:0|0:0,0:0:0:0:
395,95,147736,2,0,L|522:115,1,118.999996368408
400,336,148048,1,8,0:0:0:0:
237,92,148204,6,0,P|182:62|146:201,1,237.999992736817,4|0,0:0|0:0,0:0:0:0:
426,83,148673,1,8,0:0:0:0:
291,341,148829,1,0,0:0:0:0:
176,134,148986,2,0,P|94:118|60:156,1,118.999996368408
106,349,149298,1,8,0:0:0:0:
371,183,149454,1,0,0:0:0:0:
368,382,149611,1,0,0:0:0:0:
252,117,149767,1,0,0:0:0:0:
122,259,149923,2,0,P|56:263|-19:247,1,118.999996368408,8|0,0:0|0:0,0:0:0:0:
176,74,150236,5,8,0:0:0:0:
222,38,150314,1,8,0:0:0:0:
280,38,150392,1,8,0:0:0:0:
326,74,150470,1,8,0:0:0:0:
340,131,150548,1,8,0:0:0:0:
338,189,150626,1,8,0:0:0:0:
372,237,150704,1,8,0:0:0:0:
428,255,150782,1,8,0:0:0:0:
483,236,150861,6,0,P|490:169|483:101,1,118.999996368408,12|0,0:0|0:0,0:0:0:0:
247,130,151173,1,0,0:0:0:0:
202,359,151329,2,0,L|54:340,1,118.999996368408,8|0,0:0|0:0,0:0:0:0:
22,134,151642,1,0,0:0:0:0:
264,54,151798,1,8,0:0:0:0:
312,85,151876,1,8,0:0:0:0:
325,142,151954,1,8,0:0:0:0:
295,192,152032,1,8,0:0:0:0:
239,207,152110,1,8,0:0:0:0:
38,300,153048,5,8,0:0:0:0:
96,281,153126,1,8,2:0:0:0:
159,277,153204,1,8,2:0:0:0:
215,292,153282,1,8,2:0:0:0:
269,301,153361,1,8,2:0:0:0:
292,302,153439,1,8,2:0:0:0:
308,298,153517,1,8,2:0:0:0:
327,292,153595,1,8,2:0:0:0:
340,288,153673,6,0,P|396:239|417:165,1,118.999996368408,12|0,0:0|0:0,0:0:0:0:
363,4,153986,1,0,0:0:0:0:
149,64,154142,6,0,L|147:202,1,118.999996368408,12|0,0:0|0:0,0:0:0:0:
281,366,154454,1,0,0:0:0:0:
230,152,154611,6,0,L|232:10,1,118.999996368408,12|0,0:0|0:0,0:0:0:0:
81,306,154923,1,0,0:0:0:0:
317,220,155079,2,0,L|319:78,1,118.999996368408,12|0,0:0|0:0,0:0:0:0:
106,141,155392,1,0,0:0:0:0:
260,272,155548,2,0,P|333:294|393:251,1,118.999996368408,12|0,0:0|0:0,0:0:0:0:
433,51,155861,5,8,0:0:0:0:
170,234,156017,1,0,0:0:0:0:
444,223,156173,1,8,0:0:0:0:
192,48,156329,5,8,0:0:0:0:
256,288,156486,1,8,0:0:0:0:
320,48,156642,5,8,0:0:0:0:
256,328,156798,1,8,0:0:0:0:
192,48,156954,5,8,0:0:0:0:
256,368,157111,2,8,L|256:272,1,79.3333309122722,8|0,0:0|0:0,0:0:0:0:
103,104,157319,2,0,L|186:152,1,79.3333309122722,8|0,0:0|0:0,0:0:0:0:
408,104,157527,2,0,L|325:151,1,79.3333309122722,8|0,0:0|0:0,0:0:0:0:
103,280,157736,6,0,L|186:232,1,79.3333309122722,8|0,0:0|0:0,0:0:0:0:
256,16,157944,2,0,L|256:111,1,79.3333309122722,8|0,0:0|0:0,0:0:0:0:
408,280,158152,2,0,L|325:232,1,79.3333309122722,8|0,0:0|0:0,0:0:0:0:
186,73,158361,6,0,P|123:89|203:207,1,267.749991828919,12|0,0:0|0:0,0:0:0:0:
343,157,159611,1,8,0:0:0:0:
384,158,159689,1,8,0:0:0:0:
418,183,159767,1,8,0:0:0:0:
433,222,159845,1,8,0:0:0:0:
424,263,159923,2,0,P|405:289|370:308,1,42.5,8|0,0:0|0:0,0:0:0:0:
295,328,160079,2,0,L|196:324,1,85,8|0,0:0|0:0,0:0:0:0:
71,282,160392,1,4,0:0:0:0:
16,285,160470,1,8,0:0:0:0:
0,339,160548,1,8,0:0:0:0:
46,370,160626,1,8,0:0:0:0:
91,338,160704,1,8,0:0:0:0:
111,284,160782,1,8,0:0:0:0:
164,262,160860,1,12,0:0:0:0:
220,127,170861,6,0,L|393:139,1,170
485,258,171798,1,0,0:0:0:0:
349,348,172111,2,0,L|257:342,3,85
103,331,173361,2,0,P|83:285|227:181,1,255
348,245,174611,2,0,L|483:241,1,127.5
303,33,175548,1,0,0:0:0:0:
213,175,175861,6,0,L|30:166,1,170
140,319,176798,1,0,0:0:0:0:
149,112,177111,1,0,0:0:0:0:
13,267,177423,1,0,0:0:0:0:
254,239,177736,1,0,0:0:0:0:
411,384,178048,1,0,0:0:0:0:
506,184,178361,2,0,P|481:128|406:100,1,127.5
186,65,179298,5,0,0:0:0:0:
101,195,179611,2,0,L|102:243,1,42.5
204,330,179923,2,0,L|203:282,1,42.5
200,173,180236,1,0,0:0:0:0:
300,157,180392,1,0,0:0:0:0:
327,257,180548,1,0,0:0:0:0:
455,295,180704,6,0,P|475:234|457:187,1,85,4|8,0:0|2:0,0:0:0:0:
456,45,181017,1,0,0:0:0:0:
379,152,181173,1,8,0:0:0:0:
503,125,181329,1,0,0:0:0:0:
353,49,181486,1,8,0:0:0:0:
403,240,181642,1,0,0:0:0:0:
258,224,181798,1,8,0:0:0:0:
282,371,181954,1,0,0:0:0:0:
137,304,182111,6,0,P|113:263|125:152,1,127.5,8|0,0:0|0:0,0:0:0:0:
136,157,182423,2,0,P|146:114|144:68,1,85,8|0,0:0|0:0,0:0:0:0:
21,156,182736,2,0,L|22:271,1,85,8|0,0:0|0:0,0:0:0:0:
137,304,183048,1,8,0:0:0:0:
208,164,183204,2,0,P|259:144|334:228,1,170,4|0,1:0|0:0,0:0:0:0:
242,362,183673,1,8,0:0:0:0:
261,224,183829,1,0,0:0:0:0:
107,226,183986,1,8,0:0:0:0:
213,287,184142,1,0,0:0:0:0:
287,110,184298,1,8,0:0:0:0:
453,188,184454,1,0,0:0:0:0:
347,332,184611,6,0,P|331:283|347:201,1,127.5,8|0,0:0|0:0,0:0:0:0:
364,171,184923,2,0,P|388:111|381:74,1,85,8|0,0:0|0:0,0:0:0:0:
209,63,185236,2,8,P|197:116|293:199,2,170,8|8|4,0:0|0:0|1:0,0:0:0:0:
349,17,186017,1,0,0:0:0:0:
451,100,186173,2,0,L|458:198,1,85,8|0,0:0|0:0,0:0:0:0:
324,330,186486,2,0,L|331:232,1,85,8|0,0:0|0:0,0:0:0:0:
484,77,186798,2,0,L|491:175,1,85,8|0,0:0|0:0,0:0:0:0:
288,360,187111,2,0,L|295:262,1,85,8|0,0:0|0:0,0:0:0:0:
340,91,187423,1,8,0:0:0:0:
390,208,187579,1,0,0:0:0:0:
249,170,187736,1,8,0:0:0:0:
216,313,187892,1,0,0:0:0:0:
107,218,188048,2,0,P|99:166|108:121,1,85,8|0,0:0|0:0,0:0:0:0:
267,15,188361,6,0,P|288:66|289:108,1,85,4|0,0:0|0:0,0:0:0:0:
142,67,188673,1,8,0:0:0:0:
194,228,188829,1,0,0:0:0:0:
232,244,188907,1,0,0:0:0:0:
275,248,188986,2,0,P|323:249|371:266,1,85,8|0,2:0|0:0,0:0:0:0:
252,369,189298,6,0,L|139:369,1,85,8|0,0:0|0:0,0:0:0:0:
5,332,189611,1,0,0:0:0:0:
50,198,189767,1,8,2:0:0:0:
52,154,189845,1,8,2:0:0:0:
47,113,189923,1,8,0:0:0:0:
194,228,190079,1,0,0:0:0:0:
280,102,190236,2,0,L|395:101,1,85
464,254,190548,1,8,0:0:0:0:
303,181,190704,1,0,0:0:0:0:
292,364,190861,2,0,P|261:309|261:261,1,85,4|0,0:0|0:0,0:0:0:0:
262,89,191173,5,8,0:0:0:0:
241,52,191251,1,8,0:0:0:0:
204,32,191329,1,8,0:0:0:0:
162,36,191407,1,8,0:0:0:0:
129,61,191485,1,8,0:0:0:0:
115,101,191563,1,8,0:0:0:0:
124,141,191641,1,8,0:0:0:0:
154,171,191719,1,8,0:0:0:0:
195,180,191798,1,8,0:0:0:0:
237,180,191876,1,8,0:0:0:0:
280,180,191954,1,8,0:0:0:0:
322,180,192032,1,8,0:0:0:0:
365,180,192110,1,8,0:0:0:0:
407,180,192188,1,8,0:0:0:0:
447,194,192267,1,8,0:0:0:0:
472,227,192345,1,8,0:0:0:0:
476,269,192423,6,0,L|480:326,1,42.5,8|0,0:0|0:0,0:0:0:0:
314,384,192579,2,0,L|318:327,1,42.5,8|0,0:0|0:0,0:0:0:0:
224,199,193204,6,0,B|162:204|104:165|108:76|108:76|206:120|234:125|377:177|390:74|361:37|317:-13|237:25|216:31|236:84|258:114|345:177|277:255,1,765,12|12,0:0|0:0,0:0:0:0:
66,329,195079,1,8,2:0:0:0:
268,354,195392,1,8,2:0:0:0:
188,234,195548,1,8,2:0:0:0:
186,242,195704,1,8,2:0:0:0:
83,109,195861,6,0,B|29:94|-6:135|-7:171|2:202|-15:245|80:262|128:223|152:184|152:184|170:153|190:123|216:117|216:117|260:156|313:158|380:130|369:44|310:-8|260:32|238:50,1,680,12|12,0:0|0:0,0:0:0:0:
228,213,197267,5,8,0:0:0:0:
246,250,197345,1,8,0:0:0:0:
279,277,197423,1,8,0:0:0:0:
319,290,197501,1,8,0:0:0:0:
361,285,197579,1,8,2:0:0:0:
398,264,197657,1,8,2:0:0:0:
423,230,197735,1,8,2:0:0:0:
381,234,197814,1,8,2:0:0:0:
344,255,197892,1,8,2:0:0:0:
319,289,197970,1,8,2:0:0:0:
294,323,198048,1,8,2:0:0:0:
257,344,198126,1,8,2:0:0:0:
215,348,198204,6,0,L|170:345,1,42.5
131,339,198673,6,0,P|98:306|137:180,1,165.749992412568,12|0,0:0|0:0,0:0:0:0:
186,195,198986,6,0,L|215:199,1,25.5
291,213,199298,6,0,P|348:181|310:66,1,165.749992412568,12|0,0:0|0:0,0:0:0:0:
263,115,199611,6,0,L|232:123,1,25.5
143,135,199923,6,0,P|111:107|146:3,1,165.749992412568,12|0,0:0|0:0,0:0:0:0:
214,20,200236,6,0,L|246:24,1,25.5
310,18,200548,6,0,B|368:25|400:8|400:8|433:38|487:52,1,165.749992412568,12|0,0:0|0:0,0:0:0:0:
425,107,200861,6,0,P|419:127|421:136,1,25.5
436,293,201173,5,12,0:0:0:0:
261,113,201329,1,0,0:0:0:0:
205,337,201486,1,0,0:0:0:0:
315,194,201642,5,12,0:0:0:0:
134,16,201798,1,0,0:0:0:0:
77,233,201955,1,0,0:0:0:0:
241,33,202111,5,12,0:0:0:0:
12,136,202267,1,0,0:0:0:0:
234,260,202423,1,0,0:0:0:0:
165,84,202579,5,12,0:0:0:0:
137,374,202736,1,0,0:0:0:0:
315,194,202892,1,0,0:0:0:0:
0,215,203048,1,8,0:0:0:0:
176,294,203204,2,8,P|230:309|243:311,1,55.2499974708558,8|8,0:0|2:0,2:0:0:0:
386,300,203361,1,8,2:0:0:0:
391,287,203439,1,8,2:0:0:0:
396,274,203517,1,8,2:0:0:0:
400,261,203595,1,8,2:0:0:0:
404,244,203673,6,0,P|409:198|381:117,1,127.500004863739,12|0,0:0|0:0,0:0:0:0:
255,16,203986,1,0,0:0:0:0:
215,210,204142,2,0,L|75:209,1,127.500004863739,0|8,0:0|0:0,0:0:0:0:
209,94,204454,1,0,0:0:0:0:
197,349,204611,1,0,0:0:0:0:
63,138,204767,1,0,0:0:0:0:
312,164,204923,2,0,P|386:171|459:167,1,127.500004863739,8|0,0:0|0:0,0:0:0:0:
206,17,205236,2,0,P|132:10|59:14,1,127.500004863739
21,265,205548,1,8,0:0:0:0:
198,193,205704,5,8,0:0:0:0:
259,209,205782,1,8,0:0:0:0:
313,242,205861,2,0,P|358:298|368:363,1,127.500004863739,4|0,0:0|0:0,0:0:0:0:
101,353,206173,1,8,0:0:0:0:
259,209,206329,1,0,0:0:0:0:
32,189,206486,2,0,P|27:108|35:50,1,127.500004863739
295,115,206798,5,8,0:0:0:0:
266,307,206954,1,0,0:0:0:0:
153,142,207111,2,0,L|157:7,1,127.500004863739
394,140,207423,5,12,0:0:0:0:
326,378,207579,1,0,0:0:0:0:
212,68,207736,5,8,0:0:0:0:
201,356,207892,1,0,0:0:0:0:
54,51,208048,5,8,0:0:0:0:
54,346,208204,1,0,0:0:0:0:
193,138,208361,5,4,0:0:0:0:
438,23,208517,1,0,0:0:0:0:
437,325,208673,1,0,0:0:0:0:
296,66,208829,1,8,0:0:0:0:
511,240,208986,1,0,0:0:0:0:
260,366,209142,1,0,0:0:0:0:
217,46,209298,1,8,0:0:0:0:
159,21,209376,1,8,0:0:0:0:
100,42,209454,1,8,0:0:0:0:
70,97,209532,1,8,0:0:0:0:
84,157,209610,1,8,0:0:0:0:
411,252,210548,5,8,0:0:0:0:
345,244,210626,1,8,2:0:0:0:
280,243,210704,1,8,2:0:0:0:
219,260,210782,1,8,2:0:0:0:
162,278,210861,1,8,2:0:0:0:
137,280,210939,1,8,2:0:0:0:
119,279,211017,1,8,2:0:0:0:
100,276,211095,1,8,2:0:0:0:
86,269,211173,2,0,P|61:181|73:112,1,127.500004863739,12|0,0:0|0:0,0:0:0:0:
269,32,211486,5,0,0:0:0:0:
454,202,211642,2,0,L|450:350,1,127.500004863739,12|0,0:0|0:0,0:0:0:0:
250,136,211954,1,0,0:0:0:0:
166,370,212111,2,0,P|91:368|20:341,1,127.500004863739,12|0,0:0|0:0,0:0:0:0:
281,213,212423,1,0,0:0:0:0:
61,49,212579,2,0,L|63:189,1,127.500004863739,12|0,0:0|0:0,0:0:0:0:
278,334,212892,1,0,0:0:0:0:
269,49,213048,2,0,P|347:48|417:82,1,127.500004863739,12|0,0:0|0:0,0:0:0:0:
409,378,213361,5,4,0:0:0:0:
325,121,213517,1,0,0:0:0:0:
143,350,213673,1,8,0:0:0:0:
468,186,213829,1,8,0:0:0:0:
141,140,213986,1,8,0:0:0:0:
330,383,214142,1,8,0:0:0:0:
334,18,214298,1,8,0:0:0:0:
16,174,214454,1,8,0:0:0:0:
335,57,214611,6,0,L|430:57,1,85.0000032424928,8|0,0:0|0:0,0:0:0:0:
174,192,214819,2,0,L|79:192,1,85.0000032424928,8|0,0:0|0:0,0:0:0:0:
335,327,215027,2,0,L|430:327,1,85.0000032424928,8|0,0:0|0:0,0:0:0:0:
92,57,215236,6,0,L|177:57,1,85.0000032424928,8|0,0:0|0:0,0:0:0:0:
423,192,215444,2,0,L|338:192,1,85.0000032424928,8|0,0:0|0:0,0:0:0:0:
92,327,215652,2,0,L|177:327,1,85.0000032424928,8|0,0:0|0:0,0:0:0:0:
356,122,215861,6,0,P|398:106|484:270,1,280.49999143982,12|0,0:0|0:0,0:0:0:0:
147,90,217111,5,8,0:0:0:0:
32,225,217267,1,8,2:0:0:0:
34,277,217345,1,8,2:0:0:0:
52,327,217423,1,8,2:0:0:0:
211,140,217579,2,0,P|230:88|100:28,1,212.5,8|4,0:0|0:0,0:0:0:0:
135,230,218048,1,8,0:0:0:0:
187,225,218126,1,8,0:0:0:0:
240,220,218204,1,8,0:0:0:0:
293,216,218282,1,8,0:0:0:0:
346,211,218361,6,0,P|420:230|447:277,1,106.25,12|0,0:0|0:0,0:0:0:0:
307,355,218673,2,0,L|183:356,1,106.25,8|0,0:0|0:0,0:0:0:0:
24,245,218986,1,0,0:0:0:0:
157,105,219142,2,0,P|212:96|284:112,1,106.25,0|8,0:0|0:0,0:0:0:0:
461,222,219454,2,0,P|482:153|464:88,1,106.25
293,26,219767,1,0,0:0:0:0:
197,224,219923,1,8,0:0:0:0:
395,159,220079,1,0,0:0:0:0:
127,187,220236,2,0,P|124:245|168:298,1,106.25,0|8,0:0|0:0,0:0:0:0:
395,301,220548,5,8,0:0:0:0:
395,247,220626,1,8,0:0:0:0:
395,194,220704,1,8,0:0:0:0:
395,141,220782,1,8,0:0:0:0:
395,88,220861,6,0,P|363:32|297:22,1,106.25,4|0,0:0|0:0,0:0:0:0:
88,83,221173,1,8,0:0:0:0:
314,95,221329,1,0,0:0:0:0:
162,15,221486,1,0,0:0:0:0:
251,227,221642,2,0,L|237:355,1,106.25,0|8,0:0|0:0,0:0:0:0:
28,153,221954,6,0,P|4:97|97:-5,1,212.5,4|0,0:0|0:0,0:0:0:0:
249,80,222423,2,0,L|389:74,1,106.25,8|0,0:0|0:0,0:0:0:0:
512,201,222736,1,8,0:0:0:0:
458,203,222814,1,8,0:0:0:0:
405,205,222892,1,8,0:0:0:0:
352,207,222970,1,8,0:0:0:0:
299,210,223048,1,8,0:0:0:0:
264,245,223126,1,8,0:0:0:0:
210,242,223204,1,8,0:0:0:0:
157,240,223282,1,8,0:0:0:0:
104,237,223361,6,0,P|62:201|83:114,1,106.25,12|0,0:0|0:0,0:0:0:0:
162,50,223673,2,0,L|295:57,1,106.25,8|0,0:0|0:0,0:0:0:0:
419,54,223986,1,0,0:0:0:0:
234,187,224142,2,0,L|240:314,1,106.25,0|8,0:0|0:0,0:0:0:0:
428,259,224454,6,0,P|464:194|332:162,1,212.5,4|0,0:0|0:0,0:0:0:0:
155,261,224923,1,8,0:0:0:0:
200,42,225079,1,0,0:0:0:0:
298,250,225236,2,0,L|291:362,1,106.25
93,154,225548,2,0,L|100:42,1,106.25,8|0,0:0|0:0,0:0:0:0:
313,112,225861,5,0,0:0:0:0:
155,261,226017,1,0,0:0:0:0:
398,298,226173,2,0,L|394:170,1,106.25,12|0,0:0|0:0,0:0:0:0:
391,15,226486,1,0,0:0:0:0:
208,145,226642,2,0,P|121:153|54:109,1,159.375,12|0,0:0|0:0,0:0:0:0:
42,69,226954,1,8,0:0:0:0:
284,102,227111,2,0,L|281:218,1,106.25,12|0,0:0|0:0,0:0:0:0:
96,346,227423,2,0,L|99:230,1,106.25,12|0,0:0|0:0,0:0:0:0:
115,57,227736,5,8,2:0:0:0:
160,30,227814,1,8,2:0:0:0:
212,30,227892,1,8,0:0:0:0:
258,56,227970,1,8,0:0:0:0:
284,102,228048,1,8,0:0:0:0:
309,147,228126,1,8,0:0:0:0:
355,173,228204,1,8,0:0:0:0:
407,173,228282,1,8,0:0:0:0:
453,147,228361,6,0,P|378:124|324:150,1,106.25,12|0,0:0|0:0,0:0:0:0:
186,256,228673,1,8,0:0:0:0:
393,305,228829,1,0,0:0:0:0:
228,157,228986,1,0,0:0:0:0:
111,355,229142,2,0,L|107:228,1,106.25,0|8,0:0|0:0,0:0:0:0:
103,60,229454,6,0,P|150:28|231:50,1,106.25
351,88,229767,1,0,0:0:0:0:
490,30,229923,1,8,0:0:0:0:
298,23,230079,1,0,0:0:0:0:
300,231,230236,2,0,L|305:366,1,106.25
241,164,230548,2,0,L|106:159,1,106.25,8|0,0:0|0:0,0:0:0:0:
82,151,230782,1,8,0:0:0:0:
35,126,230860,1,8,0:0:0:0:
204,14,231017,5,0,0:0:0:0:
201,260,231173,1,8,0:0:0:0:
88,82,231329,1,0,0:0:0:0:
326,94,231486,1,0,0:0:0:0:
329,345,231642,2,0,L|332:222,1,106.25,0|8,0:0|0:0,0:0:0:0:
348,19,231954,6,0,P|277:26|322:172,1,255.000009727478,4|0,0:0|0:0,0:0:0:0:
444,113,232423,2,0,P|380:95|300:93,1,127.500004863739,8|0,0:0|0:0,0:0:0:0:
134,141,232736,5,8,1:0:0:0:
76,124,232814,1,8,2:0:0:0:
71,65,232892,1,8,2:0:0:0:
125,40,232970,1,8,2:0:0:0:
168,82,233048,1,8,1:0:0:0:
177,144,233126,1,8,2:0:0:0:
147,199,233204,1,8,2:0:0:0:
126,259,233282,1,8,2:0:0:0:
142,319,233360,5,12,0:0:0:0:
292,34,233517,1,0,0:0:0:0:
305,349,233673,5,12,0:0:0:0:
118,92,233829,1,0,0:0:0:0:
422,78,233986,5,12,0:0:0:0:
69,201,234142,1,0,0:0:0:0:
224,0,234298,5,12,0:0:0:0:
251,365,234454,1,0,0:0:0:0:
333,127,234611,5,12,0:0:0:0:
279,93,234689,1,8,2:0:0:0:
216,91,234767,1,0,0:0:0:0:
151,355,234923,1,0,0:0:0:0:
343,220,235079,1,12,0:0:0:0:
393,182,235157,1,8,2:0:0:0:
417,123,235235,1,0,0:0:0:0:
176,274,235392,5,8,2:0:0:0:
145,55,235548,2,0,P|191:17|272:34,1,127.500004863739,12|0,0:0|0:0,0:0:0:0:
307,294,235861,5,12,0:0:0:0:
389,37,236017,1,0,0:0:0:0:
463,302,236173,1,0,0:0:0:0:
238,144,236329,5,12,0:0:0:0:
493,105,236486,1,0,0:0:0:0:
366,361,236642,1,0,0:0:0:0:
261,69,236798,5,12,0:0:0:0:
508,222,236954,1,0,0:0:0:0:
245,302,237111,1,0,0:0:0:0:
382,31,237267,5,12,0:0:0:0:
450,361,237423,1,0,0:0:0:0:
173,166,237579,1,8,0:0:0:0:
115,144,237657,1,8,0:0:0:0:
62,176,237735,1,12,0:0:0:0:
53,237,237813,1,8,0:0:0:0:
95,282,237891,1,8,0:0:0:0:
157,277,237969,1,8,0:0:0:0:
192,226,238047,1,8,2:0:0:0:
226,175,238126,1,8,2:0:0:0:
283,146,238204,1,8,2:0:0:0:
348,139,238282,1,8,2:0:0:0:
409,163,238361,1,12,0:0:0:0:
256,192,238439,12,0,243673,0:0:0:0:
