osu file format v14

[General]
AudioFilename: audio.mp3
AudioLeadIn: 0
PreviewTime: 63763
Countdown: 0
SampleSet: Normal
StackLeniency: 0.7
Mode: 1
LetterboxInBreaks: 0
WidescreenStoryboard: 1

[Editor]
DistanceSpacing: 1
BeatDivisor: 2
GridSize: 32
TimelineZoom: 0.5999999

[Metadata]
Title:BRAVE JEWEL (TV Size)
TitleUnicode:BRAVE JEWEL (TV Size)
Artist:Roselia
ArtistUnicode:Roselia
Creator:Ixcors
Version:KANTAN
Source:Bang Dream! 2nd Season
Tags:バンドリ! ガールズバンドパーティ! Girls Band Party bandori garupa ガルパ ロゼリア opening minato yukina 湊友希那 aiba aina 相羽あいな hikawa sayo 氷川紗夜 kudou haruka 工藤晴香 imai lisa 今井リサ nakashima yuki 中島由貴 udagawa ako 宇田川あこ sakuragawa megu 櫻川めぐ shirokane rinko 白金燐子 akesaka satomi 明坂聡美 shizaki kanon 志崎樺音 anime video game japanese
BeatmapID:1968500
BeatmapSetID:942356

[Difficulty]
HPDrainRate:8
CircleSize:5
OverallDifficulty:3
ApproachRate:10
SliderMultiplier:1.4
SliderTickRate:1

[Events]
//Background and Video events
0,0,"braveyukina.png",0,100
Video,0,"roselia op.avi"
//Break Periods
//Storyboard Layer 0 (Background)
//Storyboard Layer 1 (Fail)
//Storyboard Layer 2 (Pass)
//Storyboard Layer 3 (Foreground)
//Storyboard Layer 4 (Overlay)
//Storyboard Sound Samples

[TimingPoints]
717,312.5,4,1,0,35,1,0
717,-100,4,1,0,35,0,0
5092,-100,4,1,0,55,0,0
5717,-100,4,1,0,60,0,0
10717,-100,4,1,0,55,0,0
13529,-100,4,1,0,65,0,0
15717,-100,4,1,0,55,0,0
16967,-100,4,1,0,60,0,0
17904,-100,4,1,0,55,0,0
18217,-100,4,1,0,70,0,0
27592,-100,4,1,0,65,0,0
28217,-100,4,1,0,55,0,0
37592,-100,4,1,0,60,0,0
38217,-100,4,1,0,65,0,0
48060,-100,4,1,0,57,0,0
48217,-100,4,1,0,50,0,0
57904,-100,4,1,0,55,0,0
58217,-100,4,1,0,60,0,0
59154,-100,4,1,0,65,0,0
59779,-100,4,1,0,70,0,0
63842,-100,4,1,0,50,0,0
64310,-100,4,1,0,75,0,1
78842,-100,4,1,0,70,0,1
79467,-100,4,1,0,65,0,0
81654,-100,4,1,0,65,0,0
82279,-100,4,1,0,70,0,1
84310,-100,4,1,0,65,0,1
84467,-100,4,1,0,60,0,0
85717,-100,4,1,0,65,0,0
87904,-100,4,1,0,50,0,0
88217,-100,4,1,0,65,0,0
88998,-100,4,1,0,70,0,0

[HitObjects]
224,192,873,5,0,0:0:0:0:
224,192,1342,1,8,0:0:0:0:
224,192,1810,1,0,0:0:0:0:
224,192,2904,1,8,0:0:0:0:
224,192,3373,1,0,0:0:0:0:
224,192,3842,1,8,0:0:0:0:
224,192,4310,1,8,0:0:0:0:
224,192,5092,1,0,0:0:0:0:
288,192,5717,1,4,0:0:0:0:
288,192,6967,1,4,0:0:0:0:
224,192,7435,1,8,0:0:0:0:
288,192,8217,1,12,0:0:0:0:
288,192,9467,1,4,0:0:0:0:
224,192,10092,1,0,0:0:0:0:
288,192,10717,1,4,0:0:0:0:
224,192,11342,1,0,0:0:0:0:
224,192,11967,1,8,0:0:0:0:
224,192,12592,1,0,0:0:0:0:
288,192,13529,1,12,0:0:0:0:
288,192,13998,1,12,0:0:0:0:
288,192,14467,1,12,0:0:0:0:
288,192,14935,1,12,0:0:0:0:
224,192,15717,1,0,0:0:0:0:
224,192,16342,1,8,0:0:0:0:
288,192,16967,1,4,0:0:0:0:
288,192,18217,1,4,0:0:0:0:
224,192,18529,1,8,0:0:0:0:
224,192,19310,1,8,0:0:0:0:
224,192,19779,1,8,0:0:0:0:
224,192,20404,1,0,0:0:0:0:
224,192,21029,1,8,0:0:0:0:
224,192,21810,1,0,0:0:0:0:
224,192,22279,1,8,0:0:0:0:
224,192,22904,1,8,0:0:0:0:
224,192,23529,1,0,0:0:0:0:
224,192,24310,1,0,0:0:0:0:
224,192,24779,1,8,0:0:0:0:
224,192,25404,1,8,0:0:0:0:
224,192,26029,1,0,0:0:0:0:
224,192,26810,1,8,0:0:0:0:
224,192,27279,1,8,0:0:0:0:
224,192,27904,1,8,0:0:0:0:
288,192,28217,1,4,0:0:0:0:
224,192,28842,1,0,0:0:0:0:
224,192,29467,1,0,0:0:0:0:
224,192,30092,1,0,0:0:0:0:
224,192,30717,1,0,0:0:0:0:
224,192,31342,1,0,0:0:0:0:
224,192,31967,1,0,0:0:0:0:
224,192,32592,1,0,0:0:0:0:
224,192,33529,1,8,0:0:0:0:
224,192,34310,1,8,0:0:0:0:
224,192,34779,1,0,0:0:0:0:
224,192,35404,1,8,0:0:0:0:
224,192,36029,1,0,0:0:0:0:
224,192,36810,1,8,0:0:0:0:
224,192,37279,1,8,0:0:0:0:
224,192,37904,1,8,0:0:0:0:
288,192,38217,1,4,0:0:0:0:
224,192,38842,1,8,0:0:0:0:
224,192,39310,1,8,0:0:0:0:
224,192,39779,1,0,0:0:0:0:
224,192,40404,1,8,0:0:0:0:
224,192,41029,1,0,0:0:0:0:
224,192,41342,1,8,0:0:0:0:
224,192,41810,1,0,0:0:0:0:
224,192,42279,1,0,0:0:0:0:
224,192,43217,1,8,0:0:0:0:
224,192,43685,1,8,0:0:0:0:
224,192,44310,1,0,0:0:0:0:
224,192,44779,1,8,0:0:0:0:
224,192,45717,1,8,0:0:0:0:
224,192,46185,1,0,0:0:0:0:
224,192,46810,1,8,0:0:0:0:
224,192,47279,1,8,0:0:0:0:
288,192,48217,1,4,0:0:0:0:
224,192,48842,1,8,0:0:0:0:
224,192,49310,1,8,0:0:0:0:
224,192,50092,1,8,0:0:0:0:
288,192,50717,1,4,0:0:0:0:
224,192,51342,1,8,0:0:0:0:
224,192,51810,1,8,0:0:0:0:
224,192,52592,1,8,0:0:0:0:
288,192,53217,1,4,0:0:0:0:
224,192,53842,1,8,0:0:0:0:
224,192,54310,1,0,0:0:0:0:
224,192,55092,1,8,0:0:0:0:
288,192,55717,1,4,0:0:0:0:
224,192,56342,1,8,0:0:0:0:
224,192,56810,1,8,0:0:0:0:
224,192,57592,1,8,0:0:0:0:
224,192,58217,1,0,0:0:0:0:
224,192,59154,1,8,0:0:0:0:
224,192,59467,1,0,0:0:0:0:
288,192,59779,1,12,0:0:0:0:
288,192,60248,1,12,0:0:0:0:
288,192,60717,1,4,0:0:0:0:
288,192,61185,1,12,0:0:0:0:
288,192,61967,1,12,0:0:0:0:
288,192,62435,1,12,0:0:0:0:
288,192,62904,1,4,0:0:0:0:
288,192,63373,1,12,0:0:0:0:
288,192,63529,1,12,0:0:0:0:
288,192,64310,1,12,0:0:0:0:
224,192,64779,1,8,0:0:0:0:
224,192,65092,1,0,0:0:0:0:
224,192,65717,1,0,0:0:0:0:
224,192,66185,1,0,0:0:0:0:
224,192,66654,1,8,0:0:0:0:
224,192,66967,1,8,0:0:0:0:
224,192,67435,1,0,0:0:0:0:
224,192,67748,1,8,0:0:0:0:
224,192,68060,1,8,0:0:0:0:
288,192,69310,1,12,0:0:0:0:
224,192,69779,1,8,0:0:0:0:
224,192,70092,1,0,0:0:0:0:
224,192,70717,1,0,0:0:0:0:
224,192,71185,1,8,0:0:0:0:
288,192,72279,1,12,0:0:0:0:
288,192,72748,1,12,0:0:0:0:
288,192,73217,1,12,0:0:0:0:
288,192,73685,1,12,0:0:0:0:
224,192,74310,1,12,0:0:0:0:
224,192,75092,1,8,0:0:0:0:
224,192,75717,1,8,0:0:0:0:
224,192,76029,1,0,0:0:0:0:
224,192,76342,1,8,0:0:0:0:
288,192,76810,1,4,0:0:0:0:
224,192,77592,1,0,0:0:0:0:
224,192,78217,1,8,0:0:0:0:
224,192,78529,1,0,0:0:0:0:
224,192,78842,1,8,0:0:0:0:
288,192,79467,1,12,0:0:0:0:
224,192,79935,1,8,0:0:0:0:
224,192,80717,1,8,0:0:0:0:
224,192,81654,1,8,0:0:0:0:
224,192,81967,1,0,0:0:0:0:
288,192,82279,1,12,0:0:0:0:
288,192,82748,1,12,0:0:0:0:
288,192,83217,1,4,0:0:0:0:
288,192,83685,1,12,0:0:0:0:
288,192,84154,1,4,0:0:0:0:
224,192,84467,1,8,0:0:0:0:
224,192,85404,1,0,0:0:0:0:
288,192,85717,1,12,0:0:0:0:
288,192,86342,1,12,0:0:0:0:
288,192,86967,1,4,0:0:0:0:
288,192,88217,1,12,0:0:0:0:
288,192,88685,1,4,0:0:0:0:
288,192,88998,1,12,0:0:0:0:
