osu file format v14

[General]
AudioFilename: audio.mp3
AudioLeadIn: 0
PreviewTime: 79197
Countdown: 0
SampleSet: Soft
StackLeniency: 0.7
Mode: 3
LetterboxInBreaks: 0
SpecialStyle: 0
WidescreenStoryboard: 0

[Editor]
Bookmarks: 11768,29930,34633,54579,66254,84417,99984
DistanceSpacing: 1.1
BeatDivisor: 2
GridSize: 4
TimelineZoom: 0.2999999

[Metadata]
Title:BLACK SHOUT
TitleUnicode:BLACK SHOUT
Artist:Roselia
ArtistUnicode:Roselia
Creator:dudehacker
Version:Easy lv6
Source:バンドリ!ガールズバンドパーティ!
Tags:BanG Dream! Girls Band Party FruityEnLoops bandori garupa game size minato yukina 湊友希那 aiba aina 相羽あいな hikawa sayo 氷川紗夜 kudou haruka 工藤晴香 imai lisa 今井リサ endou yurika 遠藤ゆりか udagawa ako 宇田川あこ sakuragawa megu 櫻川めぐ shirokane rinko 白金燐子 akesaka satomi 明坂聡美
BeatmapID:1382467
BeatmapSetID:651722

[Difficulty]
HPDrainRate:6
CircleSize:7
OverallDifficulty:6
ApproachRate:5
SliderMultiplier:1.4
SliderTickRate:1

[Events]
//Background and Video events
0,0,"bg.jpg",0,0
Video,0,"video.avi"
//Break Periods
//Storyboard Layer 0 (Background)
//Storyboard Layer 1 (Fail)
//Storyboard Layer 2 (Pass)
//Storyboard Layer 3 (Foreground)
//Storyboard Sound Samples
Sample,29900,0,"LR_Drum Finish.wav",70
Sample,37684,0,"LR_Drum Finish.wav",70
Sample,38981,0,"LR_Drum Finish.wav",70
Sample,40603,0,"LR_Ride Med.wav",70
Sample,41251,0,"LR_Ride Med.wav",70
Sample,41900,0,"LR_Ride Med.wav",70
Sample,42549,0,"LR_Ride Med.wav",70
Sample,42873,0,"LR_Ride Med.wav",70
Sample,43197,0,"LR_Ride Med.wav",70
Sample,43846,0,"LR_Ride Med.wav",70
Sample,44495,0,"LR_Ride Med.wav",70
Sample,45468,0,"LR_Drum Finish.wav",70
Sample,48062,0,"LR_Hat Fast.wav",70
Sample,50657,0,"LR_Hat Fast.wav",70
Sample,53251,0,"LR_Drum Finish.wav",70
Sample,55846,0,"LR_Drum Finish.wav",70
Sample,61035,0,"LR_Drum Finish.wav",70
Sample,63630,0,"LR_Drum Finish.wav",70
Sample,64278,0,"LR_Drum Finish.wav",70
Sample,64927,0,"LR_Drum Finish.wav",70
Sample,66224,0,"LR_Drum Finish.wav",70
Sample,74008,0,"LR_Drum Finish.wav",70
Sample,76278,0,"LR_Drum Finish.wav",70
Sample,76603,0,"LR_Drum Finish.wav",70
Sample,79197,0,"LR_Drum Finish.wav",70
Sample,80332,0,"LR_Drum Finish.wav",70
Sample,81792,0,"LR_Drum Finish.wav",70
Sample,82927,0,"LR_Drum Finish.wav",70
Sample,84387,0,"LR_Drum Finish.wav",70
Sample,85522,0,"LR_Drum Finish.wav",70
Sample,86981,0,"LR_Drum Finish.wav",70
Sample,88116,0,"LR_Drum Finish.wav",70
Sample,89576,0,"LR_Drum Finish.wav",70
Sample,90711,0,"LR_Drum Finish.wav",70
Sample,93305,0,"LR_Drum Finish.wav",70
Sample,94765,0,"LR_Drum Finish.wav",70
Sample,95414,0,"LR_Drum Finish.wav",70
Sample,97359,0,"LR_Drum Finish.wav",70
Sample,99954,0,"LR_Drum Finish.wav",70
Sample,103684,0,"LR_Drum Finish.wav",70

[TimingPoints]
1360,324.324324324324,4,2,2,100,1,0
29900,-100,4,2,1,100,0,0
79197,-100,4,2,1,100,0,1
99954,-100,4,2,1,100,0,0

[HitObjects]
36,192,1360,128,0,2657:0:0:0:30:LR_Sleigh Bell.wav
329,192,2657,128,0,3954:0:0:0:30:LR_Sleigh Bell.wav
109,192,3954,128,0,5251:0:0:0:30:LR_Sleigh Bell.wav
402,192,5251,128,0,6549:0:0:0:30:LR_Sleigh Bell.wav
256,192,6549,128,0,9143:0:0:0:30:LR_Sleigh Bell.wav
329,192,9143,128,0,10441:0:0:0:30:LR_Sleigh Bell.wav
475,192,10441,128,0,11738:0:0:0:30:LR_Sleigh Bell.wav
36,192,11738,1,0,0:0:0:30:LR_Sleigh Bell.wav
109,192,12062,1,0,0:0:0:0:
182,192,12387,1,0,0:0:0:0:
329,192,12711,1,0,0:0:0:0:
402,192,12873,1,0,0:0:0:0:
475,192,13197,128,0,13846:0:0:0:0:
402,192,14332,1,0,0:0:0:30:LR_Sleigh Bell.wav
256,192,14657,1,0,0:0:0:0:
109,192,14981,1,0,0:0:0:0:
475,192,15305,1,0,0:0:0:0:
402,192,15468,1,0,0:0:0:0:
36,192,15792,128,0,16441:0:0:0:0:
109,192,16927,1,0,0:0:0:30:LR_Sleigh Bell.wav
256,192,17251,1,0,0:0:0:0:
402,192,17576,1,0,0:0:0:0:
36,192,17900,1,0,0:0:0:0:
109,192,18062,1,0,0:0:0:0:
475,192,18387,128,0,19035:0:0:0:0:
329,192,19522,128,0,20170:0:0:0:30:LR_Sleigh Bell.wav
182,192,20170,128,0,20819:0:0:0:30:LR_Sleigh Bell.wav
475,192,20819,128,0,21468:0:0:0:30:LR_Sleigh Bell.wav
36,192,21468,128,0,22116:0:0:0:30:LR_Sleigh Bell.wav
402,192,22116,1,0,0:0:0:30:LR_Sleigh Bell.wav
256,192,22441,1,0,0:0:0:0:
109,192,22765,1,0,0:0:0:0:
475,192,23089,1,0,0:0:0:0:
402,192,23251,1,0,0:0:0:0:
36,192,23576,128,0,24224:0:0:0:0:
109,192,24711,1,0,0:0:0:30:LR_Sleigh Bell.wav
256,192,25035,1,0,0:0:0:0:
402,192,25359,1,0,0:0:0:0:
36,192,25684,1,0,0:0:0:0:
109,192,25846,1,0,0:0:0:0:
475,192,26170,128,0,26819:0:0:0:0:
329,192,27305,128,0,28603:0:0:0:30:LR_Sleigh Bell.wav
475,192,28603,128,0,29900:0:0:0:30:LR_Sleigh Bell.wav
36,192,29900,128,2,30549:0:0:0:0:
109,192,30549,128,12,31197:0:0:0:0:
402,192,31197,128,6,31522:0:0:0:0:
256,192,31846,128,12,32495:0:0:0:0:
36,192,32495,1,2,0:0:0:0:
475,192,32495,1,0,0:0:0:70:LR_Drum Finish.wav
182,192,34765,1,8,0:0:0:0:
475,192,34765,1,0,0:0:0:70:LR_Drum Finish.wav
36,192,35089,1,2,0:0:0:0:
329,192,35089,1,0,0:0:0:70:LR_Drum Finish.wav
256,192,35414,128,4,35576:0:0:0:0:
256,192,36062,128,4,36224:0:0:0:0:
256,192,36711,128,4,36873:0:0:0:0:
256,192,37359,128,4,37522:0:0:0:0:
36,192,37684,1,2,0:0:0:0:
256,192,38008,128,4,38170:0:0:0:0:
256,192,38657,128,4,38819:0:0:0:0:
329,192,38981,1,2,0:0:0:0:
329,192,39143,128,8,39954:0:0:0:0:
182,192,39954,1,12,0:0:0:0:
36,192,40278,128,2,40441:0:0:0:0:
475,192,40278,1,0,0:0:0:70:LR_Drum Finish.wav
256,192,40603,1,8,0:0:0:0:
402,192,41251,1,8,0:0:0:0:
182,192,41900,1,8,0:0:0:0:
329,192,42549,1,8,0:0:0:0:
475,192,42873,128,2,43035:0:0:0:0:
109,192,43197,1,8,0:0:0:0:
402,192,43846,1,8,0:0:0:0:
109,192,44495,1,8,0:0:0:0:
402,192,44981,1,8,0:0:0:0:
36,192,45468,128,2,45630:0:0:0:0:
182,192,45792,1,12,0:0:0:0:
256,192,46441,1,12,0:0:0:0:
402,192,47089,1,12,0:0:0:0:
109,192,47738,1,12,0:0:0:0:
475,192,48062,128,2,48224:0:0:0:0:
256,192,48387,1,12,0:0:0:0:
402,192,49035,1,12,0:0:0:0:
182,192,49684,1,12,0:0:0:0:
329,192,50332,1,12,0:0:0:0:
36,192,50657,128,2,50819:0:0:0:0:
475,192,50981,1,12,0:0:0:0:
256,192,51630,1,12,0:0:0:0:
109,192,52278,1,12,0:0:0:0:
402,192,52927,1,12,0:0:0:0:
256,192,53251,1,2,0:0:0:0:
109,192,54549,1,0,0:0:0:70:LR_Tom Hit 2.wav
182,192,54873,1,4,0:0:0:0:
329,192,55359,128,8,55846:0:0:0:0:
475,192,55846,1,2,0:0:0:0:
36,192,56170,1,8,0:0:0:0:
475,192,56495,1,2,0:0:0:0:
36,192,56819,1,8,0:0:0:0:
109,192,57143,1,2,0:0:0:0:
402,192,57468,1,8,0:0:0:0:
109,192,57792,1,2,0:0:0:0:
402,192,58116,1,8,0:0:0:0:
329,192,58441,1,2,0:0:0:0:
182,192,58765,1,8,0:0:0:0:
329,192,59089,1,2,0:0:0:0:
182,192,59414,1,8,0:0:0:0:
109,192,59738,1,2,0:0:0:0:
402,192,60062,1,8,0:0:0:0:
109,192,60387,1,2,0:0:0:0:
402,192,60711,1,2,0:0:0:0:
329,192,61035,1,2,0:0:0:0:
182,192,61359,1,8,0:0:0:0:
329,192,61684,1,2,0:0:0:0:
182,192,62008,1,8,0:0:0:0:
109,192,62332,1,2,0:0:0:0:
402,192,62657,1,8,0:0:0:0:
109,192,62981,1,2,0:0:0:0:
402,192,63305,1,8,0:0:0:0:
36,192,63630,128,8,64278:0:0:0:0:
182,192,64278,128,8,64927:0:0:0:0:
329,192,64927,128,2,65576:0:0:0:0:
475,192,65576,128,8,66224:0:0:0:0:
182,192,66224,1,2,0:0:0:0:
36,192,66549,1,4,0:0:0:0:
402,192,66873,1,12,0:0:0:0:
182,192,67197,1,6,0:0:0:0:
182,192,67359,1,2,0:0:0:0:
402,192,67684,1,8,0:0:0:0:
182,192,68008,1,2,0:0:0:0:
109,192,68170,1,12,0:0:0:0:
256,192,68495,1,4,0:0:0:0:
475,192,68819,1,6,0:0:0:0:
329,192,69143,1,4,0:0:0:0:
36,192,69468,1,12,0:0:0:0:
182,192,69792,1,6,0:0:0:0:
182,192,69954,1,2,0:0:0:0:
109,192,70278,1,8,0:0:0:0:
329,192,70603,1,2,0:0:0:0:
402,192,70765,1,12,0:0:0:0:
256,192,71089,1,4,0:0:0:0:
36,192,71414,1,6,0:0:0:0:
182,192,71738,1,4,0:0:0:0:
475,192,72062,1,12,0:0:0:0:
329,192,72387,1,6,0:0:0:0:
329,192,72549,1,2,0:0:0:0:
402,192,72873,1,8,0:0:0:0:
182,192,73197,1,2,0:0:0:0:
109,192,73359,1,12,0:0:0:0:
256,192,73684,1,4,0:0:0:0:
329,192,74008,1,2,0:0:0:0:
182,192,74332,1,4,0:0:0:0:
109,192,74657,1,12,0:0:0:0:
109,192,74981,1,12,0:0:0:0:
329,192,75143,1,8,0:0:0:0:
256,192,75468,1,8,0:0:0:0:
182,192,75792,1,2,0:0:0:0:
256,192,75954,128,8,76116:0:0:0:0:
402,192,76278,1,8,0:0:0:0:
329,192,76603,128,2,79197:0:0:0:0:
36,192,79197,1,2,0:0:0:0:
182,192,79522,1,8,0:0:0:0:
329,192,79846,1,2,0:0:0:0:
475,192,80170,1,2,0:0:0:0:
402,192,80332,1,8,0:0:0:0:
329,192,80657,128,4,81305:0:0:0:0:
36,192,80981,1,4,0:0:0:0:
109,192,81305,1,4,0:0:0:0:
182,192,81792,1,2,0:0:0:0:
329,192,82116,1,8,0:0:0:0:
402,192,82278,1,4,0:0:0:0:
475,192,82441,1,2,0:0:0:0:
36,192,82765,1,2,0:0:0:0:
256,192,82927,1,8,0:0:0:0:
182,192,83251,128,4,83900:0:0:0:0:
402,192,83576,1,4,0:0:0:0:
475,192,83900,1,4,0:0:0:0:
109,192,84387,1,2,0:0:0:0:
256,192,84711,1,8,0:0:0:0:
402,192,85035,1,2,0:0:0:0:
402,192,85359,1,2,0:0:0:0:
182,192,85522,1,8,0:0:0:0:
36,192,85846,128,4,86495:0:0:0:0:
182,192,86170,1,4,0:0:0:0:
329,192,86495,1,4,0:0:0:0:
475,192,86981,128,2,87630:0:0:0:0:
329,192,87630,128,2,88116:0:0:0:0:
182,192,88116,128,8,88603:0:0:0:0:
329,192,88603,1,8,0:0:0:0:
402,192,88765,1,4,0:0:0:0:
475,192,88927,1,2,0:0:0:0:
36,192,89089,128,8,89576:0:0:0:0:
475,192,89576,1,2,0:0:0:0:
329,192,89900,1,8,0:0:0:0:
182,192,90224,1,2,0:0:0:0:
36,192,90549,1,8,0:0:0:0:
329,192,90711,1,2,0:0:0:0:
36,192,91035,128,6,91684:0:0:0:0:
256,192,91359,1,4,0:0:0:0:
402,192,91684,1,6,0:0:0:0:
36,192,92170,1,2,0:0:0:0:
475,192,92170,1,0,0:0:0:70:LR_Drum Finish.wav
109,192,92495,1,12,0:0:0:0:
182,192,92657,1,0,0:0:0:0:
256,192,92819,128,6,93143:0:0:0:0:
402,192,93143,1,8,0:0:0:0:
329,192,93305,128,2,93630:0:0:0:0:
182,192,93630,128,2,94278:0:0:0:0:
475,192,93954,1,8,0:0:0:0:
329,192,94278,1,0,0:0:0:70:LR_Tom Hit.wav
36,192,94765,1,2,0:0:0:0:
256,192,95251,1,2,0:0:0:0:
109,192,95414,1,8,0:0:0:0:
402,192,95738,1,6,0:0:0:0:
402,192,95900,1,2,0:0:0:0:
475,192,96224,1,8,0:0:0:0:
182,192,96549,1,2,0:0:0:0:
329,192,96711,1,12,0:0:0:0:
182,192,96873,1,2,0:0:0:0:
36,192,97359,128,2,98008:0:0:0:0:
182,192,98008,128,12,98657:0:0:0:0:
329,192,98657,128,6,98981:0:0:0:0:
36,192,98981,1,6,0:0:0:0:
109,192,99143,1,8,0:0:0:0:
182,192,99305,1,8,0:0:0:0:
402,192,99468,128,0,99954:0:0:0:70:LR_Tom Hit.wav
256,192,99954,1,8,0:0:0:0:
36,192,102224,128,2,102387:0:0:0:0:
329,192,102549,128,2,103684:0:0:0:0:
182,192,103684,128,8,107089:0:0:0:0:
