osu file format v14

[General]
AudioFilename: audio.mp3
AudioLeadIn: 0
PreviewTime: 79197
Countdown: 1
SampleSet: Normal
StackLeniency: 0.7
Mode: 1
LetterboxInBreaks: 0
WidescreenStoryboard: 1

[Editor]
DistanceSpacing: 1.1
BeatDivisor: 4
GridSize: 32
TimelineZoom: 4.099998

[Metadata]
Title:BLACK SHOUT
TitleUnicode:BLACK SHOUT
Artist:Roselia
ArtistUnicode:Roselia
Creator:Janifer
Version:Oni
Source:BanG Dream! Girls Band Party
Tags:
BeatmapID:1950672
BeatmapSetID:934320

[Difficulty]
HPDrainRate:5
CircleSize:5
OverallDifficulty:6
ApproachRate:5
SliderMultiplier:1.4
SliderTickRate:1

[Events]
//Background and Video events
0,0,"bg.jpg",0,0
//Break Periods
//Storyboard Layer 0 (Background)
//Storyboard Layer 1 (Fail)
//Storyboard Layer 2 (Pass)
//Storyboard Layer 3 (Foreground)
//Storyboard Layer 4 (Overlay)
//Storyboard Sound Samples

[TimingPoints]
1360,324.324324324324,4,1,0,60,1,0
79197,-100,4,1,0,75,0,1
94765,-100,4,1,0,60,0,0

[HitObjects]
256,192,1360,5,8,0:0:0:0:
256,192,1684,1,0,0:0:0:0:
256,192,2008,1,0,0:0:0:0:
256,192,2332,1,8,0:0:0:0:
256,192,2657,1,8,0:0:0:0:
256,192,2981,1,0,0:0:0:0:
256,192,3305,1,8,0:0:0:0:
256,192,3630,1,0,0:0:0:0:
256,192,3954,1,8,0:0:0:0:
256,192,4278,1,0,0:0:0:0:
256,192,4603,1,0,0:0:0:0:
256,192,4927,1,8,0:0:0:0:
256,192,5251,1,8,0:0:0:0:
256,192,5576,1,0,0:0:0:0:
256,192,5900,1,8,0:0:0:0:
256,192,6224,1,0,0:0:0:0:
256,192,6549,1,0,0:0:0:0:
256,192,6873,1,0,0:0:0:0:
256,192,7197,1,8,0:0:0:0:
256,192,7522,1,8,0:0:0:0:
256,192,7846,1,0,0:0:0:0:
256,192,8170,1,0,0:0:0:0:
256,192,8495,1,8,0:0:0:0:
256,192,8819,1,8,0:0:0:0:
256,192,9143,1,0,0:0:0:0:
256,192,9468,1,0,0:0:0:0:
256,192,9792,1,8,0:0:0:0:
256,192,10116,1,0,0:0:0:0:
256,192,10441,1,8,0:0:0:0:
256,192,11738,1,0,0:0:0:0:
256,192,12062,1,0,0:0:0:0:
256,192,12387,1,8,0:0:0:0:
256,192,12711,1,0,0:0:0:0:
256,192,12873,1,0,0:0:0:0:
256,192,13197,1,8,0:0:0:0:
256,192,13522,1,0,0:0:0:0:
256,192,13846,1,8,0:0:0:0:
256,192,14332,1,0,0:0:0:0:
256,192,14657,1,8,0:0:0:0:
256,192,14819,1,8,0:0:0:0:
256,192,14981,1,0,0:0:0:0:
256,192,15305,1,8,0:0:0:0:
256,192,15468,1,0,0:0:0:0:
256,192,15792,1,0,0:0:0:0:
256,192,16116,1,8,0:0:0:0:
251,183,16441,1,0,0:0:0:0:
256,192,16927,1,0,0:0:0:0:
256,192,17251,1,0,0:0:0:0:
256,192,17576,1,8,0:0:0:0:
256,192,17900,1,0,0:0:0:0:
256,192,18062,1,8,0:0:0:0:
256,192,18387,1,8,0:0:0:0:
256,192,18711,1,0,0:0:0:0:
256,192,19035,1,8,0:0:0:0:
256,192,19522,1,8,0:0:0:0:
256,192,20170,1,0,0:0:0:0:
256,192,20657,1,0,0:0:0:0:
256,192,21143,1,0,0:0:0:0:
256,192,21305,1,0,0:0:0:0:
256,192,21468,1,2,0:0:0:0:
256,192,21630,1,2,0:0:0:0:
256,192,22116,1,0,0:0:0:0:
256,192,22441,1,0,0:0:0:0:
256,192,22765,1,8,0:0:0:0:
256,192,23089,1,0,0:0:0:0:
256,192,23251,1,0,0:0:0:0:
256,192,23576,1,8,0:0:0:0:
256,192,23900,1,0,0:0:0:0:
256,192,24224,1,8,0:0:0:0:
256,192,24711,1,0,0:0:0:0:
256,192,25035,1,8,0:0:0:0:
256,192,25197,1,8,0:0:0:0:
256,192,25359,1,0,0:0:0:0:
256,192,25684,1,8,0:0:0:0:
256,192,25846,1,0,0:0:0:0:
256,192,26170,1,0,0:0:0:0:
256,192,26495,1,8,0:0:0:0:
256,192,26819,1,8,0:0:0:0:
256,192,27630,1,8,0:0:0:0:
256,192,27954,1,2,0:0:0:0:
256,192,28170,1,0,0:0:0:0:
256,192,28387,1,0,0:0:0:0:
256,192,28603,1,8,0:0:0:0:
256,192,28819,1,2,0:0:0:0:
256,192,29035,1,2,0:0:0:0:
256,192,29251,1,0,0:0:0:0:
256,192,29900,1,4,0:0:0:0:
256,192,30224,1,8,0:0:0:0:
256,192,30387,1,8,0:0:0:0:
256,192,30549,1,4,0:0:0:0:
256,192,30873,1,8,0:0:0:0:
256,192,31197,1,0,0:0:0:0:
256,192,31522,1,0,0:0:0:0:
256,192,31684,1,0,0:0:0:0:
256,192,31846,1,8,0:0:0:0:
256,192,32008,1,0,0:0:0:0:
256,192,32332,1,8,0:0:0:0:
256,192,32414,1,8,0:0:0:0:
256,192,32495,1,0,0:0:0:0:
256,192,32819,1,2,0:0:0:0:
256,192,32981,1,0,0:0:0:0:
256,192,33305,1,2,0:0:0:0:
256,192,33468,1,0,0:0:0:0:
256,192,33792,1,0,0:0:0:0:
256,192,33954,1,0,0:0:0:0:
256,192,34116,1,2,0:0:0:0:
256,192,34278,1,0,0:0:0:0:
256,192,34441,1,2,0:0:0:0:
256,192,34765,1,12,0:0:0:0:
256,192,35089,1,4,0:0:0:0:
256,192,35251,1,0,0:0:0:0:
256,192,35413,1,8,0:0:0:0:
256,192,35575,1,0,0:0:0:0:
256,192,35899,1,0,0:0:0:0:
256,192,36061,1,8,0:0:0:0:
256,192,36224,1,0,0:0:0:0:
256,192,36549,1,0,0:0:0:0:
256,192,36711,1,8,0:0:0:0:
256,192,36873,1,0,0:0:0:0:
256,192,37197,1,0,0:0:0:0:
256,192,37359,1,8,0:0:0:0:
256,192,37522,1,0,0:0:0:0:
256,192,37684,1,4,0:0:0:0:
256,192,37846,1,0,0:0:0:0:
256,192,38008,1,8,0:0:0:0:
256,192,38170,1,0,0:0:0:0:
256,192,38494,1,0,0:0:0:0:
256,192,38656,1,8,0:0:0:0:
256,192,38819,1,0,0:0:0:0:
256,192,38981,1,12,0:0:0:0:
256,192,39143,1,0,0:0:0:0:
256,192,39224,1,0,0:0:0:0:
256,192,39305,1,8,0:0:0:0:
256,192,39468,1,0,0:0:0:0:
256,192,39630,1,0,0:0:0:0:
256,192,39711,1,0,0:0:0:0:
256,192,39792,1,0,0:0:0:0:
256,192,39954,1,2,0:0:0:0:
256,192,40278,1,4,0:0:0:0:
256,192,40441,1,0,0:0:0:0:
256,192,40603,1,8,0:0:0:0:
256,192,40765,1,0,0:0:0:0:
256,192,41089,1,0,0:0:0:0:
256,192,41251,1,8,0:0:0:0:
256,192,41414,1,0,0:0:0:0:
256,192,41738,1,0,0:0:0:0:
256,192,41900,1,8,0:0:0:0:
256,192,42062,1,0,0:0:0:0:
256,192,42386,1,0,0:0:0:0:
256,192,42548,1,8,0:0:0:0:
256,192,42711,1,0,0:0:0:0:
256,192,42873,1,0,0:0:0:0:
256,192,43035,1,0,0:0:0:0:
256,192,43197,1,8,0:0:0:0:
256,192,43359,1,0,0:0:0:0:
256,192,43683,1,0,0:0:0:0:
256,192,43845,1,8,0:0:0:0:
256,192,44008,1,0,0:0:0:0:
256,192,44332,1,0,0:0:0:0:
256,192,44494,1,8,0:0:0:0:
256,192,44656,1,0,0:0:0:0:
256,192,44819,1,0,0:0:0:0:
256,192,44981,1,0,0:0:0:0:
256,192,45062,1,0,0:0:0:0:
256,192,45143,1,8,0:0:0:0:
256,192,45468,1,0,0:0:0:0:
256,192,45630,1,0,0:0:0:0:
256,192,45792,1,8,0:0:0:0:
256,192,45954,1,0,0:0:0:0:
256,192,46278,1,0,0:0:0:0:
256,192,46440,1,8,0:0:0:0:
256,192,46602,1,0,0:0:0:0:
256,192,46927,1,0,0:0:0:0:
256,192,47089,1,8,0:0:0:0:
256,192,47251,1,0,0:0:0:0:
256,192,47576,1,0,0:0:0:0:
256,192,47738,1,8,0:0:0:0:
256,192,47900,1,0,0:0:0:0:
256,192,48062,1,0,0:0:0:0:
256,192,48224,1,0,0:0:0:0:
256,192,48386,1,8,0:0:0:0:
256,192,48548,1,0,0:0:0:0:
256,192,48873,1,0,0:0:0:0:
256,192,49035,1,8,0:0:0:0:
256,192,49197,1,0,0:0:0:0:
256,192,49522,1,0,0:0:0:0:
256,192,49684,1,8,0:0:0:0:
256,192,49846,1,0,0:0:0:0:
256,192,50170,1,0,0:0:0:0:
256,192,50332,1,8,0:0:0:0:
256,192,50494,1,0,0:0:0:0:
256,192,50657,1,0,0:0:0:0:
256,192,50819,1,0,0:0:0:0:
256,192,50981,1,8,0:0:0:0:
256,192,51143,1,0,0:0:0:0:
256,192,51468,1,0,0:0:0:0:
256,192,51630,1,8,0:0:0:0:
256,192,51792,1,0,0:0:0:0:
256,192,52116,1,0,0:0:0:0:
256,192,52278,1,8,0:0:0:0:
256,192,52440,1,0,0:0:0:0:
256,192,52765,1,0,0:0:0:0:
256,192,52927,1,8,0:0:0:0:
256,192,53089,1,0,0:0:0:0:
256,192,53251,1,12,0:0:0:0:
256,192,54549,1,0,0:0:0:0:
256,192,54711,1,8,0:0:0:0:
256,192,55035,1,0,0:0:0:0:
256,192,55197,1,8,0:0:0:0:
256,192,55359,1,8,0:0:0:0:
256,192,55441,1,8,0:0:0:0:
256,192,55522,1,0,0:0:0:0:
256,192,55684,1,0,0:0:0:0:
256,192,55765,1,0,0:0:0:0:
256,192,55846,1,2,0:0:0:0:
256,192,56008,1,0,0:0:0:0:
256,192,56170,1,8,0:0:0:0:
256,192,56332,1,0,0:0:0:0:
256,192,56657,1,0,0:0:0:0:
256,192,56819,1,8,0:0:0:0:
256,192,56981,1,0,0:0:0:0:
256,192,57305,1,0,0:0:0:0:
256,192,57467,1,8,0:0:0:0:
256,192,57629,1,0,0:0:0:0:
256,192,57954,1,0,0:0:0:0:
256,192,58116,1,8,0:0:0:0:
256,192,58278,1,0,0:0:0:0:
256,192,58441,1,0,0:0:0:0:
256,192,58603,1,0,0:0:0:0:
256,192,58765,1,8,0:0:0:0:
256,192,58927,1,0,0:0:0:0:
256,192,59252,1,0,0:0:0:0:
256,192,59414,1,8,0:0:0:0:
256,192,59576,1,0,0:0:0:0:
256,192,59900,1,0,0:0:0:0:
256,192,60062,1,8,0:0:0:0:
256,192,60224,1,0,0:0:0:0:
256,192,60549,1,8,0:0:0:0:
256,192,60711,1,0,0:0:0:0:
256,192,60873,1,8,0:0:0:0:
256,192,61036,1,0,0:0:0:0:
256,192,61197,1,0,0:0:0:0:
256,192,61359,1,8,0:0:0:0:
256,192,61521,1,0,0:0:0:0:
256,192,61846,1,0,0:0:0:0:
256,192,62008,1,8,0:0:0:0:
256,192,62170,1,0,0:0:0:0:
256,192,62494,1,0,0:0:0:0:
256,192,62656,1,8,0:0:0:0:
256,192,62818,1,0,0:0:0:0:
256,192,63143,1,0,0:0:0:0:
256,192,63305,1,8,0:0:0:0:
256,192,63467,1,0,0:0:0:0:
256,192,63630,1,4,0:0:0:0:
256,192,64278,1,0,0:0:0:0:
256,192,64927,1,2,0:0:0:0:
256,192,65576,1,12,0:0:0:0:
256,192,65900,1,8,0:0:0:0:
256,192,66062,1,0,0:0:0:0:
256,192,66224,1,4,0:0:0:0:
256,192,66549,1,0,0:0:0:0:
256,192,66711,1,0,0:0:0:0:
256,192,66873,1,8,0:0:0:0:
256,192,67197,1,8,0:0:0:0:
256,192,67359,1,0,0:0:0:0:
256,192,67684,1,0,0:0:0:0:
256,192,68008,1,0,0:0:0:0:
256,192,68170,1,8,0:0:0:0:
256,192,68495,1,8,0:0:0:0:
256,192,68819,1,0,0:0:0:0:
256,192,69143,1,0,0:0:0:0:
256,192,69305,1,0,0:0:0:0:
256,192,69468,1,8,0:0:0:0:
256,192,69792,1,8,0:0:0:0:
256,192,69954,1,0,0:0:0:0:
256,192,70278,1,0,0:0:0:0:
256,192,70603,1,0,0:0:0:0:
256,192,70765,1,8,0:0:0:0:
256,192,71089,1,0,0:0:0:0:
256,192,71414,1,12,0:0:0:0:
256,192,71739,1,0,0:0:0:0:
256,192,71901,1,0,0:0:0:0:
256,192,72063,1,8,0:0:0:0:
256,192,72387,1,8,0:0:0:0:
256,192,72549,1,0,0:0:0:0:
256,192,72874,1,0,0:0:0:0:
256,192,73198,1,0,0:0:0:0:
256,192,73360,1,8,0:0:0:0:
256,192,73685,1,8,0:0:0:0:
256,192,74009,1,12,0:0:0:0:
256,192,74332,1,0,0:0:0:0:
256,192,74495,1,0,0:0:0:0:
256,192,74657,1,8,0:0:0:0:
256,192,74981,1,8,0:0:0:0:
256,192,75143,1,0,0:0:0:0:
256,192,75468,1,0,0:0:0:0:
256,192,75792,1,0,0:0:0:0:
256,192,75954,1,0,0:0:0:0:
256,192,76278,1,8,0:0:0:0:
256,192,76603,1,12,0:0:0:0:
256,192,76927,1,8,0:0:0:0:
256,192,77089,1,0,0:0:0:0:
256,192,77251,1,8,0:0:0:0:
256,192,77414,1,0,0:0:0:0:
256,192,77576,1,8,0:0:0:0:
256,192,77738,1,0,0:0:0:0:
256,192,77900,1,0,0:0:0:0:
256,192,78224,1,0,0:0:0:0:
256,192,78305,1,8,0:0:0:0:
256,192,78387,1,8,0:0:0:0:
256,192,78549,1,8,0:0:0:0:
256,192,78873,1,0,0:0:0:0:
256,192,79035,1,8,0:0:0:0:
256,192,79116,1,0,0:0:0:0:
256,192,79197,1,4,0:0:0:0:
256,192,79522,1,8,0:0:0:0:
256,192,79846,1,0,0:0:0:0:
256,192,80008,1,0,0:0:0:0:
256,198,80170,1,0,0:0:0:0:
256,198,80332,1,8,0:0:0:0:
256,198,80495,1,0,0:0:0:0:
256,192,80657,1,0,0:0:0:0:
256,192,80819,1,8,0:0:0:0:
256,192,81143,1,0,0:0:0:0:
256,192,81305,1,0,0:0:0:0:
256,192,81468,1,8,0:0:0:0:
256,192,81792,1,0,0:0:0:0:
256,192,82116,1,8,0:0:0:0:
256,192,82278,1,2,0:0:0:0:
256,192,82441,1,0,0:0:0:0:
256,192,82603,1,0,0:0:0:0:
256,192,82765,1,0,0:0:0:0:
256,192,82927,1,8,0:0:0:0:
256,192,83089,1,0,0:0:0:0:
256,192,83414,1,8,0:0:0:0:
256,192,83738,1,0,0:0:0:0:
256,192,83900,1,0,0:0:0:0:
256,192,84062,1,8,0:0:0:0:
256,192,84224,1,0,0:0:0:0:
256,192,84305,1,0,0:0:0:0:
256,192,84387,1,8,0:0:0:0:
256,192,84711,1,8,0:0:0:0:
256,192,85036,1,0,0:0:0:0:
256,192,85198,1,0,0:0:0:0:
256,192,85360,1,0,0:0:0:0:
256,192,85522,1,8,0:0:0:0:
256,192,85684,1,0,0:0:0:0:
251,185,85846,1,0,0:0:0:0:
256,192,86009,1,8,0:0:0:0:
256,192,86333,1,0,0:0:0:0:
256,192,86495,1,0,0:0:0:0:
256,192,86657,1,8,0:0:0:0:
256,192,86981,1,0,0:0:0:0:
256,192,87305,1,8,0:0:0:0:
256,192,87630,1,0,0:0:0:0:
256,192,87792,1,0,0:0:0:0:
256,192,87954,1,0,0:0:0:0:
256,192,88116,1,8,0:0:0:0:
256,192,88278,1,0,0:0:0:0:
256,192,88603,1,8,0:0:0:0:
256,192,88927,1,0,0:0:0:0:
256,192,89089,1,8,0:0:0:0:
256,192,89170,1,8,0:0:0:0:
256,192,89251,1,0,0:0:0:0:
256,192,89414,1,0,0:0:0:0:
256,192,89495,1,0,0:0:0:0:
256,192,89576,1,8,0:0:0:0:
256,192,89900,1,8,0:0:0:0:
256,192,90224,1,0,0:0:0:0:
256,192,90387,1,0,0:0:0:0:
256,192,90549,1,8,0:0:0:0:
256,192,90711,1,0,0:0:0:0:
256,192,90873,1,0,0:0:0:0:
256,192,91035,1,0,0:0:0:0:
256,192,91197,1,8,0:0:0:0:
256,192,91522,1,0,0:0:0:0:
256,192,91684,1,0,0:0:0:0:
256,192,91846,1,8,0:0:0:0:
256,192,92170,1,0,0:0:0:0:
256,192,92495,1,8,0:0:0:0:
256,192,92819,1,0,0:0:0:0:
256,192,92981,1,0,0:0:0:0:
256,192,93143,1,8,0:0:0:0:
256,192,93305,1,0,0:0:0:0:
256,192,93630,1,0,0:0:0:0:
256,192,93792,1,8,0:0:0:0:
256,192,93954,1,0,0:0:0:0:
256,192,94035,1,0,0:0:0:0:
256,192,94116,1,8,0:0:0:0:
256,192,94278,1,8,0:0:0:0:
256,192,94441,1,0,0:0:0:0:
256,192,94603,1,0,0:0:0:0:
256,192,94765,1,12,0:0:0:0:
256,192,95089,1,0,0:0:0:0:
256,192,95414,1,0,0:0:0:0:
256,192,95630,1,0,0:0:0:0:
256,192,95846,1,8,0:0:0:0:
256,192,96062,1,8,0:0:0:0:
256,192,96278,1,0,0:0:0:0:
256,192,96495,1,8,0:0:0:0:
256,192,96711,1,0,0:0:0:0:
256,192,97035,1,8,0:0:0:0:
256,192,97359,1,4,0:0:0:0:
256,192,97684,1,0,0:0:0:0:
256,192,97846,1,0,0:0:0:0:
256,192,98008,1,12,0:0:0:0:
256,192,98332,1,8,0:0:0:0:
256,192,98657,1,0,0:0:0:0:
256,192,98819,1,0,0:0:0:0:
256,192,98981,1,8,0:0:0:0:
256,192,99143,1,8,0:0:0:0:
256,192,99305,1,0,0:0:0:0:
256,192,99468,1,0,0:0:0:0:
256,192,99630,1,8,0:0:0:0:
256,192,99792,1,0,0:0:0:0:
256,192,99873,1,0,0:0:0:0:
256,192,99954,1,12,0:0:0:0:
256,192,100278,1,8,0:0:0:0:
256,192,100441,1,0,0:0:0:0:
256,192,100765,1,8,0:0:0:0:
256,192,100927,1,0,0:0:0:0:
256,192,101251,1,8,0:0:0:0:
256,192,101414,1,0,0:0:0:0:
256,192,101576,1,0,0:0:0:0:
256,192,101738,1,0,0:0:0:0:
256,192,101900,1,8,0:0:0:0:
256,192,102062,1,0,0:0:0:0:
256,192,102224,1,8,0:0:0:0:
256,192,102549,1,0,0:0:0:0:
256,192,102711,1,8,0:0:0:0:
256,192,102792,1,8,0:0:0:0:
256,192,102873,1,8,0:0:0:0:
256,192,103035,1,0,0:0:0:0:
256,192,103197,1,8,0:0:0:0:
256,192,103359,1,0,0:0:0:0:
256,192,103522,1,0,0:0:0:0:
256,192,103684,1,12,0:0:0:0:
256,192,103846,12,0,107170,0:0:0:0:
