osu file format v14

[General]
AudioFilename: audio.mp3
AudioLeadIn: 0
PreviewTime: -1
Countdown: 1
SampleSet: Normal
StackLeniency: 0.7
Mode: 0
LetterboxInBreaks: 0
WidescreenStoryboard: 0

[Editor]
DistanceSpacing: 1.2
BeatDivisor: 4
GridSize: 4
TimelineZoom: 2.899999

[Metadata]
Title:Miiro vs Ai no scenario
TitleUnicode:Miiro vs Ai no scenario
Artist:Roselia & Afterglow
ArtistUnicode:Roselia & Afterglow
Creator:Umi Sonoda03
Version:Tatoe
Source:
Tags:Roselia Afertglow Miiro Ai no scenario bang dream japanese
BeatmapID:2191631
BeatmapSetID:1048536

[Difficulty]
HPDrainRate:6.4
CircleSize:4.4
OverallDifficulty:8.7
ApproachRate:9.3
SliderMultiplier:1.4
SliderTickRate:1

[Events]
//Background and Video events
0,0,"YukinaandRan.png",0,0
//Break Periods
//Storyboard Layer 0 (Background)
//Storyboard Layer 1 (Fail)
//Storyboard Layer 2 (Pass)
//Storyboard Layer 3 (Foreground)
//Storyboard Layer 4 (Overlay)
//Storyboard Sound Samples

[TimingPoints]
55,307.692307692308,4,1,0,100,1,0
2516,-125,4,1,0,100,0,0
4978,-250,4,1,0,100,0,0
8670,-100,4,1,0,100,0,0
18516,-142.857142857143,4,1,0,100,0,0
26988,324.324324324324,4,1,0,100,1,0
27150,-100,4,1,0,100,0,0
28366,307.692307692308,4,1,0,100,1,0
38212,-153.846153846153,4,1,0,100,0,0
48212,-105.263157894737,4,1,0,100,0,0
56978,333.333333333333,4,1,0,100,1,0
79644,-133.333333333333,4,1,0,100,0,0

[HitObjects]
133,78,2516,6,0,P|190:87|218:142,1,112
102,254,3131,2,0,L|219:250,1,112
270,174,3593,1,0,0:0:0:0:
328,288,3747,6,0,P|368:261|389:189,1,112
408,66,4362,2,0,P|361:65|302:101,1,112
363,213,4978,6,0,L|187:213,1,168
195,213,6208,5,0,0:0:0:0:
328,156,6362,1,0,0:0:0:0:
112,152,6516,1,0,0:0:0:0:
336,236,6670,1,0,0:0:0:0:
144,292,6824,1,0,0:0:0:0:
292,136,6978,1,0,0:0:0:0:
263,333,7131,1,0,0:0:0:0:
162,90,7285,1,0,0:0:0:0:
420,123,7439,5,0,0:0:0:0:
147,312,7593,1,0,0:0:0:0:
288,160,7747,5,0,0:0:0:0:
112,56,7901,1,0,0:0:0:0:
350,140,8516,1,0,0:0:0:0:
350,140,8670,6,0,P|308:102|201:110,1,140
160,167,9131,1,0,0:0:0:0:
189,274,9285,1,0,0:0:0:0:
62,158,9439,1,0,0:0:0:0:
98,264,9593,1,0,0:0:0:0:
214,331,9747,1,0,0:0:0:0:
214,331,9901,6,0,P|258:288|266:253,1,70
373,184,10208,2,0,P|364:131|341:92,1,70
219,54,10516,2,0,P|213:109|283:195,1,140
201,260,10978,1,0,0:0:0:0:
85,200,11131,6,0,P|105:160|144:136,1,70
312,158,11439,2,0,P|306:106|236:51,1,140
148,131,11901,1,0,0:0:0:0:
199,264,12055,1,0,0:0:0:0:
339,242,12208,1,0,0:0:0:0:
285,67,12362,6,0,L|252:145,1,70
98,174,12670,2,0,P|109:215|190:275,1,140
339,234,13131,2,0,P|299:203|250:198,1,70
253,107,13439,1,0,0:0:0:0:
99,210,13593,5,0,0:0:0:0:
99,210,13747,2,0,P|143:241|253:244,1,140
367,182,14208,2,0,P|317:175|276:180,1,70
143,168,14516,1,0,0:0:0:0:
209,73,14670,1,0,0:0:0:0:
330,73,14824,5,0,0:0:0:0:
387,188,14978,2,0,L|391:328,1,140
292,241,15439,2,0,L|290:171,1,70
182,147,15747,2,0,P|190:104|231:78,1,70
342,54,16055,5,0,0:0:0:0:
231,250,16208,1,0,0:0:0:0:
402,180,16362,1,0,0:0:0:0:
223,31,16516,1,0,0:0:0:0:
138,223,16670,2,0,P|146:302|219:343,1,140
281,315,17131,1,0,0:0:0:0:
281,315,17285,6,0,P|308:294|327:234,1,70
276,158,17593,2,0,P|310:121|358:122,1,70
190,108,17901,5,0,0:0:0:0:
364,268,18055,1,0,0:0:0:0:
204,96,18516,6,0,P|184:132|188:208,1,97.9999970092774
320,316,18978,2,0,P|324:280|312:216,1,97.9999970092774
216,136,19439,2,0,L|264:116,2,48.9999985046387
156,248,19901,6,0,L|220:228,2,48.9999985046387
288,344,20362,2,0,P|312:308|316:240,1,97.9999970092774
204,188,20824,2,0,P|208:148|220:124,1,48.9999985046387
304,136,21131,6,0,P|304:104|300:72,1,48.9999985046387
192,24,21439,2,0,P|168:60|160:128,1,97.9999970092774
216,248,21901,2,0,B|224:180|224:180|272:172,2,97.9999970092774
300,336,22670,2,0,L|304:276,2,48.9999985046387
404,232,23131,2,0,P|372:208|344:204,1,48.9999985046387
232,124,23439,6,0,P|272:112|336:124,1,97.9999970092774
392,256,23901,2,0,B|336:272|336:272|304:224,1,97.9999970092774
160,168,24362,2,0,P|196:152|260:164,1,97.9999970092774
92,284,24824,6,0,P|152:272|196:236,1,97.9999970092774
124,100,25285,2,0,L|124:204,1,97.9999970092774
212,44,25747,2,0,L|216:96,1,48.9999985046387
312,212,26055,6,0,P|304:168|344:124,1,97.9999970092774
472,208,26516,2,0,L|372:184,1,97.9999970092774
280,280,26978,1,0,0:0:0:0:
189,202,27150,6,0,B|190:113|190:113|269:98,2,140
106,225,27879,2,0,L|101:308,2,70
240,74,28366,6,0,P|254:111|219:215,1,140
76,306,28827,2,0,P|87:264|119:227,1,70
196,72,29135,1,0,0:0:0:0:
342,138,29289,2,0,P|333:180|306:215,1,70
131,329,29596,6,0,P|130:292|144:250,1,70
229,45,29904,1,0,0:0:0:0:
282,244,30058,1,0,0:0:0:0:
374,72,30212,2,0,P|325:69|279:91,1,70
75,186,30519,2,0,P|114:190|166:184,1,70
344,284,30827,6,0,P|354:240|422:157,1,140
340,34,31289,1,0,0:0:0:0:
183,160,31442,1,0,0:0:0:0:
319,282,31596,2,0,P|320:232|345:191,1,70
233,50,31904,1,0,0:0:0:0:
167,227,32058,6,0,P|127:200|131:106,1,140
310,152,32519,2,0,L|237:152,1,70
378,319,32827,1,0,0:0:0:0:
165,257,32981,2,0,P|177:216|215:182,1,70
238,51,33289,6,0,P|197:49|115:113,1,140
95,288,33904,2,0,P|157:266|212:201,1,140
323,70,34519,6,0,L|327:226,1,140
215,320,34981,2,0,L|222:236,1,70
155,160,35289,2,0,L|146:254,1,70
82,93,35596,1,0,0:0:0:0:
300,52,35750,6,0,P|338:104|335:136,1,70
309,276,36058,2,0,P|277:255|253:221,1,70
180,117,36366,1,0,0:0:0:0:
88,243,36519,2,0,P|128:256|180:255,1,70
241,194,36827,1,0,0:0:0:0:
329,308,36981,6,0,L|326:227,1,70
364,144,37289,1,0,0:0:0:0:
235,38,37442,1,0,0:0:0:0:
392,178,37596,1,0,0:0:0:0:
296,306,37750,2,0,L|294:266,4,35
283,238,38212,6,0,P|243:223|212:166,1,90.9999958343508
265,50,38827,2,0,P|297:69|281:160,1,136.499993751526
136,119,39442,2,0,L|243:112,1,90.9999958343508
360,64,39904,2,0,P|384:104|381:157,1,90.9999958343508
357,225,40366,1,0,0:0:0:0:
146,163,40673,6,0,P|179:155|241:165,1,90.9999958343508
395,122,41135,2,0,P|360:107|298:108,1,90.9999958343508
336,233,41596,2,0,L|334:177,1,45.4999979171754
264,69,41904,6,0,P|234:66|168:88,1,90.9999958343508
167,195,42366,2,0,P|125:197|80:219,1,90.9999958343508
157,323,42827,2,0,L|143:260,1,45.4999979171754
245,117,43135,6,0,L|252:216,2,90.9999958343508
340,267,44058,1,0,0:0:0:0:
317,86,44366,6,0,P|293:114|279:168,1,90.9999958343508
367,287,44827,2,0,P|372:251|357:184,1,90.9999958343508
256,122,45289,2,0,L|311:123,1,45.4999979171754
423,79,45596,6,0,L|424:220,1,136.499993751526
352,302,46212,2,0,L|351:246,1,45.4999979171754
281,166,46519,2,0,L|281:218,1,45.4999979171754
144,294,46827,6,0,P|174:307|231:304,2,90.9999958343508
216,166,47750,2,0,L|212:228,1,45.4999979171754
294,121,48058,1,0,0:0:0:0:
294,121,48212,2,0,P|325:154|372:168,1,66.4999982242585
465,96,48519,2,0,B|383:95|431:29|325:52,1,132.999996448517
192,108,48981,2,0,L|260:109,1,66.4999982242585
393,174,49289,6,0,P|388:212|371:243,1,66.4999982242585
292,287,49596,1,0,0:0:0:0:
182,184,49750,1,0,0:0:0:0:
155,324,49904,1,0,0:0:0:0:
155,324,50058,2,0,B|235:325|162:260|287:270,1,132.999996448517
383,152,50519,2,0,P|322:138|246:169,1,132.999996448517
160,273,50981,2,0,L|156:183,1,66.4999982242585
246,44,51289,2,0,P|263:79|260:119,1,66.4999982242585
269,207,51596,1,0,0:0:0:0:
351,308,51750,6,0,P|372:272|371:229,1,66.4999982242585
405,99,52058,2,0,P|351:92|324:107,2,66.4999982242585
319,203,52519,1,0,0:0:0:0:
180,224,52673,2,0,L|196:296,1,66.4999982242585
206,112,52981,2,0,P|253:106|318:174,1,132.999996448517
352,303,53442,2,0,P|310:297|259:307,1,66.4999982242585
148,206,53750,5,0,0:0:0:0:
230,208,53904,1,0,0:0:0:0:
63,178,54058,1,0,0:0:0:0:
316,172,54212,5,0,0:0:0:0:
217,53,54366,2,0,P|201:98|232:185,1,132.999996448517
330,293,54827,2,0,P|332:255|317:209,1,66.4999982242585
232,100,55135,2,0,P|227:132|235:164,1,66.4999982242585
344,184,55442,1,0,0:0:0:0:
236,292,55596,5,0,0:0:0:0:
215,266,55672,1,0,0:0:0:0:
203,235,55749,1,0,0:0:0:0:
200,202,55826,1,0,0:0:0:0:
207,169,55903,1,0,0:0:0:0:
227,140,55981,5,0,0:0:0:0:
261,159,56057,1,0,0:0:0:0:
296,179,56134,1,0,0:0:0:0:
330,199,56211,1,0,0:0:0:0:
365,219,56288,1,0,0:0:0:0:
396,240,56366,1,0,0:0:0:0:
116,260,56519,5,0,0:0:0:0:
268,62,56978,6,0,P|296:106|314:210,2,140
164,216,57978,2,0,P|216:212|248:220,1,70
312,304,58311,1,0,0:0:0:0:
380,160,58478,1,0,0:0:0:0:
292,72,58644,2,0,P|248:116|168:132,1,140
104,256,59144,2,0,L|104:172,1,70
200,320,59478,2,0,L|200:250,1,70
284,156,59811,5,0,0:0:0:0:
284,156,59978,1,0,0:0:0:0:
344,288,60144,2,0,B|333:215|333:215|368:156,1,140
436,68,60644,2,0,P|376:60|352:68,1,70
292,136,60977,6,0,P|254:129|216:136,1,70
130,236,61311,2,0,P|165:231|200:236,1,70
320,312,61644,2,0,P|328:260|288:168,1,140
172,104,62144,6,0,L|248:104,1,70
348,44,62477,2,0,L|432:44,1,70
224,168,62811,2,0,L|320:164,1,70
404,108,63144,2,0,L|484:104,2,70
332,232,63644,6,0,P|280:200|192:212,1,140
208,352,64144,2,0,L|252:272,1,70
200,192,64477,1,0,0:0:0:0:
272,88,64644,2,0,P|304:132|308:168,1,70
336,280,64977,6,0,B|412:276|352:224|468:224,2,140
316,132,65811,2,0,L|328:216,1,70
252,268,66144,1,0,0:0:0:0:
172,212,66311,6,0,B|96:208|156:156|40:156,2,140
244,316,67144,2,0,P|252:272|284:236,2,70
360,240,67644,6,0,B|376:156|376:156|304:112,1,140
200,172,68144,2,0,P|256:188|300:184,2,70
120,280,68644,5,0,0:0:0:0:
240,104,68811,1,0,0:0:0:0:
212,336,68977,5,0,0:0:0:0:
176,144,69144,1,0,0:0:0:0:
132,368,69311,5,0,0:0:0:0:
232,192,69477,1,0,0:0:0:0:
80,296,69644,5,0,0:0:0:0:
364,244,69811,1,0,0:0:0:0:
36,216,69977,5,0,0:0:0:0:
304,176,70144,1,0,0:0:0:0:
0,136,70311,5,0,0:0:0:0:
224,116,70477,1,0,0:0:0:0:
116,256,70644,5,0,0:0:0:0:
101,224,70727,1,0,0:0:0:0:
99,189,70810,1,0,0:0:0:0:
108,155,70893,1,0,0:0:0:0:
128,127,70977,1,0,0:0:0:0:
248,72,71144,2,0,L|248:160,2,70
332,192,71644,5,0,0:0:0:0:
328,240,71811,1,0,0:0:0:0:
296,124,71977,5,0,0:0:0:0:
240,276,72144,1,0,0:0:0:0:
248,56,72311,5,0,0:0:0:0:
156,316,72477,1,0,0:0:0:0:
104,96,72644,5,0,0:0:0:0:
320,256,72811,1,0,0:0:0:0:
336,92,72977,6,0,B|256:84|300:32|196:44,2,140
380,236,73811,2,0,L|392:160,1,70
236,244,74144,1,0,0:0:0:0:
236,244,74311,6,0,P|228:200|292:120,1,140
408,56,74811,2,0,P|364:48|316:60,1,70
180,136,75144,2,0,P|232:128|268:136,1,70
312,216,75477,1,0,0:0:0:0:
204,324,75644,6,0,P|195:276|236:180,1,140
360,116,76144,2,0,P|304:96|268:104,2,70
136,176,76644,2,0,P|180:160|224:164,2,70
276,264,77144,5,0,0:0:0:0:
392,92,77311,1,0,0:0:0:0:
204,176,77477,1,0,0:0:0:0:
456,196,77644,1,0,0:0:0:0:
160,244,77811,2,0,L|236:200,2,70
84,128,78311,2,0,B|176:120|108:60|216:64,1,140
272,188,78811,2,0,L|200:132,1,70
200,36,79144,2,0,P|256:40|316:104,1,140
264,252,79644,6,0,P|268:208|224:152,1,105.000004005432
108,140,80144,2,0,P|124:184|180:224,1,105.000004005432
288,88,80644,2,0,L|288:160,2,52.5000020027161
356,236,81144,2,0,L|356:176,2,52.5000020027161
236,324,81644,2,0,P|204:296|180:224,1,105.000004005432
108,140,82144,1,0,0:0:0:0:
224,72,82311,6,0,P|252:112|264:184,1,105.000004005432
292,288,82811,2,0,P|328:268|352:196,1,105.000004005432
268,112,83311,2,0,P|308:96|336:108,1,52.5000020027161
464,180,83644,6,0,P|432:172|400:184,1,52.5000020027161
352,288,83977,2,0,B|300:296|316:228|240:252,2,105.000004005432
368,212,84811,1,0,0:0:0:0:
368,212,84977,6,0,P|368:156|336:104,1,105.000004005432
124,64,85477,2,0,P|144:120|184:152,1,105.000004005432
256,288,85977,2,0,B|248:216|248:216|304:208,2,105.000004005432
364,352,86811,2,0,L|360:296,2,52.5000020027161
400,192,87311,1,0,0:0:0:0:
400,192,87477,1,0,0:0:0:0:
344,104,87644,6,0,P|304:124|280:184,1,105.000004005432
196,272,88144,2,0,B|192:208|192:208|136:196,2,105.000004005432
292,344,88977,6,0,L|288:280,2,52.5000020027161
208,224,89477,5,0,0:0:0:0:
388,68,89644,1,0,0:0:0:0:
336,348,89811,1,0,0:0:0:0:
