osu file format v14

[General]
AudioFilename: audio.mp3
AudioLeadIn: 0
PreviewTime: 6657
Countdown: 0
SampleSet: Soft
StackLeniency: 0.2
Mode: 0
LetterboxInBreaks: 0
EpilepsyWarning: 1
WidescreenStoryboard: 1

[Editor]
DistanceSpacing: 1.2
BeatDivisor: 4
GridSize: 4
TimelineZoom: 1.7

[Metadata]
Title:MIIRO vs. Ai no Scenario
TitleUnicode:海色 vs. アイのシナリオ
Artist:Roselia & Afterglow
ArtistUnicode:Roselia & Afterglow
Creator:-Mikan
Version:schoolboy's Special
Source:バンドリ!ガールズバンドパーティ!
Tags:Akitoshi -Laura- Corinn MashaSG schoolboy Komore domSaur -Aqua Blitzifyyy Djulus ktgster lit120 iljaaz Shizuku- piroshki AKINO from bless4 CHiCO with HoneyWorks みいろ opening kantai collection kancolle fleet girls magic kaito 1412 まじっく快斗1412 艦隊これくしょん -艦これ- BanG Dream! Girls Band Party! Garupa Bandori! ガルパ! japanese anime edit tatoe tatowe video game アフターグロウ Mitake Ran 美竹 蘭 Sakura Ayane 佐倉綾音 Aoba Moca 青葉 モカ Misawa Sachika 三澤紗千香 Uehara Himari 上原 ひまり Katou Emiri 加藤 英美里 Udagawa Tomoe 宇田川 巴 Hikasa Yoko 日笠陽子 Hazawa Tsugumi 羽沢 つぐみ Kanemoto Hisako 金元 寿子 ロゼリア minato yukina 湊友希那 aiba aina 相羽あいな hikawa sayo 氷川紗夜 kudou haruka 工藤晴香 imai lisa 今井リサ endou yurika 遠藤ゆりか nakashima yuki 中島由貴 udagawa ako 宇田川あこ sakuragawa megu 櫻川めぐ shirokane rinko 白金燐子 akesaka satomi 明坂聡美
BeatmapID:2166462
BeatmapSetID:1035849

[Difficulty]
HPDrainRate:6
CircleSize:4
OverallDifficulty:9
ApproachRate:9.5
SliderMultiplier:1.6
SliderTickRate:1

[Events]
//Background and Video events
0,0,"032865d41b9ce03fbbd2130325900d0ead2ed12f_s2_n2.jpg",0,0
//Break Periods
//Storyboard Layer 0 (Background)
//Storyboard Layer 1 (Fail)
//Storyboard Layer 2 (Pass)
//Storyboard Layer 3 (Foreground)
//Storyboard Layer 4 (Overlay)
//Storyboard Sound Samples

[TimingPoints]
1100,368.098159509202,4,2,1,60,1,0
1238,307.692307692308,4,2,1,60,1,0
3699,-117.647058823529,4,2,1,60,0,0
3912,-133.333333333333,4,2,1,60,0,0
4930,314.13612565445,4,2,1,70,1,0
4930,-133.333333333333,4,2,1,70,0,0
6775,307.692307692308,4,2,1,60,1,0
6775,-76.9230769230769,4,2,1,60,0,0
7159,-76.9230769230769,4,2,1,5,0,0
7236,-50,4,2,1,80,0,0
7389,307.692307692308,4,2,1,80,1,0
7542,-86.2068965517241,4,2,1,80,0,1
9081,-181.818181818182,4,2,1,80,0,1
9696,-50,4,2,1,80,0,1
10004,-86.2068965517241,4,2,1,80,0,1
12158,-71.4285714285714,4,2,1,80,0,1
12389,-86.2068965517241,4,2,1,80,0,1
16312,-50,4,2,1,80,0,1
16465,-66.6666666666667,4,2,1,80,0,1
16927,-66.6666666666667,4,2,1,50,0,0
17235,-66.6666666666667,4,2,1,55,0,0
24372,-133.333333333333,4,2,1,55,0,0
25696,324.324324324324,4,2,1,60,1,0
25858,303.030303030303,4,2,1,70,1,0
26009,-100,4,2,1,5,0,0
26085,-100,4,2,1,70,0,0
26236,-100,4,2,1,5,0,0
26312,363.636363636364,4,2,1,70,1,0
26402,-100,4,2,1,5,0,0
26493,294.117647058824,4,2,1,70,1,0
26713,-100,4,2,1,70,0,0
26860,-100,4,2,1,5,0,0
26934,300,4,2,1,70,1,0
27009,-100,4,2,1,5,0,0
27082,307.692307692308,4,2,1,65,1,0
32005,-133.333333333333,4,2,1,65,0,0
34466,-83.3333333333333,4,2,1,65,0,0
35543,-83.3333333333333,4,2,1,65,0,0
35582,-83.3333333333333,4,2,1,65,0,0
35851,-83.3333333333333,4,2,1,65,0,0
35889,-83.3333333333333,4,2,1,65,0,0
35928,-83.3333333333333,4,2,1,65,0,0
36197,-83.3333333333333,4,2,1,65,0,0
36235,-83.3333333333333,4,2,1,65,0,0
36928,-83.3333333333333,4,2,1,50,0,0
38374,-125,4,2,1,50,0,0
43297,-100,4,2,1,50,0,0
46774,-100,4,2,1,70,0,0
51697,-83.3333333333333,4,2,1,80,0,0
54158,-250,4,2,1,80,0,0
54466,-25,4,2,1,80,0,0
54990,-50,4,2,1,80,0,0
55699,333.333333333333,4,2,1,60,1,0
55949,-100,4,2,1,5,0,0
56032,-50,4,2,1,60,0,0
56199,-25,4,2,1,60,0,0
56282,-25,4,2,1,5,0,0
56365,-50,4,2,1,60,0,0
56532,-50,4,2,1,60,0,0
56615,-50,4,2,1,5,0,0
56695,333.333333333333,4,2,1,80,1,0
56695,-50,4,2,1,80,0,0
57028,-86.9565217391304,4,2,1,80,0,0
59361,-66.6666666666667,4,2,1,80,0,0
60028,-86.9565217391304,4,2,1,80,0,0
62028,-133.333333333333,4,2,1,80,0,0
62361,-86.9565217391304,4,2,1,80,0,0
65694,-66.6666666666667,4,2,1,80,0,0
66194,-86.9565217391304,4,2,1,80,0,0
67278,-50,4,2,1,80,0,0
67361,-50,4,2,1,90,0,0
67694,-66.6666666666667,4,2,1,90,0,0
68694,-86.9565217391304,4,2,1,90,0,0
70028,-58.8235294117647,4,2,1,100,0,0
72694,-181.818181818181,4,2,1,80,0,0
73028,-86.9565217391304,4,2,1,80,0,0
76861,-74.0740740740741,4,2,1,80,0,0
77682,326.086956521739,4,2,1,80,1,0
78008,352.941176470588,4,2,1,80,1,0
78008,-333.333333333333,4,2,1,80,0,0
78387,327.868852459016,4,2,1,70,1,0
78387,-76.9230769230769,4,2,1,70,0,0
79370,333.333333333333,4,2,1,70,1,0
79370,-76.9230769230769,4,2,1,70,0,0
82370,-50,4,2,1,70,0,0
82703,-133.333333333333,4,2,1,70,0,0
83536,-76.9230769230769,4,2,1,70,0,0
84354,333.333333333333,4,2,1,70,1,0
84354,-76.9230769230769,4,2,1,70,0,0
87187,-38.4615384615385,4,2,1,70,0,0
87369,333.333333333333,4,2,1,80,1,0
87369,-66.6666666666667,4,2,1,80,0,0
88203,-66.6666666666667,4,2,1,85,0,0
88369,-66.6666666666667,4,2,1,90,0,0
88536,-66.6666666666667,4,2,1,95,0,0
88869,-66.6666666666667,4,2,1,5,0,0

[Colours]
Combo1 : 213,0,106
Combo2 : 167,167,211
Combo3 : 106,181,255
Combo4 : 254,156,249
Combo5 : 162,255,255
Combo6 : 255,108,108
Combo7 : 255,157,111
Combo8 : 255,255,123

[HitObjects]
467,264,1100,6,0,L|471:236,3,20,0|0|0|2,0:0|0:0|0:0|0:0,0:0:0:0:
467,264,2314,5,2,0:0:0:0:
467,264,2469,1,2,0:0:0:0:
430,193,2622,1,2,0:0:0:0:
351,186,2776,1,2,0:0:0:0:
304,250,2930,1,2,0:0:0:0:
333,324,3084,5,2,0:0:0:0:
392,271,3237,1,2,0:0:0:0:
379,192,3391,1,2,0:0:0:0:
306,161,3545,1,2,0:0:0:0:
242,208,3699,6,0,B|205:229|155:212|135:174|135:174|110:159|72:157|48:198,2,204.000003890991,2|2|2,0:0|0:0|0:0,0:0:0:0:
242,207,4930,70,0,P|259:183|261:153,2,60.0000022888184,2|0|0,0:1|0:0|0:0,0:0:0:0:
270,281,5401,6,0,P|293:298|323:300,2,60.0000022888184,2|0|0,0:1|0:0|0:0,0:0:0:0:
195,291,5872,6,0,P|177:314|175:344,2,60.0000022888184,2|0|0,0:1|0:0|0:0,0:0:0:0:
167,217,6343,6,0,P|143:199|113:197,2,60.0000022888184,2|0|0,0:1|0:0|0:0,0:0:0:0:
418,214,6775,69,2,0:0:0:0:
418,214,6928,2,0,B|440:92|440:92|417:79|391:107,1,155.999992858887,2|0,0:0|0:0,0:0:0:0:
512,256,7236,6,0,B|399:222|408:338|287:309,1,240,6|0,1:2|0:0,0:0:0:0:
424,379,7542,1,0,0:0:0:0:
169,245,7696,2,0,P|178:290|181:336,1,92.8000028320313,10|0,0:0|0:0,0:0:0:0:
338,118,8004,2,0,P|329:72|326:26,1,92.8000028320313,2|2,3:2|3:2,0:0:0:0:
221,97,8312,2,0,P|147:106|93:31,1,139.200004248047,10|0,0:0|0:0,0:0:0:0:
25,135,8620,5,2,3:2:0:0:
388,230,8774,1,0,3:0:0:0:
110,343,8928,1,10,0:0:0:0:
207,177,9082,2,0,L|221:270,1,88.000002685547,2|2,0:0|3:2,0:0:0:0:
220,264,9543,1,10,0:0:0:0:
133,111,9697,6,0,B|217:167|307:110|258:18|194:54,1,240,6|0,1:2|0:0,0:0:0:0:
367,189,10005,1,0,3:0:0:0:
512,96,10159,2,0,P|465:98|420:88,1,92.8000028320313,8|0,0:0|0:0,0:0:0:0:
478,375,10466,2,0,B|491:330|491:330|480:279,1,92.8000028320313,2|2,3:2|3:2,0:0:0:0:
105,205,10774,2,0,B|92:249|92:249|103:301,1,92.8000028320313,8|2,0:0|0:0,0:0:0:0:
284,378,11082,69,2,3:2:0:0:
312,194,11236,1,2,3:2:0:0:
338,10,11390,1,8,0:0:0:0:
503,107,11542,6,0,P|463:131|418:127,1,92.8000028320313,2|4,0:0|3:0,0:0:0:0:
404,122,11774,1,0,3:0:0:0:
404,108,11851,1,8,0:3:0:0:
418,104,11928,1,8,0:3:0:0:
426,115,12005,1,8,3:3:0:0:
41,368,12159,6,0,B|10:317|27:250|27:250|52:207,1,167.999994873047,6|0,1:2|0:0,0:0:0:0:
246,272,12466,1,0,3:0:0:0:
172,89,12620,2,0,P|168:139|163:185,1,92.8000028320313,10|0,0:0|0:0,0:0:0:0:
346,379,12927,2,0,P|350:329|355:283,1,92.8000028320313,2|2,3:2|3:2,0:0:0:0:
432,177,13236,1,10,0:0:0:0:
509,305,13390,1,0,0:0:0:0:
249,369,13543,5,2,3:2:0:0:
13,226,13697,1,0,3:0:0:0:
266,116,13851,1,10,0:0:0:0:
161,287,14004,2,0,P|152:241|149:195,1,92.8000028320313,2|0,0:0|3:2,0:0:0:0:
380,0,14312,2,0,P|389:45|392:91,1,92.8000028320313,2|8,3:2|0:0,0:0:0:0:
121,71,14620,1,2,3:2:0:0:
144,68,14697,1,2,3:2:0:0:
167,65,14774,69,10,0:0:0:0:
318,340,14928,1,0,3:0:0:0:
305,18,15082,5,10,0:0:0:0:
197,370,15236,1,2,3:2:0:0:
47,133,15390,5,4,0:3:0:0:
451,240,15543,1,8,0:3:0:0:
451,240,15851,1,4,1:2:0:0:
96,294,16005,5,4,1:2:0:0:
390,122,16159,1,0,3:0:0:0:
295,374,16313,70,0,P|295:335|305:296,1,80,4|2,3:0|3:2,0:0:0:0:
217,229,16466,6,0,P|217:199|211:169,1,60.0000022888184,2|2,3:2|3:2,0:0:0:0:
285,61,16620,5,4,1:0:0:0:
202,381,16774,1,2,1:2:0:0:
434,246,17236,5,2,0:0:0:0:
434,162,17390,1,0,0:0:0:0:
506,204,17543,1,2,0:0:0:0:
434,246,17697,1,2,0:0:0:0:
434,162,17851,69,0,0:0:0:0:
358,124,18005,1,0,0:0:0:0:
282,160,18159,1,2,0:0:0:0:
271,243,18313,1,2,0:0:0:0:
227,314,18466,1,0,0:0:0:0:
143,326,18620,1,0,0:0:0:0:
82,267,18774,1,0,0:0:0:0:
151,314,18928,1,2,0:0:0:0:
75,351,19081,5,0,0:0:0:0:
82,267,19235,1,0,0:0:0:0:
89,183,19389,1,2,0:0:0:0:
96,99,19543,1,2,0:0:0:0:
26,53,19696,5,2,0:0:0:0:
91,106,19850,1,0,0:0:0:0:
173,87,20004,1,0,0:0:0:0:
215,14,20158,1,2,0:0:0:0:
259,85,20312,1,0,0:0:0:0:
341,104,20466,1,2,0:0:0:0:
406,51,20620,1,0,0:0:0:0:
334,95,20773,1,2,0:0:0:0:
360,174,20928,5,0,0:0:0:0:
382,256,21082,1,2,0:0:0:0:
463,234,21236,1,0,0:0:0:0:
441,153,21390,1,2,0:0:0:0:
382,256,21543,69,0,0:0:0:0:
360,175,21697,1,0,0:0:0:0:
441,153,21851,1,2,0:0:0:0:
463,235,22005,1,2,0:0:0:0:
296,364,22159,5,0,0:0:0:0:
212,350,22313,1,0,0:0:0:0:
129,337,22466,1,2,0:0:0:0:
45,324,22620,1,2,0:0:0:0:
128,314,22774,5,2,0:0:0:0:
212,301,22928,1,0,0:0:0:0:
295,288,23081,1,2,0:0:0:0:
379,274,23235,1,2,0:0:0:0:
442,218,23390,5,0,0:0:0:0:
404,143,23543,1,2,0:0:0:0:
319,141,23697,1,0,0:0:0:0:
241,173,23851,1,2,0:0:0:0:
161,145,24005,1,0,0:0:0:0:
146,62,24159,1,0,0:0:0:0:
210,7,24313,1,2,0:0:0:0:
289,31,24466,1,2,0:0:0:0:
305,113,24619,69,0,0:0:0:0:
294,196,24774,1,2,0:0:0:0:
337,268,24928,1,0,0:0:0:0:
326,351,25082,1,2,0:0:0:0:
246,379,25236,5,0,0:0:0:0:
173,338,25389,2,0,B|150:345|112:335|112:335|151:345|165:360,1,120.000004577637,2|2,0:1|0:0,0:0:0:0:
493,210,25858,5,2,0:1:0:0:
409,187,26085,5,2,0:1:0:0:
325,162,26312,69,2,0:1:0:0:
242,137,26493,5,2,0:1:0:0:
325,162,26640,5,0,0:0:0:0:
409,187,26787,5,0,0:0:0:0:
493,210,26934,69,2,0:1:0:0:
373,332,27082,6,0,P|334:340|303:365,1,80,4|0,1:2|0:0,0:0:0:0:
97,317,27389,1,2,0:0:0:0:
199,221,27543,2,0,L|211:321,1,80,8|2,0:0|3:2,0:0:0:0:
177,40,27851,2,0,L|186:119,1,80,0|2,3:0|0:0,0:0:0:0:
86,204,28158,6,0,B|50:188|50:188|3:197,1,80,10|0,0:0|0:0,0:0:0:0:
0,353,28466,2,0,B|36:369|36:369|83:360,1,80,2|8,3:2|0:0,0:0:0:0:
44,279,28774,2,0,B|23:118,2,160,0|0|2,0:0|3:0|0:0,0:0:0:0:
221,166,29543,85,0,3:2:0:0:
163,21,29697,2,0,L|154:104,1,80,0|10,0:0|0:0,0:0:0:0:
269,316,30005,2,0,L|278:233,1,80,2|2,0:0|3:2,0:0:0:0:
365,186,30312,2,0,P|402:172|441:175,1,80,2|0,3:2|0:0,0:0:0:0:
184,272,30620,2,0,L|104:260,1,80,10|0,0:0|0:0,0:0:0:0:
349,370,30928,1,0,3:0:0:0:
200,254,31082,2,0,L|120:242,1,80,8|0,0:0|0:0,0:0:0:0:
347,52,31389,5,2,3:2:0:0:
481,33,31543,1,0,3:0:0:0:
500,167,31697,1,8,0:0:0:0:
365,186,31851,1,8,0:0:0:0:
386,174,31928,1,8,0:0:0:0:
408,165,32005,6,0,P|400:224|392:284,1,120.000004577637,2|0,3:2|3:0,0:0:0:0:
422,76,32466,1,8,0:0:0:0:
273,268,32620,6,0,P|332:275|392:283,1,120.000004577637,2|2,0:0|0:0,0:0:0:0:
184,254,33082,1,10,0:0:0:0:
198,165,33235,70,0,P|205:105|213:45,1,120.000004577637,0|8,0:0|0:0,0:0:0:0:
184,254,33697,1,0,0:0:0:0:
332,61,33851,6,0,P|272:53|212:45,1,120.000004577637,2|8,3:2|0:0,0:0:0:0:
421,75,34312,1,2,0:0:0:0:
320,356,34466,6,0,B|285:330|230:325|191:357|191:357|206:318|241:314,2,191.999994140625,2|8|0,3:2|0:0|3:0,0:0:0:0:
488,223,35235,1,8,0:0:0:0:
482,251,35312,1,8,0:0:0:0:
477,279,35389,1,8,0:0:0:0:
355,176,35543,6,0,L|349:139,1,23.9999992675781,4|0,3:2|0:0,0:0:0:0:
141,245,35851,70,0,L|147:208,1,23.9999992675781,2|0,3:0|0:0,0:0:0:0:
256,368,36005,5,8,0:0:0:0:
397,312,36158,6,0,L|391:275,1,23.9999992675781,4|0,3:2|0:0,0:0:0:0:
132,79,36466,5,8,3:0:0:0:
115,62,36543,1,8,3:0:0:0:
132,45,36620,1,8,3:0:0:0:
148,62,36697,1,8,3:0:0:0:
132,79,36774,69,4,3:0:0:0:
122,160,36851,1,4,3:0:0:0:
113,241,36928,1,4,3:1:0:0:
113,241,37543,5,2,0:0:0:0:
282,205,37851,5,2,0:0:0:0:
166,77,38158,5,2,0:0:0:0:
113,241,38620,69,2,0:0:0:0:
282,205,39082,5,2,0:0:0:0:
455,31,39389,6,0,B|417:46|417:46|384:99|429:154|485:135,2,192,2|2|2,0:0|0:0|0:0,0:0:0:0:
25,330,40620,6,0,B|84:373|170:352|168:252|109:311,2,192,2|2|2,0:0|0:0|0:0,0:0:0:0:
287,24,41851,69,2,0:0:0:0:
270,176,42158,5,2,0:0:0:0:
252,328,42466,5,2,0:0:0:0:
270,176,42774,5,2,0:0:0:0:
287,24,43082,69,2,0:0:0:0:
270,176,43543,5,2,0:0:0:0:
252,328,44005,5,2,0:0:0:0:
98,126,44312,6,0,B|74:128|54:147|54:147|-11:155|-49:73|20:23|62:52,2,240,2|2|2,0:0|0:0|0:0,0:0:0:0:
161,72,45389,2,0,L|169:18,2,40,4|4|4,0:3|0:3|0:3,0:0:0:0:
280,374,46005,69,8,0:3:0:0:
253,5,46466,5,8,0:3:0:0:
280,374,46774,6,0,B|288:333|288:333|282:295,1,80,4|2,3:2|0:0,0:0:0:0:
169,253,47082,2,0,L|88:268,1,80,2|2,3:2|0:0,0:0:0:0:
293,150,47389,1,2,3:2:0:0:
293,150,47697,1,0,3:0:0:0:
210,103,47851,1,2,0:0:0:0:
378,197,48005,6,0,L|459:182,1,80,2|2,3:2|0:0,0:0:0:0:
267,384,48312,2,0,L|257:293,1,80,2|0,3:2|0:0,0:0:0:0:
248,205,48620,1,2,3:2:0:0:
387,320,48774,1,2,1:3:0:0:
403,310,48851,1,0,0:0:0:0:
140,339,49005,1,0,0:0:0:0:
124,329,49082,1,2,1:3:0:0:
248,205,49235,69,0,3:2:0:0:
223,84,49389,1,2,0:0:0:0:
248,205,49543,1,2,3:2:0:0:
223,84,49697,1,2,0:0:0:0:
332,242,49851,2,0,B|260:225|256:280|176:262,1,160,2|0,3:2|3:0,0:0:0:0:
61,132,50312,1,2,0:0:0:0:
12,243,50466,6,0,P|51:238|91:245,1,80,2|2,3:2|0:0,0:0:0:0:
96,25,50774,2,0,P|56:29|16:22,1,80,6|0,3:2|0:0,0:0:0:0:
172,143,51082,1,2,3:2:0:0:
172,143,51235,1,8,3:0:0:0:
227,148,51312,1,8,3:0:0:0:
276,122,51389,1,8,3:0:0:0:
291,68,51466,1,8,3:0:0:0:
329,27,51543,1,4,3:0:0:0:
385,28,51620,1,4,3:0:0:0:
428,63,51697,6,0,P|452:103|449:150,1,95.9999970703126,4|2,1:2|3:2,0:0:0:0:
248,372,52005,2,0,P|248:325|275:286,1,95.9999970703126,4|2,1:2|3:2,0:0:0:0:
377,227,52312,1,8,0:3:0:0:
91,104,52466,1,2,3:2:0:0:
248,372,52620,1,2,3:2:0:0:
318,23,52774,1,4,1:2:0:0:
18,247,52928,5,2,3:2:0:0:
256,192,53082,1,8,3:0:0:0:
494,137,53235,1,4,1:2:0:0:
135,23,53389,1,8,3:0:0:0:
130,24,53466,1,8,3:0:0:0:
126,26,53543,69,8,3:0:0:0:
148,109,53697,1,4,3:0:0:0:
232,87,53851,1,4,3:0:0:0:
209,3,54005,1,2,3:2:0:0:
250,380,54158,6,0,L|256:327,1,48,4|8,1:2|0:0,0:0:0:0:
181,264,54466,6,0,B|163:213|163:213|126:259|126:259|204:251,1,160,8|8,0:0|0:0,0:0:0:0:
331,264,54620,6,0,B|349:213|349:213|386:259|386:259|308:251,1,160,8|8,0:0|0:0,0:0:0:0:
378,129,54774,70,0,B|368:70|417:24|462:94|376:159,1,160,8|8,0:0|0:0,0:0:0:0:
134,129,54928,6,0,B|144:70|95:24|50:94|136:159,1,160,8|8,0:0|0:0,0:0:0:0:
273,14,55082,5,8,0:0:0:0:
273,14,55158,1,8,0:0:0:0:
273,14,55235,2,0,P|261:93|252:172,1,160,4|0,3:2|0:0,0:0:0:0:
476,325,55699,21,10,0:0:0:0:
0,170,56032,2,0,P|78:156|161:142,1,160,2|0,0:0|0:0,0:0:0:0:
160,113,56365,2,0,P|81:127|2:140,1,160,2|0,0:0|0:0,0:0:0:0:
496,139,56695,6,0,B|488:121|488:121|452:79|350:79|328:170|356:215,1,240,6|0,3:2|0:0,0:0:0:0:
422,271,57028,2,0,L|516:258,1,92.0000017547608,8|0,0:0|0:0,0:0:0:0:
204,107,57361,1,2,3:2:0:0:
306,379,57528,2,0,B|319:334|319:334|308:283,1,92.0000017547608,2|8,0:0|0:0,0:0:0:0:
125,17,57861,6,0,P|120:62|115:111,1,92.0000017547608,2|0,0:0|3:0,0:0:0:0:
431,61,58195,2,0,P|386:56|337:51,1,92.0000017547608,2|8,0:0|0:0,0:0:0:0:
387,367,58528,2,0,P|392:322|397:273,1,92.0000017547608,2|0,0:0|3:0,0:0:0:0:
81,323,58862,2,0,P|126:328|175:333,1,92.0000017547608,2|8,0:0|0:0,0:0:0:0:
172,332,59195,1,0,0:0:0:0:
512,159,59361,6,0,B|466:149|452:169|390:230|315:152|360:80|420:105,1,240.000009155274,6|8,3:2|0:0,0:0:0:0:
495,32,59861,1,0,0:0:0:0:
266,187,60028,1,2,3:2:0:0:
447,367,60195,2,0,P|451:324|462:273,1,92.0000017547608,2|8,0:0|0:0,0:0:0:0:
315,15,60528,70,0,L|327:109,1,92.0000017547608,2|0,0:0|3:2,0:0:0:0:
158,384,60861,2,0,L|146:290,1,92.0000017547608,2|12,0:0|0:0,0:0:0:0:
452,338,61194,2,0,B|411:357|411:357|368:337,1,92.0000017547608,2|2,0:0|3:0,0:0:0:0:
289,277,61444,1,0,3:0:0:0:
291,268,61528,1,2,3:2:0:0:
253,233,61611,1,0,3:0:0:0:
202,235,61694,1,2,3:0:0:0:
169,274,61778,1,0,3:0:0:0:
173,324,61861,1,2,3:2:0:0:
142,364,61944,1,0,3:0:0:0:
91,361,62028,6,0,L|-26:350,1,90.0000034332277,4|0,3:2|0:0,0:0:0:0:
39,177,62361,6,0,L|52:278,1,92.0000017547608,8|0,0:0|0:0,0:0:0:0:
330,90,62694,2,0,L|317:191,1,92.0000017547608,2|2,3:2|0:0,0:0:0:0:
149,0,63028,1,8,0:0:0:0:
211,308,63194,1,2,0:0:0:0:
149,0,63361,5,0,3:2:0:0:
215,64,63528,1,0,0:0:0:0:
145,123,63694,2,0,L|36:111,1,92.0000017547608,10|0,0:0|0:0,0:0:0:0:
221,341,64028,2,0,B|231:295|231:295|221:251,1,92.0000017547608,2|2,3:2|0:0,0:0:0:0:
112,292,64361,1,8,0:0:0:0:
342,350,64528,70,0,B|408:343|456:370|456:370|491:352|487:311,1,184.000003509522,2|0,0:0|0:0,0:0:0:0:
413,48,65028,2,0,P|408:85|403:139,1,92.0000017547608,8|0,0:0|0:0,0:0:0:0:
228,384,65361,2,0,P|232:341|237:292,1,92.0000017547608,2|2,3:2|0:0,0:0:0:0:
0,234,65694,6,0,L|119:220,1,120.000004577637,12|2,0:0|0:0,0:0:0:0:
278,199,66028,5,2,3:2:0:0:
187,15,66194,2,0,B|174:60|174:60|185:111,1,92.8000028320313,2|12,3:2|0:0,0:0:0:0:
371,370,66528,2,0,B|384:325|384:325|373:274,1,92.0000017547608,2|12,0:0|3:2,0:0:0:0:
436,206,66861,2,0,L|495:191,1,46.0000008773804,10|8,0:0|0:0,0:0:0:0:
431,185,67028,2,0,L|490:170,1,46.0000008773804,8|8,0:0|2:2,0:0:0:0:
352,124,67194,1,0,3:0:0:0:
370,369,67361,6,0,B|381:363|381:363|361:264|215:286|217:388,1,240,14|0,1:2|0:0,0:0:0:0:
0,316,67694,2,0,L|119:302,1,120.000004577637,8|0,1:2|3:0,0:0:0:0:
251,183,68028,1,10,1:2:0:0:
0,67,68194,1,2,3:2:0:0:
327,26,68361,69,8,1:2:0:0:
9,179,68528,1,2,3:2:0:0:
327,26,68694,1,8,1:2:0:0:
9,179,68861,6,0,L|112:170,1,92.0000017547608,2|8,3:2|1:2,0:0:0:0:
512,201,69194,2,0,L|409:210,1,92.0000017547608,2|8,3:2|1:2,0:0:0:0:
310,153,69528,1,2,3:2:0:0:
479,60,69694,1,8,1:2:0:0:
350,372,70028,6,0,P|353:334|366:297,1,68.0000012969971,14|0,1:2|0:0,0:0:0:0:
182,97,70194,1,0,3:0:0:0:
162,372,70361,6,0,P|159:334|146:297,1,68.0000012969971,12|0,1:2|0:0,0:0:0:0:
330,97,70527,1,0,3:0:0:0:
361,384,70694,70,0,P|364:346|377:309,1,68.0000012969971,14|0,1:2|0:0,0:0:0:0:
181,80,70860,1,2,3:2:0:0:
151,384,71028,6,0,P|148:346|135:309,1,68.0000012969971,12|0,1:2|0:0,0:0:0:0:
331,80,71193,1,2,3:2:0:0:
51,184,71361,5,12,1:2:0:0:
455,241,71528,1,2,3:2:0:0:
35,291,71694,5,12,1:2:0:0:
343,205,71861,1,2,3:2:0:0:
5,88,72028,69,8,0:0:0:0:
5,88,72194,1,10,0:0:0:0:
31,83,72278,1,8,0:0:0:0:
57,78,72361,1,8,0:0:0:0:
83,73,72444,1,8,0:0:0:0:
110,68,72528,1,10,0:0:0:0:
136,64,72611,1,8,0:0:0:0:
161,60,72694,6,0,L|151:135,1,66.0000020141602,4|0,3:2|0:0,0:0:0:0:
134,211,73028,6,0,B|92:223|92:223|43:209,1,92.0000017547608,10|0,0:0|0:0,0:0:0:0:
258,93,73361,1,2,3:2:0:0:
134,323,73528,2,0,B|92:335|92:335|43:321,1,92.0000017547608,2|8,0:0|0:0,0:0:0:0:
286,254,73861,6,0,B|341:214|404:225|433:246|415:310|358:266,1,184.000003509522,2|0,0:0|0:0,0:0:0:0:
377,277,74361,2,0,L|395:188,1,92.0000017547608,10|0,0:0|0:0,0:0:0:0:
140,148,74694,1,2,3:2:0:0:
250,384,74861,2,0,L|267:294,1,92.0000017547608,2|10,0:0|0:0,0:0:0:0:
290,196,75194,1,2,0:0:0:0:
20,327,75361,69,2,3:2:0:0:
176,299,75528,1,0,0:0:0:0:
204,134,75694,1,8,0:0:0:0:
48,162,75861,1,0,0:0:0:0:
18,337,76028,5,2,3:2:0:0:
174,309,76195,1,2,0:0:0:0:
202,144,76361,1,12,0:0:0:0:
46,172,76528,1,2,0:0:0:0:
271,371,76694,6,0,L|328:364,1,46.0000008773804,4|0,3:2|3:0,0:0:0:0:
512,212,76861,2,0,P|486:208|458:204,1,54.0000002059937,0|0,3:0|3:0,0:0:0:0:
332,7,77028,5,8,0:0:0:0:
331,52,77111,1,8,0:0:0:0:
304,88,77194,1,8,0:0:0:0:
261,102,77277,1,8,0:0:0:0:
218,87,77361,1,8,3:0:0:0:
204,89,77444,1,8,3:0:0:0:
190,91,77528,1,8,3:0:0:0:
178,93,77611,1,8,3:0:0:0:
166,95,77682,69,8,0:0:0:0:
90,51,77763,5,8,0:0:0:0:
91,140,77845,5,8,0:0:0:0:
157,83,77926,5,8,0:0:0:0:
82,49,78008,70,0,L|38:57,1,35.9999989013672,2|0,3:2|0:0,0:0:0:0:
46,55,78387,6,0,B|35:69|35:69|50:174,1,103.999995239258,4|2,1:2|0:0,0:0:0:0:
265,21,78714,1,0,3:0:0:0:
198,306,78878,2,0,B|209:292|209:292|194:187,1,103.999995239258,0|10,0:0|0:2,0:0:0:0:
99,269,79206,1,2,0:0:0:0:
359,352,79370,2,0,B|370:338|370:338|355:233,1,103.999995239258,0|2,3:0|0:0,0:0:0:0:
311,13,79703,2,0,L|300:139,1,103.999995239258,10|0,0:2|0:0,0:0:0:0:
472,265,80036,5,2,3:2:0:0:
444,98,80203,1,2,0:0:0:0:
474,279,80370,1,10,0:2:0:0:
442,84,80537,1,2,0:0:0:0:
152,160,80703,5,2,3:2:0:0:
301,354,80870,2,0,L|416:337,1,103.999995239258,2|8,0:0|0:2,0:0:0:0:
152,160,81203,1,2,0:0:0:0:
458,241,81370,2,0,L|355:256,1,103.999995239258,2|0,3:2|0:0,0:0:0:0:
512,149,81703,1,10,0:2:0:0:
187,334,81870,2,0,L|84:318,1,103.999995239258,2|0,0:0|3:0,0:0:0:0:
512,149,82203,1,0,3:0:0:0:
8,243,82370,70,0,B|23:224|23:224|211:249|211:249|228:227,1,240,14|0,0:2|0:0,0:0:0:0:
270,147,82703,6,0,L|261:73,3,60.0000022888184,2|10|10|2,3:2|0:0|0:2|0:0,0:0:0:0:
252,0,83286,1,0,0:0:0:0:
253,10,83370,5,2,3:2:0:0:
381,244,83536,2,0,B|392:230|392:230|377:125,1,103.999995239258,2|8,0:0|0:2,0:0:0:0:
26,260,83870,1,2,0:0:0:0:
182,384,84036,2,0,B|170:370|170:370|185:265,1,103.999995239258,2|0,3:2|0:0,0:0:0:0:
484,194,84354,1,10,0:2:0:0:
363,42,84520,2,0,B|358:87|358:87|359:92|359:92|351:152,1,103.999995239258,2|0,0:0|3:0,0:0:0:0:
122,115,84854,1,2,0:0:0:0:
264,379,85020,2,0,B|259:334|259:334|260:329|260:329|252:269,1,103.999995239258,10|0,0:2|0:0,0:0:0:0:
22,237,85354,5,2,3:2:0:0:
245,192,85520,1,2,0:0:0:0:
30,219,85687,1,10,0:2:0:0:
253,174,85853,1,2,0:0:0:0:
144,331,86020,69,2,3:2:0:0:
375,98,86187,2,0,B|406:139|406:139|397:194,1,103.999995239258,2|8,0:0|0:2,0:0:0:0:
131,63,86520,5,2,0:0:0:0:
334,321,86687,2,0,B|290:347|290:347|236:331,1,103.999995239258,2|0,3:2|0:0,0:0:0:0:
398,84,87020,5,10,0:0:0:0:
117,254,87187,2,0,B|97:207|97:207|119:155,1,103.999995239258,2|0,0:0|0:0,0:0:0:0:
249,10,87369,5,4,1:2:0:0:
293,380,87536,1,0,3:0:0:0:
205,261,87703,2,0,L|218:130,1,120.000004577637,4|0,1:2|3:0,0:0:0:0:
9,18,88036,69,8,0:0:0:0:
112,60,88203,5,8,0:0:0:0:
2,51,88369,5,8,0:0:0:0:
78,6,88536,6,0,B|126:7|151:13|172:45|172:45|163:47|163:47|186:90|239:95|289:59,1,240.000009155274,8|0,0:0|0:0,0:0:0:0:
