osu file format v14

[General]
AudioFilename: audio.mp3
AudioLeadIn: 0
PreviewTime: 6657
Countdown: 0
SampleSet: Soft
StackLeniency: 0.3
Mode: 0
LetterboxInBreaks: 0
EpilepsyWarning: 1
WidescreenStoryboard: 1

[Editor]
Bookmarks: 79057
DistanceSpacing: 1.5
BeatDivisor: 16
GridSize: 32
TimelineZoom: 1.500006

[Metadata]
Title:MIIRO vs. Ai no Scenario
TitleUnicode:海色 vs. アイのシナリオ
Artist:Roselia & Afterglow
ArtistUnicode:Roselia & Afterglow
Creator:-Mikan
Version:piroshki's Advanced
Source:バンドリ!ガールズバンドパーティ!
Tags:Akitoshi -Laura- Corinn MashaSG schoolboy Komore domSaur -Aqua Blitzifyyy Djulus ktgster lit120 iljaaz Shizuku- piroshki AKINO from bless4 CHiCO with HoneyWorks みいろ opening kantai collection kancolle fleet girls magic kaito 1412 まじっく快斗1412 艦隊これくしょん -艦これ- BanG Dream! Girls Band Party! Garupa Bandori! ガルパ! japanese anime edit tatoe tatowe video game アフターグロウ Mitake Ran 美竹 蘭 Sakura Ayane 佐倉綾音 Aoba Moca 青葉 モカ Misawa Sachika 三澤紗千香 Uehara Himari 上原 ひまり Katou Emiri 加藤 英美里 Udagawa Tomoe 宇田川 巴 Hikasa Yoko 日笠陽子 Hazawa Tsugumi 羽沢 つぐみ Kanemoto Hisako 金元 寿子 ロゼリア minato yukina 湊友希那 aiba aina 相羽あいな hikawa sayo 氷川紗夜 kudou haruka 工藤晴香 imai lisa 今井リサ endou yurika 遠藤ゆりか nakashima yuki 中島由貴 udagawa ako 宇田川あこ sakuragawa megu 櫻川めぐ shirokane rinko 白金燐子 akesaka satomi 明坂聡美
BeatmapID:2170635
BeatmapSetID:1035849

[Difficulty]
HPDrainRate:4.5
CircleSize:3.4
OverallDifficulty:5
ApproachRate:7
SliderMultiplier:1.1
SliderTickRate:1

[Events]
//Background and Video events
0,0,"032865d41b9ce03fbbd2130325900d0ead2ed12f_s2_n2.jpg",0,0
//Break Periods
2,37127,45709
//Storyboard Layer 0 (Background)
//Storyboard Layer 1 (Fail)
//Storyboard Layer 2 (Pass)
//Storyboard Layer 3 (Foreground)
//Storyboard Layer 4 (Overlay)
//Storyboard Sound Samples

[TimingPoints]
1100,368.098159509202,4,2,1,60,1,0
1238,307.692307692308,4,2,1,60,1,0
1238,-100,4,2,1,60,0,0
3699,-100,4,2,1,60,0,0
4930,314.13612565445,4,2,1,70,1,0
4930,-100,4,2,1,70,0,0
6775,307.692307692308,4,2,1,60,1,0
6775,-100,4,2,1,60,0,0
7159,-100,4,2,1,5,0,0
7236,-100,4,2,1,80,0,0
7389,307.692307692308,4,2,1,80,1,0
7389,-100,4,2,1,80,0,0
16927,-100,4,2,1,50,0,0
17235,-100,4,2,1,55,0,0
25696,324.324324324324,4,2,1,60,1,0
25858,303.030303030303,4,2,1,70,1,0
26009,-100,4,2,1,70,0,0
26085,-100,4,2,1,70,0,0
26236,-100,4,2,1,5,0,0
26312,363.636363636364,4,2,1,70,1,0
26402,-100,4,2,1,5,0,0
26493,294.117647058824,4,2,1,70,1,0
26640,-100,4,2,1,70,0,0
26713,-100,4,2,1,70,0,0
26860,-100,4,2,1,5,0,0
26934,300,4,2,1,70,1,0
27009,-100,4,2,1,5,0,0
27082,307.692307692308,4,2,1,65,1,0
27082,-100,4,2,1,65,0,0
36928,-100,4,2,1,50,0,0
46774,-100,4,2,1,70,0,0
51697,-100,4,2,1,80,0,0
55699,333.333333333333,4,2,1,60,1,0
55699,-100,4,2,1,60,0,0
55949,-100,4,2,1,5,0,0
56032,-100,4,2,1,60,0,0
56282,-100,4,2,1,5,0,0
56365,-100,4,2,1,60,0,0
56611,-100,4,2,1,60,0,0
56615,-100,4,2,1,5,0,0
56695,333.333333333333,4,2,1,80,1,0
56695,-100,4,2,1,80,0,1
67194,-100,4,2,1,80,0,0
67361,-100,4,2,1,90,0,1
70028,-100,4,2,1,100,0,1
72694,-100,4,2,1,80,0,1
77682,326.086956521739,4,2,1,80,1,0
77682,-100,4,2,1,80,0,1
78008,352.941176470588,4,2,1,80,1,0
78008,-100,4,2,1,80,0,0
78272,-100,4,2,1,80,0,0
78387,327.868852459016,4,2,1,70,1,0
78387,-100,4,2,1,70,0,1
78550,-100,4,2,1,70,0,0
79206,-101.010101010101,4,2,1,70,0,0
79370,333.333333333333,4,2,1,70,1,0
79370,-100,4,2,1,70,0,0
84036,-91.743119266055,4,2,1,70,0,0
84354,333.333333333333,4,2,1,70,1,0
87369,333.333333333333,4,2,1,80,1,0
87369,-100,4,2,1,80,0,0
88203,-100,4,2,1,85,0,0
88369,-100,4,2,1,90,0,0
88536,-100,4,2,1,95,0,0

[Colours]
Combo1 : 213,0,106
Combo2 : 167,167,211
Combo3 : 106,181,255
Combo4 : 254,156,249
Combo5 : 162,255,255
Combo6 : 255,108,108
Combo7 : 255,157,111
Combo8 : 255,255,123

[HitObjects]
374,34,1238,5,2,0:0:0:0:
273,149,1545,2,0,L|292:257,1,110,0|2,0:0|0:0,0:0:0:0:
194,376,2161,2,0,P|167:370|142:357,1,55,0|2,0:0|0:0,0:0:0:0:
79,313,2468,6,0,P|100:232|84:148,2,165,2|2|2,0:0|0:0|0:0,0:0:0:0:
0,180,3699,2,0,P|-2:100|61:50,2,165,2|2|2,0:0|0:0|0:0,0:0:0:0:
113,294,4930,6,0,L|177:275,1,55,2|0,0:1|0:0,0:0:0:0:
234,323,5244,1,0,0:0:0:0:
310,351,5401,2,0,P|338:352|363:342,2,55,2|0|0,0:1|0:0|0:0,0:0:0:0:
317,269,5872,2,0,L|321:206,1,55,2|0,0:1|0:0,0:0:0:0:
387,168,6186,1,0,0:0:0:0:
453,119,6343,2,0,L|510:128,2,55,2|0|0,0:1|0:0|0:0,0:0:0:0:
157,22,7236,6,0,P|117:51|50:67,1,110,6|0,1:2|3:0,0:0:0:0:
14,131,7696,2,0,P|2:186|16:240,1,110,10|2,0:0|3:2,0:0:0:0:
75,295,8158,1,2,3:2:0:0:
75,295,8312,2,0,L|129:285,1,55,10|0,0:0|0:0,0:0:0:0:
207,313,8619,2,0,L|315:294,1,110,2|10,3:2|0:0,0:0:0:0:
391,332,9081,1,2,0:0:0:0:
390,332,9235,2,0,P|415:280|409:226,1,110,0|10,3:0|0:0,0:0:0:0:
447,158,9696,70,0,P|413:111|364:89,1,110,6|0,1:2|3:0,0:0:0:0:
309,37,10158,2,0,P|259:59|204:64,1,110,8|2,0:0|3:2,0:0:0:0:
131,37,10619,1,2,3:2:0:0:
131,36,10773,2,0,P|112:62|105:85,1,55,8|2,0:0|0:0,0:0:0:0:
141,151,11081,2,0,P|150:177|154:205,1,55,2|2,3:2|3:2,0:0:0:0:
110,269,11389,2,0,L|0:259,2,110,8|4|8,0:0|3:0|3:3,0:0:0:0:
170,320,12158,6,0,L|279:328,1,110,6|0,1:2|3:0,0:0:0:0:
350,364,12619,2,0,P|365:341|374:315,1,55,10|0,0:0|0:0,0:0:0:0:
335,247,12927,2,0,P|314:194|320:141,1,110,2|10,3:2|0:0,0:0:0:0:
369,81,13389,1,0,0:0:0:0:
369,81,13542,2,0,L|426:75,1,55,2|0,3:2|3:0,0:0:0:0:
493,36,13850,2,0,P|510:87|498:141,1,110,10|0,0:0|3:2,0:0:0:0:
483,220,14312,1,2,3:2:0:0:
483,220,14465,2,0,L|428:223,1,55,8|2,0:0|3:2,0:0:0:0:
361,270,14773,6,0,P|325:253|306:229,1,55,10|0,0:0|3:0,0:0:0:0:
240,221,15081,2,0,P|236:181|248:152,1,55,10|2,0:0|3:2,0:0:0:0:
300,114,15389,1,4,0:3:0:0:
300,114,15542,2,0,P|299:86|291:60,1,55,8|0,0:3|3:3,0:0:0:0:
234,7,15850,1,4,1:2:0:0:
234,7,16004,2,0,P|179:8|132:36,1,110,4|4,1:2|3:0,0:0:0:0:
39,158,16619,1,4,1:0:0:0:
39,158,16773,2,0,L|51:225,1,55,2|2,1:2|0:0,0:0:0:0:
50,366,17235,6,0,L|159:352,1,110,2|2,0:0|0:0,0:0:0:0:
236,371,17696,2,0,P|254:319|242:266,1,110,2|0,0:0|0:0,0:0:0:0:
181,124,18312,1,2,0:0:0:0:
230,58,18465,2,0,L|339:66,1,110,0|0,0:0|0:0,0:0:0:0:
408,25,18927,2,0,P|440:70|443:124,1,110,2|0,0:0|0:0,0:0:0:0:
381,176,19389,2,0,P|368:201|362:228,1,55,2|2,0:0|0:0,0:0:0:0:
414,290,19696,70,0,P|368:319|314:318,1,110,2|0,0:0|0:0,0:0:0:0:
251,271,20158,2,0,L|196:276,1,55,2|0,0:0|0:0,0:0:0:0:
142,330,20465,1,2,0:0:0:0:
188,171,20773,2,0,L|206:107,1,55,2|0,0:0|0:0,0:0:0:0:
220,36,21081,2,0,L|110:44,2,110,2|2|0,0:0|0:0|0:0,0:0:0:0:
295,70,21850,2,0,L|349:66,1,55,2|2,0:0|0:0,0:0:0:0:
417,17,22158,1,0,0:0:0:0:
492,151,22465,6,0,L|487:205,1,55,2|2,0:0|0:0,0:0:0:0:
505,282,22773,2,0,P|480:296|453:300,1,55,2|0,0:0|0:0,0:0:0:0:
392,249,23081,1,2,0:0:0:0:
392,249,23235,2,0,P|342:215|291:212,1,110,2|2,0:0|0:0,0:0:0:0:
203,334,23850,2,0,P|153:368|102:371,1,110,2|0,0:0|0:0,0:0:0:0:
50,314,24312,1,2,0:0:0:0:
50,314,24465,6,0,L|59:204,1,110,2|2,0:0|0:0,0:0:0:0:
28,51,25081,2,0,P|84:21|186:48,1,165,2|2,0:0|0:0,0:0:0:0:
235,96,25696,1,2,0:0:0:0:
168,242,27082,6,0,P|227:226|283:228,1,110,4|2,1:2|0:0,0:0:0:0:
351,265,27543,1,8,0:0:0:0:
350,265,27697,2,0,P|380:219|383:165,1,110,2|2,3:2|0:0,0:0:0:0:
431,98,28158,2,0,P|392:58|343:36,1,110,10|2,0:0|3:2,0:0:0:0:
263,57,28620,1,8,0:0:0:0:
263,56,28774,2,0,P|240:71|213:79,1,55,0|2,0:0|3:2,0:0:0:0:
149,26,29082,2,0,P|126:11|99:3,1,55,0|8,3:0|0:0,0:0:0:0:
27,43,29389,70,0,L|45:151,1,110,2|0,0:0|0:0,0:0:0:0:
24,232,29851,1,10,0:0:0:0:
24,232,30005,2,0,L|137:250,1,110,2|2,0:0|3:2,0:0:0:0:
245,363,30620,2,0,L|353:342,1,110,10|0,0:0|3:0,0:0:0:0:
432,368,31082,2,0,P|454:312|454:311,1,55,8|0,0:0|0:0,0:0:0:0:
413,246,31389,2,0,P|402:209|401:181,1,55,2|0,3:2|3:0,0:0:0:0:
341,134,31697,2,0,P|367:105|391:91,1,55,8|8,0:0|0:0,0:0:0:0:
426,27,32005,6,0,P|376:2|322:0,1,110,2|0,3:2|3:0,0:0:0:0:
254,47,32466,1,8,0:0:0:0:
254,47,32620,2,0,P|221:67|205:73,1,55,2|0,0:0|3:0,0:0:0:0:
141,124,32928,2,0,P|108:104|92:98,1,55,2|10,0:0|0:0,0:0:0:0:
13,120,33235,2,0,L|21:229,1,110,0|8,0:0|0:0,0:0:0:0:
28,312,33697,1,0,0:0:0:0:
28,312,33851,2,0,L|85:302,1,55,2|0,3:2|3:0,0:0:0:0:
156,338,34158,2,0,L|213:328,1,55,8|2,0:0|0:0,0:0:0:0:
289,354,34466,6,0,P|305:288|287:242,1,110,2|8,3:2|0:0,0:0:0:0:
241,183,34928,1,2,0:0:0:0:
241,183,35082,2,0,P|221:124|236:78,1,110,0|8,3:0|0:0,0:0:0:0:
299,29,35543,1,4,3:2:0:0:
454,81,35851,2,0,P|465:135|450:187,1,110,2|4,3:0|3:2,0:0:0:0:
434,352,36466,1,8,3:0:0:0:
434,352,36620,2,0,L|324:362,1,110,8|4,3:0|3:1,0:0:0:0:
24,138,46774,5,4,3:2:0:0:
23,138,46928,2,0,P|44:119|71:109,1,55,2|2,0:0|3:2,0:0:0:0:
149,129,47235,1,2,0:0:0:0:
148,128,47389,2,0,L|203:132,1,55,2|0,3:2|0:0,0:0:0:0:
368,136,47851,1,2,0:0:0:0:
368,136,48005,2,0,P|372:109|364:82,2,55,2|2|2,3:2|0:0|3:2,0:0:0:0:
273,271,48620,1,2,3:2:0:0:
273,271,48774,2,0,P|298:281|319:299,1,55,2|2,1:3|3:2,0:0:0:0:
352,375,49082,2,0,P|380:375|406:366,1,55,2|0,1:3|3:2,0:0:0:0:
442,291,49389,69,2,0:0:0:0:
442,291,49543,2,0,L|425:217,2,55,2|2|2,3:2|0:0|3:2,0:0:0:0:
472,128,50158,1,0,3:0:0:0:
472,128,50312,2,0,P|453:107|428:96,1,55,2|2,0:0|3:2,0:0:0:0:
368,38,50620,1,2,0:0:0:0:
368,38,50774,2,0,P|313:61|239:53,2,110,6|2|8,3:2|3:2|3:0,0:0:0:0:
448,20,51543,1,4,3:0:0:0:
501,83,51697,6,0,L|489:142,1,55,4|2,1:2|3:2,0:0:0:0:
417,177,52005,2,0,L|429:236,1,55,4|2,1:2|3:2,0:0:0:0:
457,311,52312,1,8,0:3:0:0:
457,311,52466,1,2,3:2:0:0:
393,363,52620,2,0,L|338:356,1,55,2|4,3:2|1:2,0:0:0:0:
256,369,52928,6,0,L|146:354,1,110,2|4,3:2|1:2,0:0:0:0:
66,374,53389,1,8,3:0:0:0:
66,374,53543,1,8,3:0:0:0:
7,316,53697,2,0,L|19:250,1,55,4|4,3:0|3:0,0:0:0:0:
78,206,54005,1,2,3:2:0:0:
256,192,54158,12,4,55697,1:2:0:0:
274,375,56695,22,0,P|239:334|189:312,1,110,6|8,3:2|0:0,0:0:0:0:
119,268,57195,1,0,0:0:0:0:
118,268,57361,2,0,P|107:292|106:320,2,55,2|2|8,3:2|0:0|0:0,0:0:0:0:
179,212,57861,2,0,P|192:158|179:105,1,110,2|2,0:0|0:0,0:0:0:0:
106,67,58361,1,8,0:0:0:0:
106,67,58528,2,0,P|147:29|200:26,1,110,2|2,0:0|0:0,0:0:0:0:
279,8,59028,2,0,P|296:35|304:73,1,55,8|0,0:0|0:0,0:0:0:0:
361,114,59361,6,0,L|351:223,1,110,6|8,3:2|0:0,0:0:0:0:
398,295,59861,1,0,0:0:0:0:
398,294,60028,2,0,P|355:326|300:328,1,110,2|8,3:2|0:0,0:0:0:0:
228,288,60528,2,0,P|177:259|126:250,1,110,2|2,0:0|0:0,0:0:0:0:
53,211,61028,2,0,P|38:235|28:260,1,55,12|2,0:0|0:0,0:0:0:0:
33,343,61361,2,0,L|157:342,1,110,2|2,3:0|3:0,0:0:0:0:
221,369,61861,1,2,3:2:0:0:
221,369,62028,1,4,3:2:0:0:
356,274,62361,6,0,P|335:223|293:189,1,110,8|2,0:0|3:2,0:0:0:0:
210,189,62861,2,0,P|198:163|194:136,1,55,2|8,0:0|0:0,0:0:0:0:
224,60,63194,2,0,L|333:69,1,110,2|0,0:0|0:0,0:0:0:0:
403,33,63694,2,0,P|429:44|448:63,1,55,10|2,0:0|3:2,0:0:0:0:
479,140,64028,1,2,3:2:0:0:
479,140,64194,2,0,L|466:206,1,55,2|8,0:0|0:0,0:0:0:0:
420,262,64528,6,0,L|311:246,1,110,2|0,0:0|0:0,0:0:0:0:
236,211,65028,1,8,0:0:0:0:
236,211,65194,2,0,L|181:218,1,55,0|2,0:0|3:2,0:0:0:0:
43,316,65694,2,0,L|28:259,1,55,12|0,0:0|0:0,0:0:0:0:
6,182,66028,69,2,3:2:0:0:
6,182,66194,2,0,P|25:131|68:97,1,110,2|2,3:2|0:0,0:0:0:0:
127,39,66694,1,12,3:2:0:0:
127,39,66861,2,0,P|183:55|243:49,1,110,10|0,0:0|3:0,0:0:0:0:
308,18,67361,6,0,P|361:1|414:16,1,110,14|8,1:2|1:2,0:0:0:0:
487,57,67861,1,0,3:0:0:0:
487,57,68028,2,0,L|477:111,1,55,10|2,1:2|3:2,0:0:0:0:
505,192,68361,1,8,1:2:0:0:
505,192,68528,1,2,3:2:0:0:
460,260,68694,2,0,L|385:253,1,55,8|2,1:2|3:2,0:0:0:0:
332,295,69028,1,8,1:2:0:0:
332,295,69194,2,0,L|278:282,1,55,2|8,3:2|1:2,0:0:0:0:
197,262,69528,2,0,P|196:294|205:326,2,55,2|8|0,3:2|1:2|3:0,0:0:0:0:
232,187,70028,6,0,P|243:133|232:79,1,110,14|12,1:2|1:2,0:0:0:0:
168,33,70528,1,0,3:0:0:0:
168,33,70694,2,0,L|48:46,1,110,14|12,1:2|1:2,0:0:0:0:
9,111,71194,2,0,P|3:138|3:165,1,55,2|12,3:2|1:2,0:0:0:0:
47,235,71528,2,0,P|53:262|52:289,1,55,2|12,3:2|1:2,0:0:0:0:
19,365,71861,2,0,P|50:373|85:373,1,55,2|8,3:2|0:0,0:0:0:0:
145,334,72194,2,0,P|170:323|197:318,1,55,10|8,0:0|0:0,0:0:0:0:
277,351,72528,1,10,0:0:0:0:
277,351,72694,1,4,3:2:0:0:
431,292,73028,6,0,L|421:227,1,55,10|0,0:0|0:0,0:0:0:0:
453,161,73361,1,2,3:2:0:0:
453,161,73528,2,0,P|413:123|361:108,1,110,2|2,0:0|0:0,0:0:0:0:
318,37,74028,2,0,P|279:45|249:60,1,55,0|0,3:2|0:0,0:0:0:0:
190,17,74361,2,0,P|157:61|153:115,1,110,10|2,0:0|3:2,0:0:0:0:
215,170,74861,69,2,0:0:0:0:
215,170,75028,2,0,P|231:226|231:235,1,55,10|2,0:0|0:0,0:0:0:0:
291,276,75361,2,0,P|255:316|203:332,1,110,2|8,3:2|0:0,0:0:0:0:
43,375,76028,2,0,L|52:307,1,55,2|2,3:2|0:0,0:0:0:0:
108,262,76361,2,0,L|99:194,1,55,12|2,0:0|0:0,0:0:0:0:
48,143,76694,5,4,3:2:0:0:
47,143,76861,2,0,P|55:116|69:92,1,55,0|8,3:0|0:0,0:0:0:0:
142,54,77194,2,0,L|261:64,1,110,8|8,0:0|3:0,0:0:0:0:
319,23,77682,2,0,P|354:65|355:126,1,110,8|2,0:0|3:2,0:0:0:0:
268,287,78387,6,0,L|278:347,1,55,4|0,1:2|0:0,0:0:0:0:
357,360,78714,2,0,P|414:370|474:348,1,110,0|10,3:0|0:2,0:0:0:0:
507,284,79206,2,0,L|488:175,1,110,2|2,0:0|0:0,0:0:0:0:
503,92,79703,2,0,P|479:77|453:68,1,55,10|0,0:2|0:0,0:0:0:0:
386,20,80036,1,2,3:2:0:0:
386,20,80203,1,2,0:0:0:0:
330,81,80370,2,0,P|303:92|276:96,1,55,10|2,0:2|0:0,0:0:0:0:
213,148,80703,5,2,3:2:0:0:
213,148,80870,2,0,P|164:122|110:126,1,110,2|2,0:0|0:0,0:0:0:0:
40,169,81370,2,0,L|59:287,1,110,2|10,3:2|0:2,0:0:0:0:
49,359,81870,2,0,L|158:366,1,110,2|0,0:0|3:0,0:0:0:0:
217,307,82370,1,14,0:2:0:0:
367,374,82703,1,2,3:2:0:0:
367,374,82870,1,10,0:0:0:0:
420,311,83036,2,0,L|415:256,1,55,10|2,0:2|0:0,0:0:0:0:
462,187,83370,69,2,3:2:0:0:
462,187,83536,2,0,P|418:153|365:140,1,110,2|2,0:0|0:0,0:0:0:0:
286,116,84036,2,0,P|239:145|178:145,1,114.399999301758,2|10,3:2|0:2,0:0:0:0:
118,197,84520,2,0,P|79:158|68:105,1,110,2|2,0:0|0:0,0:0:0:0:
102,29,85020,2,0,L|156:30,1,55,10|0,0:2|0:0,0:0:0:0:
234,1,85354,1,2,3:2:0:0:
234,1,85520,1,2,0:0:0:0:
309,35,85687,2,0,L|363:36,1,55,10|2,0:2|0:0,0:0:0:0:
441,8,86020,5,2,3:2:0:0:
441,8,86187,2,0,P|470:61|463:127,1,110,2|2,0:0|0:0,0:0:0:0:
497,185,86687,2,0,P|463:228|411:243,1,110,2|10,3:2|0:0,0:0:0:0:
333,216,87187,1,2,0:0:0:0:
333,216,87369,2,0,P|305:205|280:201,1,55,4|0,1:2|3:0,0:0:0:0:
220,259,87703,2,0,P|191:270|167:273,1,55,4|0,1:2|3:0,0:0:0:0:
92,237,88036,1,8,0:0:0:0:
92,237,88203,1,8,0:0:0:0:
30,291,88369,2,0,L|35:347,1,55,8|8,0:0|0:0,0:0:0:0:
