osu file format v14

[General]
AudioFilename: audio.mp3
AudioLeadIn: 0
PreviewTime: 6657
Countdown: 0
SampleSet: Soft
StackLeniency: 0.8
Mode: 0
LetterboxInBreaks: 0
EpilepsyWarning: 1
WidescreenStoryboard: 1

[Editor]
DistanceSpacing: 2.1
BeatDivisor: 4
GridSize: 32
TimelineZoom: 1.7

[Metadata]
Title:MIIRO vs. Ai no Scenario
TitleUnicode:海色 vs. アイのシナリオ
Artist:Roselia & Afterglow
ArtistUnicode:Roselia & Afterglow
Creator:-Mikan
Version:iljaaz's Insane
Source:バンドリ!ガールズバンドパーティ!
Tags:Akitoshi -Laura- Corinn MashaSG schoolboy Komore domSaur -Aqua Blitzifyyy Djulus ktgster lit120 iljaaz Shizuku- piroshki AKINO from bless4 CHiCO with HoneyWorks みいろ opening kantai collection kancolle fleet girls magic kaito 1412 まじっく快斗1412 艦隊これくしょん -艦これ- BanG Dream! Girls Band Party! Garupa Bandori! ガルパ! japanese anime edit tatoe tatowe video game アフターグロウ Mitake Ran 美竹 蘭 Sakura Ayane 佐倉綾音 Aoba Moca 青葉 モカ Misawa Sachika 三澤紗千香 Uehara Himari 上原 ひまり Katou Emiri 加藤 英美里 Udagawa Tomoe 宇田川 巴 Hikasa Yoko 日笠陽子 Hazawa Tsugumi 羽沢 つぐみ Kanemoto Hisako 金元 寿子 ロゼリア minato yukina 湊友希那 aiba aina 相羽あいな hikawa sayo 氷川紗夜 kudou haruka 工藤晴香 imai lisa 今井リサ endou yurika 遠藤ゆりか nakashima yuki 中島由貴 udagawa ako 宇田川あこ sakuragawa megu 櫻川めぐ shirokane rinko 白金燐子 akesaka satomi 明坂聡美
BeatmapID:2168573
BeatmapSetID:1035849

[Difficulty]
HPDrainRate:5
CircleSize:4
OverallDifficulty:8
ApproachRate:9
SliderMultiplier:1.74
SliderTickRate:1

[Events]
//Background and Video events
0,0,"032865d41b9ce03fbbd2130325900d0ead2ed12f_s2_n2.jpg",0,0
//Break Periods
//Storyboard Layer 0 (Background)
//Storyboard Layer 1 (Fail)
//Storyboard Layer 2 (Pass)
//Storyboard Layer 3 (Foreground)
//Storyboard Layer 4 (Overlay)
//Storyboard Sound Samples

[TimingPoints]
1100,368.098159509202,4,2,1,60,1,0
1238,307.692307692308,4,2,1,60,1,0
1238,-156.25,4,2,1,60,0,0
4930,314.13612565445,4,2,1,70,1,0
4930,-119.047619047619,4,2,1,70,0,0
6775,307.692307692308,4,2,1,60,1,0
7159,-100,4,2,1,5,0,0
7236,-100,4,2,1,80,0,0
7389,307.692307692308,4,2,1,80,1,0
16927,-100,4,2,1,50,0,0
17235,-135.135135135135,4,2,1,55,0,0
25696,324.324324324324,4,2,1,60,1,0
25858,303.030303030303,4,2,1,70,1,0
26009,-100,4,2,1,5,0,0
26085,-100,4,2,1,70,0,0
26236,-100,4,2,1,5,0,0
26312,363.636363636364,4,2,1,70,1,0
26402,-100,4,2,1,5,0,0
26493,294.117647058824,4,2,1,70,1,0
26640,-100,4,2,1,5,0,0
26713,-100,4,2,1,70,0,0
26860,-100,4,2,1,5,0,0
26934,300,4,2,1,70,1,0
27009,-100,4,2,1,5,0,0
27082,307.692307692308,4,2,1,65,1,0
36928,-227.272727272727,4,2,1,50,0,0
46774,-227.272727272727,4,2,1,70,0,0
47082,-135.135135135135,4,2,1,70,0,0
51697,-87.719298245614,4,2,1,80,0,0
55699,333.333333333333,4,2,1,60,1,0
55949,-100,4,2,1,5,0,0
56032,-100,4,2,1,60,0,0
56282,-100,4,2,1,5,0,0
56365,-100,4,2,1,60,0,0
56615,-100,4,2,1,5,0,0
56695,333.333333333333,4,2,1,80,1,0
56695,-87.719298245614,4,2,1,80,0,0
67361,-87.719298245614,4,2,1,90,0,0
70028,-87.719298245614,4,2,1,100,0,0
72694,-87.719298245614,4,2,1,80,0,0
77682,326.086956521739,4,2,1,80,1,0
78008,352.941176470588,4,2,1,80,1,0
78387,327.868852459016,4,2,1,70,1,0
79370,333.333333333333,4,2,1,70,1,0
84354,333.333333333333,4,2,1,70,1,0
87187,-104.166666666667,4,2,1,70,0,0
87369,333.333333333333,4,2,1,80,1,0
87369,-100,4,2,1,80,0,0
88203,-100,4,2,1,85,0,0
88369,-100,4,2,1,90,0,0
88536,-100,4,2,1,95,0,0

[Colours]
Combo1 : 213,0,106
Combo2 : 167,167,211
Combo3 : 106,181,255
Combo4 : 254,156,249
Combo5 : 162,255,255
Combo6 : 255,108,108
Combo7 : 255,157,111
Combo8 : 255,255,123

[HitObjects]
72,38,1238,21,2,0:0:0:0:
72,38,1545,6,0,P|98:50|142:53,1,55.68,0|0,0:0|0:0,0:0:0:0:
231,128,1853,2,0,B|163:142|190:165|118:177,1,111.36,2|0,0:0|0:0,0:0:0:0:
83,228,2314,1,2,0:0:0:0:
220,345,2468,5,2,0:0:0:0:
210,313,2622,1,2,0:0:0:0:
199,277,2776,1,2,0:0:0:0:
122,383,2930,1,2,0:0:0:0:
218,280,3084,69,2,0:0:0:0:
228,312,3238,1,2,0:0:0:0:
239,348,3392,1,2,0:0:0:0:
316,242,3546,1,2,0:0:0:0:
372,296,3699,6,0,B|418:331|504:279|480:216|480:216,2,167.04,2|2|2,0:0|0:0|0:0,0:0:0:0:
159,50,4930,6,0,P|149:85|144:133,1,73.0799977697755,2|0,0:1|0:0,0:0:0:0:
82,157,5244,1,0,0:0:0:0:
152,244,5401,5,2,0:1:0:0:
24,329,5558,2,0,P|36:294|44:243,1,73.0799977697755,0|0,0:0|0:0,0:0:0:0:
241,355,5872,70,0,P|229:319|221:258,1,73.0799977697755,2|0,0:1|0:0,0:0:0:0:
119,384,6186,1,0,0:0:0:0:
11,188,6343,5,2,0:1:0:0:
132,114,6500,2,0,P|120:148|113:184,1,73.0799977697755,0|0,0:0|0:0,0:0:0:0:
192,182,6775,5,2,0:0:0:0:
43,63,6928,1,2,0:0:0:0:
43,63,7236,6,0,B|136:50|114:119|221:102,1,174,6|0,1:2|3:0,0:0:0:0:
330,202,7696,1,10,0:0:0:0:
442,115,7850,1,0,0:0:0:0:
458,187,8004,1,2,3:2:0:0:
350,114,8158,1,2,3:2:0:0:
230,268,8312,70,0,P|239:224|245:163,1,87,10|0,0:0|0:0,0:0:0:0:
401,305,8619,1,2,3:2:0:0:
310,336,8773,1,0,3:0:0:0:
379,201,8927,1,10,0:0:0:0:
454,242,9081,6,0,P|494:279|459:385,1,174,2|2,0:0|3:2,0:0:0:0:
289,249,9542,1,10,0:0:0:0:
379,201,9696,6,0,P|363:291|361:382,1,174,6|0,1:2|3:0,0:0:0:0:
202,195,10158,2,0,P|242:179|281:144,1,87,8|0,0:0|0:0,0:0:0:0:
191,332,10465,1,2,3:2:0:0:
265,350,10619,1,2,3:2:0:0:
147,252,10773,1,8,0:0:0:0:
47,316,10927,1,2,0:0:0:0:
47,316,11081,6,0,P|34:273|34:222,1,87,2|2,3:2|3:2,0:0:0:0:
163,102,11389,1,8,0:0:0:0:
53,10,11542,2,0,P|65:51|67:108,1,87,2|4,0:0|3:0,0:0:0:0:
86,116,11773,1,0,3:0:0:0:
86,116,11850,2,0,P|84:92|79:62,1,43.5,8|8,0:3|0:3,0:0:0:0:
217,29,12004,1,8,3:3:0:0:
268,85,12158,70,0,B|366:106|318:159|417:184,1,174,6|0,1:2|3:0,0:0:0:0:
512,293,12619,2,0,P|467:298|403:314,1,87,10|0,0:0|0:0,0:0:0:0:
270,196,12927,1,2,3:2:0:0:
342,228,13081,1,2,3:2:0:0:
233,329,13235,1,10,0:0:0:0:
199,260,13389,1,0,0:0:0:0:
354,301,13542,6,0,P|339:344|332:398,1,87,2|0,3:2|3:0,0:0:0:0:
277,270,13850,1,10,0:0:0:0:
101,380,14004,2,0,B|65:288|143:317|101:197,1,174,2|2,0:0|3:2,0:0:0:0:
179,121,14465,1,8,0:0:0:0:
31,52,14619,1,2,3:2:0:0:
31,52,14696,1,2,3:2:0:0:
31,52,14773,6,0,P|63:79|126:80,1,87,10|0,0:0|3:0,0:0:0:0:
336,136,15081,2,0,P|298:159|240:159,1,87,10|2,0:0|3:2,0:0:0:0:
63,282,15389,1,4,0:3:0:0:
105,212,15542,6,0,P|167:224|209:302,1,130.5,8|0,0:3|0:0,0:0:0:0:
196,299,15850,1,4,1:2:0:0:
330,371,16004,70,0,L|424:386,1,87,4|0,1:2|3:0,0:0:0:0:
354,279,16312,1,4,3:0:0:0:
490,224,16465,1,2,3:2:0:0:
490,224,16542,1,2,3:2:0:0:
490,224,16619,6,0,L|426:236,1,43.5,4|0,1:0|0:0,0:0:0:0:
256,162,16773,1,2,1:2:0:0:
417,10,17235,6,0,P|406:71|403:151,1,128.760003143555,2|2,0:0|0:0,0:0:0:0:
220,242,17696,2,0,P|264:200|345:209,1,128.760003143555,2|0,0:0|0:0,0:0:0:0:
235,76,18158,2,0,P|265:85|297:90,1,64.3800015717774,2|2,0:0|0:0,0:0:0:0:
149,153,18465,6,0,B|96:170|96:170|80:188|80:188|20:209,1,128.760003143555,0|0,0:0|0:0,0:0:0:0:
167,327,18927,2,0,L|88:308,2,64.3800015717774,2|0|0,0:0|0:0|0:0,0:0:0:0:
283,354,19389,69,2,0:0:0:0:
360,262,19542,1,2,0:0:0:0:
445,241,19696,6,0,P|498:263|508:338,1,128.760003143555,2|0,0:0|0:0,0:0:0:0:
330,286,20158,2,0,P|341:254|348:209,1,64.3800015717774,2|0,0:0|0:0,0:0:0:0:
424,353,20465,2,0,P|389:358|360:371,1,64.3800015717774,2|0,0:0|0:0,0:0:0:0:
465,226,20773,6,0,P|471:159|490:80,2,128.760003143555,2|2|2,0:0|0:0|0:0,0:0:0:0:
340,91,21542,2,0,P|369:106|401:113,1,64.3800015717774,0|0,0:0|0:0,0:0:0:0:
270,235,21850,1,2,0:0:0:0:
270,235,22004,1,2,0:0:0:0:
171,181,22158,6,0,P|221:152|298:168,1,128.760003143555,0|2,0:0|0:0,0:0:0:0:
288,162,22619,1,2,0:0:0:0:
127,319,22773,2,0,P|137:290|146:242,1,64.3800015717774,2|0,0:0|0:0,0:0:0:0:
318,324,23081,1,2,0:0:0:0:
243,384,23235,70,0,P|231:329|225:243,2,128.760003143555,2|2|2,0:0|0:0|0:0,0:0:0:0:
408,250,24004,2,0,P|374:243|333:227,1,64.3800015717774,0|0,0:0|0:0,0:0:0:0:
453,349,24312,1,2,0:0:0:0:
512,292,24465,6,0,B|554:217|481:179|481:179,1,128.760003143555,2|2,0:0|0:0,0:0:0:0:
400,77,24927,1,0,0:0:0:0:
286,124,25081,2,0,L|367:139,1,64.3800015717774,2|0,0:0|0:0,0:0:0:0:
241,11,25389,2,0,L|314:-2,1,64.3800015717774,2|2,0:1|0:0,0:0:0:0:
172,108,25696,1,2,0:0:0:0:
114,41,25858,6,0,B|32:11|9:90|9:90,2,130.5,2|2|2,0:1|0:1|0:1,0:0:0:0:
203,299,26493,5,2,0:1:0:0:
58,244,26713,85,2,0:1:0:0:
0,384,26934,5,2,0:1:0:0:
140,193,27082,6,0,P|130:283|114:365,1,174,4|2,1:2|0:0,0:0:0:0:
236,205,27543,1,8,0:0:0:0:
331,348,27697,2,0,P|322:303|322:250,1,87,2|0,3:2|3:0,0:0:0:0:
236,371,28005,1,2,0:0:0:0:
354,188,28158,70,0,B|430:163|462:236|462:236,1,130.5,10|0,0:0|0:0,0:0:0:0:
458,246,28466,1,2,3:2:0:0:
512,130,28620,6,0,P|474:153|416:157,1,87,8|0,0:0|0:0,0:0:0:0:
203,73,28928,2,0,P|240:94|305:94,1,87,2|0,3:2|3:0,0:0:0:0:
392,28,29235,1,8,0:0:0:0:
320,3,29389,1,2,0:0:0:0:
320,3,29466,1,0,0:0:0:0:
320,3,29543,6,0,B|288:49|319:96|326:84|362:121|335:175,1,174,0|10,3:2|0:0,0:0:0:0:
151,328,30005,2,0,P|194:313|245:309,1,87,2|2,0:0|3:2,0:0:0:0:
113,169,30312,2,0,P|100:212|76:258,1,87,2|0,3:2|0:0,0:0:0:0:
219,107,30620,6,0,P|267:137|360:159,1,130.5,10|0,0:0|0:0,0:0:0:0:
346,182,30928,1,0,3:0:0:0:
500,301,31082,2,0,P|459:286|402:282,1,87,8|0,0:0|0:0,0:0:0:0:
229,384,31389,69,2,3:2:0:0:
314,292,31543,1,0,3:0:0:0:
365,349,31697,1,8,0:0:0:0:
226,280,31851,1,8,0:0:0:0:
226,280,31928,1,8,0:0:0:0:
226,280,32005,6,0,P|213:199|228:75,1,174,2|0,3:2|3:0,0:0:0:0:
422,50,32466,2,0,P|433:89|429:144,1,87,8|2,0:0|0:0,0:0:0:0:
257,24,32774,2,0,L|345:-2,1,87,0|2,3:0|0:0,0:0:0:0:
219,107,33082,1,10,0:0:0:0:
159,169,33235,6,0,B|151:161|46:137|78:212|-21:192,1,174,0|8,0:0|0:0,0:0:0:0:
159,169,33697,1,0,0:0:0:0:
79,57,33851,2,0,P|75:99|57:157,1,87,2|0,3:2|3:0,0:0:0:0:
214,334,34158,2,0,P|211:289|187:235,1,87,8|2,0:0|0:0,0:0:0:0:
330,111,34466,6,0,B|390:78|458:108|459:181|459:181,1,174,2|8,3:2|0:0,0:0:0:0:
340,277,34928,1,2,0:0:0:0:
473,384,35082,2,0,P|474:347|490:287,1,87,0|8,3:0|0:0,0:0:0:0:
468,279,35312,1,8,0:0:0:0:
468,279,35389,1,8,0:0:0:0:
208,164,35543,70,0,P|169:183|115:191,1,87,4|0,3:2|0:0,0:0:0:0:
303,373,35851,2,0,P|262:357|185:352,1,87,2|8,3:0|0:0,0:0:0:0:
330,111,36158,2,0,P|344:175|357:266,1,130.5,4|0,3:2|0:0,0:0:0:0:
340,277,36466,2,0,P|338:256|331:223,1,43.5,8|8,3:0|3:0,0:0:0:0:
452,52,36620,5,8,3:0:0:0:
483,86,36697,1,8,3:0:0:0:
483,127,36774,1,4,3:0:0:0:
450,154,36851,1,4,3:0:0:0:
459,171,36928,6,0,P|348:144|226:142,1,229.680007009278,4|2,3:1|0:0,0:0:0:0:
116,5,38158,6,0,B|138:55|138:55|114:118,2,114.840003504639,2|2|2,0:0|0:0|0:0,0:0:0:0:
0,188,39389,70,0,B|60:178|52:219|127:212,1,114.840003504639,2|2,0:0|0:0,0:0:0:0:
109,212,40312,1,2,0:0:0:0:
243,375,40620,6,0,P|243:316|254:252,1,114.840003504639,2|2,0:0|0:0,0:0:0:0:
27,293,41543,6,0,P|34:329|34:371,1,76.5600023364259,2|2,0:0|0:0,0:0:0:0:
109,212,42158,5,2,0:0:0:0:
170,164,42466,2,0,L|259:183,1,76.5600023364259,2|2,0:0|0:0,0:0:0:0:
389,310,43082,70,0,P|444:321|483:277,2,114.840003504639,2|2|2,0:0|0:0|0:0,0:0:0:0:
496,87,44312,6,0,B|527:155|479:140|510:212,1,114.840003504639,2|2,0:0|0:0,0:0:0:0:
384,54,45235,1,2,0:0:0:0:
328,110,45389,5,4,0:3:0:0:
328,110,45466,1,4,0:3:0:0:
328,110,45543,2,0,P|290:110|245:127,1,76.5600023364259,4|0,0:3|0:0,0:0:0:0:
184,63,46005,6,0,P|146:66|105:42,1,76.5600023364259,8|0,0:3|0:0,0:0:0:0:
13,75,46466,70,0,P|11:37|0:-3,1,76.5600023364259,8|4,0:3|3:2,0:0:0:0:
180,227,47082,6,0,P|149:239|108:243,1,64.3800015717774,2|2,3:2|0:0,0:0:0:0:
0,321,47389,2,0,B|71:335|45:368|113:382,1,128.760003143555,2|0,3:2|3:0,0:0:0:0:
171,337,47851,1,2,0:0:0:0:
301,205,48005,6,0,P|289:238|293:289,1,64.3800015717774,2|2,3:2|0:0,0:0:0:0:
452,384,48312,2,0,P|469:338|461:256,1,128.760003143555,2|2,3:2|3:2,0:0:0:0:
337,48,48774,6,0,P|310:64|280:76,1,64.3800015717774,2|2,1:3|3:2,0:0:0:0:
382,160,49082,1,2,1:3:0:0:
188,181,49235,70,0,B|141:173|141:173|114:148|114:148|58:138,1,128.760003143555,0|2,3:2|3:2,0:0:0:0:
191,63,49697,1,2,0:0:0:0:
96,0,49851,2,0,P|105:32|106:75,1,64.3800015717774,2|0,3:2|0:0,0:0:0:0:
322,238,50312,5,2,0:0:0:0:
192,306,50466,1,2,3:2:0:0:
224,237,50620,1,2,0:0:0:0:
343,364,50774,2,0,L|421:381,1,64.3800015717774,6|0,3:2|0:0,0:0:0:0:
405,377,51082,1,2,3:2:0:0:
487,283,51235,5,8,3:0:0:0:
487,283,51312,1,8,3:0:0:0:
487,283,51389,5,8,3:0:0:0:
448,246,51466,1,8,3:0:0:0:
447,186,51543,1,4,3:0:0:0:
493,143,51620,1,4,3:0:0:0:
506,156,51697,70,0,P|457:158|404:133,1,99.1799987893067,4|2,1:2|3:2,0:0:0:0:
208,260,52005,2,0,L|246:161,1,99.1799987893067,4|2,1:2|3:2,0:0:0:0:
381,277,52312,1,8,0:3:0:0:
280,340,52466,1,2,3:2:0:0:
346,382,52620,1,2,3:2:0:0:
292,263,52774,1,4,1:2:0:0:
145,330,52928,6,0,L|39:354,1,99.1799987893067,2|8,3:2|3:0,0:0:0:0:
208,260,53235,1,4,1:2:0:0:
43,163,53389,1,8,3:0:0:0:
43,163,53466,1,8,3:0:0:0:
43,163,53543,5,8,3:0:0:0:
180,103,53697,1,4,3:0:0:0:
86,23,53851,1,4,3:0:0:0:
97,96,54005,1,2,3:2:0:0:
249,174,54158,6,0,B|339:161|310:212|404:200,1,148.76999818396,4|8,1:2|0:0,0:0:0:0:
414,171,54466,70,0,P|423:188|430:218,3,49.5899993946533,8|8|8|8,0:0|0:0|0:0|0:0,0:0:0:0:
463,285,54774,5,8,0:0:0:0:
444,320,54851,1,8,0:0:0:0:
401,330,54928,1,8,0:0:0:0:
363,316,55005,1,8,0:0:0:0:
330,325,55082,6,0,P|305:315|276:310,1,49.5899993946533,8|8,0:0|0:0,0:0:0:0:
215,342,55235,1,4,3:2:0:0:
45,284,55699,22,0,P|31:223|68:278,2,174,10|2|2,0:0|0:0|0:0,0:0:0:0:
49,251,56695,6,0,P|60:153|66:45,1,198.359997578613,6|8,3:2|0:0,0:0:0:0:
231,170,57195,1,0,0:0:0:0:
156,187,57361,1,2,3:2:0:0:
288,51,57528,2,0,P|329:74|385:88,1,99.1799987893067,2|8,0:0|0:0,0:0:0:0:
512,210,57861,6,0,B|395:233|465:296|349:318,1,198.359997578613,2|2,0:0|0:0,0:0:0:0:
156,187,58361,1,8,0:0:0:0:
44,305,58528,2,0,P|84:335|149:323,1,99.1799987893067,2|0,0:0|3:0,0:0:0:0:
278,160,58861,1,2,0:0:0:0:
354,144,59028,2,0,P|425:183|424:257,1,148.76999818396,8|0,0:0|0:0,0:0:0:0:
423,252,59361,6,0,P|398:193|480:96,1,198.359997578613,6|8,3:2|0:0,0:0:0:0:
363,0,59861,1,0,0:0:0:0:
300,49,60028,2,0,P|251:45|209:19,1,99.1799987893067,2|2,3:2|0:0,0:0:0:0:
29,177,60361,1,8,0:0:0:0:
20,99,60528,70,0,B|66:70|134:103|128:162|128:162,1,148.76999818396,2|0,0:0|0:0,0:0:0:0:
149,173,60861,1,2,0:0:0:0:
43,309,61028,1,12,0:0:0:0:
100,360,61194,2,0,P|148:364|206:392,1,99.1799987893067,2|2,0:0|3:0,0:0:0:0:
341,214,61528,1,2,3:2:0:0:
304,203,61611,1,0,3:0:0:0:
264,218,61694,1,2,3:0:0:0:
241,260,61778,1,0,3:0:0:0:
245,298,61861,1,2,3:2:0:0:
455,308,62028,6,0,P|431:217|420:100,1,198.359997578613,4|8,3:2|0:0,0:0:0:0:
246,28,62528,1,0,0:0:0:0:
298,126,62694,1,2,3:2:0:0:
435,0,62861,2,0,P|393:24|329:32,1,99.1799987893067,2|8,0:0|0:0,0:0:0:0:
174,148,63194,1,2,0:0:0:0:
130,79,63361,6,0,P|59:79|26:171,1,148.76999818396,0|0,3:2|0:0,0:0:0:0:
7,165,63694,1,10,0:0:0:0:
121,281,63861,1,0,0:0:0:0:
27,313,64028,1,2,3:2:0:0:
174,148,64194,2,0,P|217:163|279:170,1,99.1799987893067,2|8,0:0|0:0,0:0:0:0:
406,275,64528,1,2,0:0:0:0:
241,361,64694,5,0,3:2:0:0:
285,290,64861,1,0,0:0:0:0:
349,208,65028,69,8,0:0:0:0:
312,98,65194,1,0,0:0:0:0:
460,39,65361,5,2,3:2:0:0:
351,175,65528,1,2,0:0:0:0:
237,44,65694,1,12,0:0:0:0:
361,0,65861,6,0,P|345:48|336:99,1,99.1799987893067,2|2,0:0|3:2,0:0:0:0:
171,226,66194,1,2,3:2:0:0:
52,89,66361,2,0,P|98:113|162:120,1,99.1799987893067,12|2,0:0|0:0,0:0:0:0:
0,373,66694,2,0,P|53:323|126:323,1,148.76999818396,12|8,3:2|0:0,0:0:0:0:
160,300,67028,5,8,0:0:0:0:
190,324,67111,1,8,2:2:0:0:
221,335,67194,1,0,3:0:0:0:
255,325,67278,1,0,3:2:0:0:
264,317,67361,70,0,L|278:202,1,99.1799987893067,14|0,1:2|3:0,0:0:0:0:
491,371,67694,2,0,L|473:258,1,99.1799987893067,8|0,1:2|3:0,0:0:0:0:
343,340,68028,1,10,1:2:0:0:
404,384,68194,1,2,3:2:0:0:
475,273,68361,1,8,1:2:0:0:
312,172,68528,6,0,P|270:200|212:213,1,99.1799987893067,2|8,3:2|1:2,0:0:0:0:
78,362,68861,2,0,P|127:365|176:386,1,99.1799987893067,2|8,3:2|1:2,0:0:0:0:
29,155,69194,2,0,P|25:204|9:257,1,99.1799987893067,2|8,3:2|1:2,0:0:0:0:
154,137,69528,1,2,3:2:0:0:
213,87,69694,2,0,P|280:104|309:188,1,148.76999818396,8|0,1:2|0:0,0:0:0:0:
304,181,70028,6,0,B|415:157|380:254|515:233,1,198.359997578613,14|12,1:2|1:2,0:0:0:0:
322,306,70528,1,0,3:0:0:0:
493,378,70694,1,14,1:2:0:0:
387,238,70861,2,0,P|401:285|406:358,1,99.1799987893067,2|12,3:2|1:2,0:0:0:0:
159,384,71194,6,0,P|142:312|141:212,1,148.76999818396,2|0,3:2|0:0,0:0:0:0:
126,224,71528,1,2,3:2:0:0:
9,110,71694,1,12,1:2:0:0:
195,60,71861,1,2,3:2:0:0:
177,137,72028,1,8,0:0:0:0:
73,31,72194,70,0,L|132:15,1,49.5899993946533,10|8,0:0|0:0,0:0:0:0:
270,81,72361,1,8,0:0:0:0:
323,70,72444,1,8,0:0:0:0:
372,92,72528,1,10,0:0:0:0:
388,138,72611,1,8,0:0:0:0:
404,151,72694,6,0,P|389:234|387:325,1,148.76999818396,4|0,3:2|0:0,0:0:0:0:
408,335,73028,6,0,P|409:283|419:232,1,99.1799987893067,10|0,0:0|0:0,0:0:0:0:
210,122,73361,1,2,3:2:0:0:
161,293,73528,2,0,P|160:242|150:189,1,99.1799987893067,2|8,0:0|0:0,0:0:0:0:
313,338,73861,1,2,0:0:0:0:
238,384,74028,6,0,P|243:282|269:184,1,198.359997578613,0|10,3:2|0:0,0:0:0:0:
161,293,74528,1,0,0:0:0:0:
46,139,74694,1,2,3:2:0:0:
46,139,74861,2,0,P|58:188|60:244,1,99.1799987893067,2|10,0:0|0:0,0:0:0:0:
227,93,75194,1,2,0:0:0:0:
140,32,75361,70,0,P|138:80|123:137,1,99.1799987893067,2|0,3:2|0:0,0:0:0:0:
336,64,75694,2,0,P|294:37|261:-5,1,99.1799987893067,8|0,0:0|0:0,0:0:0:0:
217,207,76028,2,0,P|259:185|340:174,1,99.1799987893067,2|2,3:2|0:0,0:0:0:0:
150,328,76361,2,0,P|220:336|308:370,1,148.76999818396,12|0,0:0|0:0,0:0:0:0:
306,382,76694,5,4,3:2:0:0:
471,233,76861,2,0,L|369:258,1,99.1799987893067,0|8,3:0|0:0,0:0:0:0:
365,279,77111,1,8,0:0:0:0:
408,280,77194,1,8,0:0:0:0:
440,250,77278,1,8,0:0:0:0:
445,205,77361,6,0,L|432:151,3,49.5899993946533,8|8|8|8,3:0|3:0|3:0|3:0,0:0:0:0:
390,97,77682,5,8,0:0:0:0:
329,125,77763,1,8,0:0:0:0:
266,121,77845,1,8,0:0:0:0:
215,76,77926,1,8,0:0:0:0:
222,55,78008,69,2,3:2:0:0:
84,163,78184,1,0,0:0:0:0:
254,232,78387,5,4,1:2:0:0:
112,90,78550,1,2,0:0:0:0:
0,294,78714,6,0,P|11:248|17:192,1,87,0|0,3:0|0:0,0:0:0:0:
176,264,79042,1,10,0:2:0:0:
108,384,79206,2,0,P|98:338|98:285,1,87,2|0,0:0|3:0,0:0:0:0:
239,384,79536,1,2,0:0:0:0:
294,333,79703,2,0,B|365:318|338:291|411:272,1,130.5,10|0,0:2|0:0,0:0:0:0:
423,286,80036,1,2,3:2:0:0:
314,179,80203,1,2,0:0:0:0:
298,251,80370,1,10,0:2:0:0:
413,183,80536,1,2,0:0:0:0:
260,61,80703,5,2,3:2:0:0:
201,11,80870,2,0,P|126:15|105:116,1,174,2|2,0:0|0:0,0:0:0:0:
0,210,81370,2,0,B|61:232|61:232|91:269|91:269|160:294,1,174,2|10,3:2|0:2,0:0:0:0:
303,367,81870,70,0,L|202:388,1,87,2|0,0:0|3:0,0:0:0:0:
268,163,82203,1,0,3:0:0:0:
441,235,82370,2,0,B|414:283|413:372,1,130.5,14|0,0:2|0:0,0:0:0:0:
447,377,82703,5,2,3:2:0:0:
352,284,82870,5,10,0:0:0:0:
385,239,82953,1,8,0:0:0:0:
441,235,83036,1,10,0:2:0:0:
354,384,83203,5,2,0:0:0:0:
212,255,83370,69,2,3:2:0:0:
124,175,83536,2,0,P|135:131|147:59,1,87,2|8,0:0|0:2,0:0:0:0:
286,194,83870,5,2,0:0:0:0:
162,334,84036,2,0,P|114:339|55:359,1,87,2|0,3:2|0:0,0:0:0:0:
201,235,84354,5,10,0:2:0:0:
307,347,84520,2,0,L|453:368,1,130.5,2|0,0:0|0:0,0:0:0:0:
445,383,84854,5,2,0:0:0:0:
490,171,85020,2,0,P|493:218|507:269,1,87,10|0,0:2|0:0,0:0:0:0:
310,172,85354,1,2,3:2:0:0:
379,96,85520,1,2,0:0:0:0:
412,166,85687,1,10,0:2:0:0:
270,103,85854,1,2,0:0:0:0:
154,227,86020,69,2,3:2:0:0:
243,270,86187,2,0,L|222:164,1,87,2|8,0:0|0:2,0:0:0:0:
94,119,86520,5,2,0:0:0:0:
28,16,86687,2,0,L|23:115,1,87,2|0,3:2|0:0,0:0:0:0:
197,52,87020,5,10,0:0:0:0:
262,10,87187,2,0,P|339:14|386:108,1,174,2|0,0:0|3:0,0:0:0:0:
471,209,87702,2,0,P|473:166|485:119,1,87,4|0,1:2|3:0,0:0:0:0:
299,248,88035,5,8,0:0:0:0:
426,301,88202,69,8,0:0:0:0:
314,274,88369,5,8,0:0:0:0:
266,340,88535,5,8,0:0:0:0:
