osu file format v14

[General]
AudioFilename: audio.mp3
AudioLeadIn: 0
PreviewTime: 6657
Countdown: 0
SampleSet: Soft
StackLeniency: 0.3
Mode: 0
LetterboxInBreaks: 0
EpilepsyWarning: 1
WidescreenStoryboard: 1

[Editor]
Bookmarks: 79057
DistanceSpacing: 1
BeatDivisor: 4
GridSize: 32
TimelineZoom: 1.9

[Metadata]
Title:MIIRO vs. Ai no Scenario
TitleUnicode:海色 vs. アイのシナリオ
Artist:Roselia & Afterglow
ArtistUnicode:Roselia & Afterglow
Creator:-Mikan
Version:domSaur's Normal
Source:バンドリ!ガールズバンドパーティ!
Tags:Akitoshi -Laura- Corinn MashaSG schoolboy Komore domSaur -Aqua Blitzifyyy Djulus ktgster lit120 iljaaz Shizuku- piroshki AKINO from bless4 CHiCO with HoneyWorks みいろ opening kantai collection kancolle fleet girls magic kaito 1412 まじっく快斗1412 艦隊これくしょん -艦これ- BanG Dream! Girls Band Party! Garupa Bandori! ガルパ! japanese anime edit tatoe tatowe video game アフターグロウ Mitake Ran 美竹 蘭 Sakura Ayane 佐倉綾音 Aoba Moca 青葉 モカ Misawa Sachika 三澤紗千香 Uehara Himari 上原 ひまり Katou Emiri 加藤 英美里 Udagawa Tomoe 宇田川 巴 Hikasa Yoko 日笠陽子 Hazawa Tsugumi 羽沢 つぐみ Kanemoto Hisako 金元 寿子 ロゼリア minato yukina 湊友希那 aiba aina 相羽あいな hikawa sayo 氷川紗夜 kudou haruka 工藤晴香 imai lisa 今井リサ endou yurika 遠藤ゆりか nakashima yuki 中島由貴 udagawa ako 宇田川あこ sakuragawa megu 櫻川めぐ shirokane rinko 白金燐子 akesaka satomi 明坂聡美
BeatmapID:2169321
BeatmapSetID:1035849

[Difficulty]
HPDrainRate:4
CircleSize:3
OverallDifficulty:4
ApproachRate:6
SliderMultiplier:1.1
SliderTickRate:1

[Events]
//Background and Video events
0,0,"032865d41b9ce03fbbd2130325900d0ead2ed12f_s2_n2.jpg",0,0
//Break Periods
2,37128,45724
//Storyboard Layer 0 (Background)
//Storyboard Layer 1 (Fail)
//Storyboard Layer 2 (Pass)
//Storyboard Layer 3 (Foreground)
//Storyboard Layer 4 (Overlay)
//Storyboard Sound Samples

[TimingPoints]
1100,368.098159509202,4,2,1,60,1,0
1238,307.692307692308,4,2,1,60,1,0
1238,-100,4,2,1,60,0,0
3699,-100,4,2,1,60,0,0
4930,314.13612565445,4,2,1,70,1,0
4930,-100,4,2,1,70,0,0
6775,307.692307692308,4,2,1,60,1,0
6775,-100,4,2,1,60,0,0
7159,-100,4,2,1,5,0,0
7236,-100,4,2,1,80,0,0
7389,307.692307692308,4,2,1,80,1,0
7389,-100,4,2,1,80,0,0
16927,-100,4,2,1,50,0,0
17235,-100,4,2,1,55,0,0
25696,324.324324324324,4,2,1,60,1,0
25858,303.030303030303,4,2,1,70,1,0
26085,-100,4,2,1,70,0,0
26236,-100,4,2,1,5,0,0
26312,363.636363636364,4,2,1,70,1,0
26402,-100,4,2,1,5,0,0
26493,294.117647058824,4,2,1,70,1,0
26713,-100,4,2,1,70,0,0
26934,300,4,2,1,70,1,0
27009,-100,4,2,1,5,0,0
27082,307.692307692308,4,2,1,65,1,0
27082,-100,4,2,1,65,0,0
36928,-100,4,2,1,50,0,0
46774,-100,4,2,1,70,0,0
51697,-100,4,2,1,80,0,0
55699,333.333333333333,4,2,1,60,1,0
55699,-100,4,2,1,60,0,0
55949,-100,4,2,1,5,0,0
56032,-100,4,2,1,60,0,0
56282,-100,4,2,1,5,0,0
56365,-100,4,2,1,60,0,0
56611,-100,4,2,1,60,0,0
56615,-100,4,2,1,5,0,0
56695,333.333333333333,4,2,1,80,1,0
56695,-100,4,2,1,80,0,1
67194,-100,4,2,1,80,0,0
67361,-100,4,2,1,90,0,1
70028,-100,4,2,1,100,0,1
72694,-100,4,2,1,80,0,1
77682,326.086956521739,4,2,1,80,1,0
77682,-100,4,2,1,80,0,1
78008,352.941176470588,4,2,1,80,1,0
78008,-100,4,2,1,80,0,0
78272,-100,4,2,1,80,0,0
78387,327.868852459016,4,2,1,70,1,0
78387,-100,4,2,1,70,0,1
78550,-100,4,2,1,70,0,0
79370,333.333333333333,4,2,1,70,1,0
79370,-100,4,2,1,70,0,0
84354,333.333333333333,4,2,1,70,1,0
87369,333.333333333333,4,2,1,80,1,0
87369,-100,4,2,1,80,0,0
88203,-100,4,2,1,85,0,0
88369,-100,4,2,1,90,0,0
88536,-100,4,2,1,95,0,0

[Colours]
Combo1 : 213,0,106
Combo2 : 167,167,211
Combo3 : 106,181,255
Combo4 : 254,156,249
Combo5 : 162,255,255
Combo6 : 255,108,108
Combo7 : 255,157,111
Combo8 : 255,255,123

[HitObjects]
84,84,1238,5,2,0:0:0:0:
118,188,1545,2,0,L|94:306,2,110,0|2|0,0:0|0:0|0:0,0:0:0:0:
158,150,2314,1,2,0:0:0:0:
158,150,2468,2,0,P|225:100|320:123,2,165,2|2|2,0:0|0:0|0:0,0:0:0:0:
252,206,3699,6,0,L|429:183,2,165,2|2|2,0:0|0:0|0:0,0:0:0:0:
195,297,4930,1,2,0:1:0:0:
48,119,7236,6,0,B|94:115|94:115|118:105|118:105|174:100,1,110,6|0,1:2|3:0,0:0:0:0:
205,123,7696,1,10,0:0:0:0:
297,182,8004,2,0,B|309:213|309:213|300:243,1,55,2|2,3:2|3:2,0:0:0:0:
267,276,8312,1,10,0:0:0:0:
166,318,8619,2,0,L|109:312,2,55,2|0|10,3:2|3:0|0:0,0:0:0:0:
199,155,9389,2,0,B|203:136|203:136|195:94,1,55,2|10,3:2|0:0,0:0:0:0:
195,45,9696,6,0,B|242:44|257:22|328:26,1,110,6|0,1:2|3:0,0:0:0:0:
336,70,10158,1,8,0:0:0:0:
432,120,10465,2,0,L|425:190,1,55,2|2,3:2|3:2,0:0:0:0:
421,229,10773,1,8,0:0:0:0:
317,265,11081,70,0,L|324:333,2,55,2|2|8,3:2|3:2|0:0,0:0:0:0:
338,156,11696,2,0,L|341:94,2,55,4|8|8,3:0|0:3|3:3,0:0:0:0:
290,185,12158,6,0,B|257:199|257:199|223:181|164:184,1,110,6|0,1:2|3:0,0:0:0:0:
130,184,12619,1,10,0:0:0:0:
149,292,12927,2,0,L|160:351,1,55,2|2,3:2|3:2,0:0:0:0:
212,362,13235,1,10,0:0:0:0:
320,343,13542,2,0,L|394:339,2,55,2|0|10,3:2|3:0|0:0,0:0:0:0:
352,237,14158,1,0,3:2:0:0:
352,237,14312,2,0,P|388:245|414:257,2,55,2|8|2,3:2|0:0|3:2,0:0:0:0:
312,198,14773,6,0,L|241:200,1,55,10|0,0:0|3:0,0:0:0:0:
206,222,15081,1,10,0:0:0:0:
124,149,15389,2,0,B|116:132|116:132|110:78,2,55,4|8|0,0:3|0:3|3:3,0:0:0:0:
92,194,15850,1,4,1:2:0:0:
92,194,16004,2,0,L|85:251,1,55,4|0,1:2|3:0,0:0:0:0:
81,303,16312,2,0,L|140:308,1,55,4|2,3:0|3:2,0:0:0:0:
183,334,16619,2,0,L|255:331,1,55,4|2,1:0|1:2,0:0:0:0:
395,280,17235,6,0,P|413:237|389:176,1,110,2|2,0:0|0:0,0:0:0:0:
354,139,17696,1,2,0:0:0:0:
244,126,18004,1,0,0:0:0:0:
148,180,18312,2,0,B|97:163|97:163|78:115|68:48,1,165,2|0,0:0|0:0,0:0:0:0:
120,34,18927,1,2,0:0:0:0:
281,66,19389,2,0,L|273:127,1,55,2|2,0:0|0:0,0:0:0:0:
244,167,19696,70,0,L|253:291,1,110,2|0,0:0|0:0,0:0:0:0:
297,308,20158,2,0,B|347:301|354:323|428:309,2,110,2|2|2,0:0|0:0|0:0,0:0:0:0:
195,350,21081,1,2,0:0:0:0:
102,290,21389,2,0,L|83:117,1,165,2|2,0:0|0:0,0:0:0:0:
110,77,22004,6,0,B|147:68|147:68|175:69,1,55,2|0,0:0|0:0,0:0:0:0:
268,104,22465,1,2,0:0:0:0:
368,59,22773,1,2,0:0:0:0:
463,114,23081,1,2,0:0:0:0:
463,114,23235,2,0,L|450:242,1,110,2|2,0:0|0:0,0:0:0:0:
378,305,23850,2,0,P|328:300|255:292,1,110,2|0,0:0|0:0,0:0:0:0:
231,252,24312,1,2,0:0:0:0:
231,252,24465,6,0,B|241:222|241:222|222:128,1,110,2|2,0:0|0:0,0:0:0:0:
124,101,25081,2,0,B|114:131|114:131|133:225,1,110,2|2,0:0|0:1,0:0:0:0:
78,285,25696,1,2,0:0:0:0:
166,209,27082,5,4,1:2:0:0:
166,209,27389,2,0,L|153:79,2,110,2|2|2,0:0|3:2|0:0,0:0:0:0:
209,243,28158,2,0,P|212:293|225:375,1,110,10|2,0:0|3:2,0:0:0:0:
274,339,28620,1,8,0:0:0:0:
274,339,28774,2,0,P|324:336|406:323,1,110,0|0,0:0|3:0,0:0:0:0:
374,217,29389,70,0,B|409:198|409:198|448:195|483:206,2,110,2|0|2,0:0|0:0|0:0,0:0:0:0:
265,236,30312,2,0,L|252:172,1,55,2|0,3:2|0:0,0:0:0:0:
221,137,30620,2,0,P|145:152|97:155,1,110,10|0,0:0|3:0,0:0:0:0:
79,110,31082,1,8,0:0:0:0:
24,205,31389,2,0,L|32:259,1,55,2|0,3:2|3:0,0:0:0:0:
83,281,31697,2,0,L|74:335,1,55,8|8,0:0|0:0,0:0:0:0:
123,362,32005,6,0,L|248:346,1,110,2|0,3:2|3:0,0:0:0:0:
340,328,32620,2,0,P|347:297|323:212,1,110,2|2,0:0|0:0,0:0:0:0:
223,194,33235,2,0,P|205:142|212:88,1,110,0|8,0:0|0:0,0:0:0:0:
307,30,33851,2,0,B|343:27|343:27|432:47,1,110,2|8,3:2|0:0,0:0:0:0:
447,148,34466,6,0,L|463:271,2,110,2|8|0,3:2|0:0|3:0,0:0:0:0:
391,147,35235,2,0,B|374:150|374:150|357:148|357:148|334:154,1,55,8|8,0:0|0:0,0:0:0:0:
293,187,35543,2,0,P|241:204|179:214,2,110,4|2|4,3:2|3:0|3:2,0:0:0:0:
289,76,36466,2,0,L|277:6,2,55,8|8|4,3:0|3:0|3:0,0:0:0:0:
334,106,36928,1,4,3:1:0:0:
75,151,46774,5,4,3:2:0:0:
75,151,46928,2,0,L|80:224,2,55,2|2|2,0:0|3:2|0:0,0:0:0:0:
105,105,47389,1,2,3:2:0:0:
203,238,47851,2,0,L|195:301,1,55,2|2,0:0|3:2,0:0:0:0:
228,337,48158,1,2,0:0:0:0:
228,337,48312,2,0,B|276:331|276:331|301:343|301:343|344:337,1,110,2|2,3:2|3:2,0:0:0:0:
381,308,48774,2,0,P|386:277|387:245,1,55,2|2,1:3|3:2,0:0:0:0:
393,198,49082,1,2,1:3:0:0:
385,88,49389,70,0,L|439:81,2,55,2|2|2,0:0|3:2|0:0,0:0:0:0:
332,70,49851,1,2,3:2:0:0:
167,83,50312,2,0,L|154:156,1,55,2|2,0:0|3:2,0:0:0:0:
118,177,50620,1,2,0:0:0:0:
118,177,50774,2,0,L|123:254,1,55,6|0,3:2|0:0,0:0:0:0:
135,285,51082,2,0,B|229:278|192:339|309:332,1,165,2|4,3:2|3:0,0:0:0:0:
334,302,51697,5,4,1:2:0:0:
255,224,52005,1,4,1:2:0:0:
318,134,52312,2,0,B|327:97|327:97|310:14,1,110,8|2,0:3|3:2,0:0:0:0:
262,51,52774,1,4,1:2:0:0:
262,51,52928,2,0,L|143:64,1,110,2|4,3:2|1:2,0:0:0:0:
76,142,53543,2,0,L|22:150,2,55,8|4|4,3:0|3:0|3:0,0:0:0:0:
123,170,54005,1,2,3:2:0:0:
123,170,54158,5,4,1:2:0:0:
256,192,54312,12,4,55235,3:2:0:0:
110,338,56695,22,0,P|98:284|106:230,1,110,6|8,3:2|0:0,0:0:0:0:
145,127,57361,1,2,3:2:0:0:
145,127,57528,2,0,L|221:118,1,55,2|8,0:0|0:0,0:0:0:0:
252,135,57861,2,0,B|267:101|267:101|260:26,2,110,2|2|2,0:0|0:0|0:0,0:0:0:0:
187,224,58861,2,0,P|188:251|195:280,1,55,2|8,0:0|0:0,0:0:0:0:
281,346,59361,6,0,P|341:328|389:339,1,110,6|8,3:2|0:0,0:0:0:0:
445,245,60028,2,0,L|450:189,2,55,2|2|8,3:2|0:0|0:0,0:0:0:0:
390,254,60528,2,0,B|351:248|351:248|326:226|326:226|277:218,1,110,2|2,0:0|0:0,0:0:0:0:
234,212,61028,1,12,0:0:0:0:
234,212,61194,2,0,L|223:102,2,110,2|2|2,0:0|3:2|3:2,0:0:0:0:
210,262,62028,5,4,3:2:0:0:
100,271,62361,2,0,P|90:226|92:145,1,110,8|2,0:0|3:2,0:0:0:0:
118,115,62861,2,0,L|176:106,1,55,2|8,0:0|0:0,0:0:0:0:
226,96,63194,1,2,0:0:0:0:
390,84,63694,1,10,0:0:0:0:
369,195,64028,1,2,3:2:0:0:
369,195,64194,2,0,P|354:248|356:317,1,110,2|2,0:0|0:0,0:0:0:0:
318,345,64694,6,0,B|274:344|260:371|199:361,1,110,0|8,3:2|0:0,0:0:0:0:
144,273,65361,1,2,3:2:0:0:
128,164,65694,1,12,0:0:0:0:
163,59,66028,69,2,3:2:0:0:
163,59,66194,2,0,B|210:52|210:52|285:80,1,110,2|2,3:2|0:0,0:0:0:0:
306,114,66694,1,12,3:2:0:0:
306,114,66861,2,0,L|310:172,1,55,10|8,0:0|0:0,0:0:0:0:
230,245,67361,6,0,B|219:276|219:276|230:369,1,110,14|8,1:2|1:2,0:0:0:0:
338,350,68028,1,10,1:2:0:0:
338,350,68194,2,0,B|410:346,1,55,2|8,3:2|1:2,0:0:0:0:
434,310,68528,2,0,B|441:289|441:289|432:238,1,55,2|8,3:2|1:2,0:0:0:0:
397,216,68861,2,0,B|390:195|390:195|399:144,1,55,2|8,3:2|1:2,0:0:0:0:
412,110,69194,1,2,3:2:0:0:
412,110,69361,2,0,L|293:103,1,110,8|8,1:2|1:2,0:0:0:0:
207,46,70028,6,0,P|154:45|108:76,1,110,14|12,1:2|1:2,0:0:0:0:
77,181,70694,1,14,1:2:0:0:
77,181,70861,2,0,L|81:253,1,55,2|12,3:2|1:2,0:0:0:0:
112,280,71194,2,0,L|192:275,1,55,2|12,3:2|1:2,0:0:0:0:
218,296,71528,2,0,L|293:293,1,55,2|12,3:2|1:2,0:0:0:0:
324,273,71861,1,2,3:2:0:0:
423,227,72194,2,0,P|434:178|408:112,1,110,10|10,0:0|0:0,0:0:0:0:
391,73,72694,5,4,3:2:0:0:
282,51,73028,2,0,B|274:79|274:79|280:129,1,55,10|0,0:0|0:0,0:0:0:0:
314,145,73361,1,2,3:2:0:0:
314,145,73528,2,0,L|310:199,1,55,2|8,0:0|0:0,0:0:0:0:
328,251,73861,1,2,0:0:0:0:
194,347,74361,2,0,L|126:341,1,55,10|0,0:0|0:0,0:0:0:0:
117,291,74694,1,2,3:2:0:0:
117,291,74861,2,0,L|111:216,1,55,2|10,0:0|0:0,0:0:0:0:
134,185,75194,1,2,0:0:0:0:
134,185,75361,70,0,P|135:130|137:75,2,110,2|8|2,3:2|0:0|3:2,0:0:0:0:
217,257,76361,1,12,0:0:0:0:
326,270,76694,1,4,3:2:0:0:
326,270,76861,2,0,L|384:274,1,55,0|8,3:0|0:0,0:0:0:0:
423,238,77194,2,0,B|441:210|441:210|428:115,1,110,8|8,0:0|3:0,0:0:0:0:
310,44,78008,1,2,3:2:0:0:
329,169,78387,5,4,1:2:0:0:
329,169,78550,2,0,L|337:229,1,55,2|0,0:0|3:0,0:0:0:0:
256,299,79042,2,0,L|248:244,1,55,10|2,0:2|0:0,0:0:0:0:
150,197,79536,2,0,L|157:251,1,55,2|10,0:0|0:2,0:0:0:0:
56,206,80036,2,0,L|48:151,2,55,2|2|10,3:2|0:0|0:2,0:0:0:0:
57,261,80536,1,2,0:0:0:0:
57,261,80703,6,0,B|56:292|56:292|73:326,1,55,2|2,3:2|0:0,0:0:0:0:
174,335,81203,2,0,B|175:304|175:304|158:270,1,55,2|2,0:0|3:2,0:0:0:0:
251,215,81703,2,0,B|250:246|250:246|267:280,1,55,10|2,0:2|0:0,0:0:0:0:
369,286,82203,2,0,B|370:255|370:255|353:221,1,55,0|14,3:0|0:2,0:0:0:0:
357,123,82703,2,0,L|371:50,2,55,2|10|10,3:2|0:0|0:2,0:0:0:0:
310,152,83203,1,2,0:0:0:0:
310,152,83370,6,0,L|236:140,1,55,2|2,3:2|0:0,0:0:0:0:
185,57,83870,2,0,L|239:65,1,55,2|2,0:0|3:2,0:0:0:0:
150,130,84354,2,0,L|95:122,1,55,10|2,0:2|0:0,0:0:0:0:
23,205,84854,2,0,L|77:214,1,55,2|10,0:0|0:2,0:0:0:0:
146,300,85354,2,0,B|152:331|152:331|153:355,2,55,2|2|10,3:2|0:0|0:2,0:0:0:0:
197,276,85854,1,2,0:0:0:0:
197,276,86020,70,0,L|258:265,1,55,2|2,3:2|0:0,0:0:0:0:
299,166,86520,2,0,L|245:177,1,55,2|2,0:0|3:2,0:0:0:0:
158,109,87020,2,0,L|213:99,1,55,10|2,0:0|0:0,0:0:0:0:
236,49,87369,1,4,1:2:0:0:
236,49,87536,2,0,L|290:38,1,55,0|4,3:0|1:2,0:0:0:0:
398,54,88036,2,0,B|413:70|413:70|429:115,1,55,8|8,0:0|0:0,0:0:0:0:
429,155,88369,2,0,B|417:186|417:186|402:202,1,55,8|8,0:0|0:0,0:0:0:0:
