osu file format v14

[General]
AudioFilename: audio.mp3
AudioLeadIn: 0
PreviewTime: 6657
Countdown: 0
SampleSet: Soft
StackLeniency: 0.3
Mode: 0
LetterboxInBreaks: 0
EpilepsyWarning: 1
WidescreenStoryboard: 1

[Editor]
DistanceSpacing: 1.5
BeatDivisor: 8
GridSize: 8
TimelineZoom: 2.599999

[Metadata]
Title:MIIRO vs. Ai no Scenario
TitleUnicode:海色 vs. アイのシナリオ
Artist:Roselia & Afterglow
ArtistUnicode:Roselia & Afterglow
Creator:-Mikan
Version:Shizuku's Another
Source:バンドリ!ガールズバンドパーティ!
Tags:Akitoshi -Laura- Corinn MashaSG schoolboy Komore domSaur -Aqua Blitzifyyy Djulus ktgster lit120 iljaaz Shizuku- piroshki AKINO from bless4 CHiCO with HoneyWorks みいろ opening kantai collection kancolle fleet girls magic kaito 1412 まじっく快斗1412 艦隊これくしょん -艦これ- BanG Dream! Girls Band Party! Garupa Bandori! ガルパ! japanese anime edit tatoe tatowe video game アフターグロウ Mitake Ran 美竹 蘭 Sakura Ayane 佐倉綾音 Aoba Moca 青葉 モカ Misawa Sachika 三澤紗千香 Uehara Himari 上原 ひまり Katou Emiri 加藤 英美里 Udagawa Tomoe 宇田川 巴 Hikasa Yoko 日笠陽子 Hazawa Tsugumi 羽沢 つぐみ Kanemoto Hisako 金元 寿子 ロゼリア minato yukina 湊友希那 aiba aina 相羽あいな hikawa sayo 氷川紗夜 kudou haruka 工藤晴香 imai lisa 今井リサ endou yurika 遠藤ゆりか nakashima yuki 中島由貴 udagawa ako 宇田川あこ sakuragawa megu 櫻川めぐ shirokane rinko 白金燐子 akesaka satomi 明坂聡美
BeatmapID:2169322
BeatmapSetID:1035849

[Difficulty]
HPDrainRate:6
CircleSize:4
OverallDifficulty:8.7
ApproachRate:9
SliderMultiplier:1.68
SliderTickRate:1

[Events]
//Background and Video events
0,0,"032865d41b9ce03fbbd2130325900d0ead2ed12f_s2_n2.jpg",0,0
//Break Periods
//Storyboard Layer 0 (Background)
//Storyboard Layer 1 (Fail)
//Storyboard Layer 2 (Pass)
//Storyboard Layer 3 (Foreground)
//Storyboard Layer 4 (Overlay)
//Storyboard Sound Samples

[TimingPoints]
1100,368.098159509202,4,2,1,60,1,0
1238,307.692307692308,4,2,1,60,1,0
1238,-133.333333333333,4,2,1,60,0,0
4930,314.13612565445,4,2,1,70,1,0
6775,307.692307692308,4,2,1,60,1,0
6928,-285.714285714286,4,2,1,60,0,0
7159,-285.714285714286,4,2,1,5,0,0
7236,-66.6666666666667,4,2,1,80,0,1
7389,307.692307692308,4,2,1,80,1,1
7389,-83.3333333333333,4,2,1,80,0,1
12158,-66.6666666666667,4,2,1,80,0,1
12619,-83.3333333333333,4,2,1,80,0,1
16773,-66.6666666666667,4,2,1,80,0,0
16927,-200,4,2,1,50,0,0
17235,-133.333333333333,4,2,1,55,0,0
25696,324.324324324324,4,2,1,60,1,0
25858,303.030303030303,4,2,1,70,1,0
25858,-80,4,2,1,70,0,0
26009,-80,4,2,1,5,0,0
26085,-80,4,2,1,70,0,0
26236,-80,4,2,1,5,0,0
26312,363.636363636364,4,2,1,70,1,0
26312,-80,4,2,1,70,0,0
26402,-80,4,2,1,5,0,0
26493,294.117647058824,4,2,1,70,1,0
26493,-66.6666666666667,4,2,1,70,0,0
26640,-66.6666666666667,4,2,1,5,0,0
26713,-66.6666666666667,4,2,1,70,0,0
26860,-66.6666666666667,4,2,1,5,0,0
26934,300,4,2,1,70,1,0
26934,-66.6666666666667,4,2,1,70,0,0
27009,-66.6666666666667,4,2,1,5,0,0
27082,307.692307692308,4,2,1,65,1,0
27082,-100,4,2,1,65,0,0
35543,-83.3333333333333,4,2,1,65,0,0
36158,-71.4285714285714,4,2,1,65,0,0
36928,-153.846153846153,4,2,1,50,0,0
39389,-117.647058823529,4,2,1,50,0,0
40620,-86.9565217391302,4,2,1,50,0,0
42158,-153.846153846153,4,2,1,50,0,0
44312,-100,4,2,1,50,0,0
44928,-133.333333333333,4,2,1,50,0,0
46774,-111.111111111111,4,2,1,70,0,0
51697,-111.111111111111,4,2,1,80,0,0
52312,-100,4,2,1,80,0,0
55699,333.333333333333,4,2,1,60,1,0
55699,-133.333333333333,4,2,1,60,0,0
55949,-133.333333333333,4,2,1,5,0,0
56032,-100,4,2,1,60,0,0
56282,-100,4,2,1,5,0,0
56365,-66.6666666666667,4,2,1,60,0,0
56615,-66.6666666666667,4,2,1,5,0,0
56695,333.333333333333,4,2,1,80,1,0
56695,-80,4,2,1,80,0,1
57028,-90.9090909090909,4,2,1,80,0,1
67361,-90.9090909090909,4,2,1,90,0,1
70028,-90.9090909090909,4,2,1,100,0,1
72694,-90.9090909090909,4,2,1,80,0,1
77682,326.086956521739,4,2,1,80,1,1
77682,-80,4,2,1,80,0,1
78008,352.941176470588,4,2,1,80,1,0
78387,327.868852459016,4,2,1,70,1,0
78387,-71.4285714285714,4,2,1,70,0,0
78714,-100,4,2,1,70,0,0
79370,333.333333333333,4,2,1,70,1,0
84354,333.333333333333,4,2,1,70,1,0
87369,333.333333333333,4,2,1,80,1,0
87369,-100,4,2,1,80,0,0
88203,-100,4,2,1,85,0,0
88369,-100,4,2,1,90,0,0
88536,-100,4,2,1,95,0,0

[Colours]
Combo1 : 213,0,106
Combo2 : 167,167,211
Combo3 : 106,181,255
Combo4 : 254,156,249
Combo5 : 162,255,255
Combo6 : 255,108,108
Combo7 : 255,157,111
Combo8 : 255,255,123

[HitObjects]
372,101,1100,6,0,L|368:77,3,21,0|0|0|2,0:0|0:0|0:0|0:0,0:0:0:0:
369,81,1545,6,0,L|355:142,1,63.0000024032594,0|0,0:0|0:0,0:0:0:0:
351,272,1853,2,0,P|408:255|415:195,1,126.000004806519,2|0,0:0|0:0,0:0:0:0:
354,142,2314,1,2,0:0:0:0:
354,142,2468,6,0,B|282:131|302:168|232:160,1,126.000004806519,2|2,0:0|0:0,0:0:0:0:
128,40,2930,2,0,B|159:69|159:69|148:153,1,126.000004806519,2|2,0:0|0:0,0:0:0:0:
148,151,3391,1,2,0:0:0:0:
15,296,3699,6,0,P|77:236|172:252,2,189.000007209778,2|2|2,0:0|0:0|0:0,0:0:0:0:
15,296,4930,69,2,0:1:0:0:
88,361,5087,2,0,L|101:279,1,84,0|0,0:0|0:0,0:0:0:0:
15,296,5401,5,2,0:1:0:0:
174,213,5558,2,0,L|187:295,1,84,0|0,0:0|0:0,0:0:0:0:
15,296,5872,5,2,0:1:0:0:
260,360,6029,2,0,B|268:322|268:322|266:317|266:317|273:278,1,84,0|0,0:0|0:0,0:0:0:0:
101,278,6343,5,2,0:1:0:0:
346,212,6500,2,0,B|352:246|352:246|356:251|356:251|354:258|354:258|359:294,1,84,0|0,0:0|0:0,0:0:0:0:
358,293,6775,69,2,0:0:0:0:
348,130,6928,2,0,P|369:131|390:142,1,44.0999986541748,2|0,0:0|0:0,0:0:0:0:
492,36,7236,6,0,P|460:149|345:126,1,252.000009613037,6|0,1:2|3:0,0:0:0:0:
170,25,7696,2,0,P|217:29|252:66,1,100.799996923828,10|0,0:0|0:0,0:0:0:0:
136,119,7927,1,0,0:0:0:0:
128,107,8004,2,0,P|132:59|169:24,1,100.799996923828,2|2,3:2|3:2,0:0:0:0:
241,166,8312,2,0,L|230:273,1,100.799996923828,10|0,0:0|0:0,0:0:0:0:
373,330,8619,6,0,B|408:290|408:290|391:142,1,201.599993847656,2|10,3:2|0:0,0:0:0:0:
378,17,9081,1,2,0:0:0:0:
378,17,9158,1,0,0:0:0:0:
378,17,9235,2,0,P|339:40|286:32,1,100.799996923828,0|2,3:0|3:2,0:0:0:0:
210,52,9542,1,10,0:0:0:0:
46,236,9696,6,0,P|143:218|229:266,1,201.599993847656,6|0,1:2|3:0,0:0:0:0:
278,371,10158,1,8,0:0:0:0:
391,142,10312,1,0,0:0:0:0:
391,142,10389,1,0,0:0:0:0:
391,142,10465,70,0,B|403:243,1,100.799996923828,2|2,3:2|3:2,0:0:0:0:
278,371,10773,1,8,0:0:0:0:
308,161,10927,1,2,0:0:0:0:
278,371,11081,6,0,L|254:269,1,100.799996923828,2|2,3:2|3:2,0:0:0:0:
152,108,11389,1,8,0:0:0:0:
117,196,11542,6,0,B|228:217|196:137|309:161,1,201.599993847656,2|8,0:0|0:3,0:0:0:0:
307,160,11927,1,8,0:3:0:0:
307,160,12004,1,8,3:3:0:0:
93,31,12158,6,0,B|31:68|31:68|44:170|44:170|116:195,1,252.000009613037,6|0,1:2|3:0,0:0:0:0:
307,160,12619,2,0,P|331:116|324:67,1,100.799996923828,10|0,0:0|0:0,0:0:0:0:
206,132,12850,1,0,0:0:0:0:
214,142,12927,2,0,P|257:166|306:159,1,100.799996923828,2|2,3:2|3:2,0:0:0:0:
451,52,13235,1,10,0:0:0:0:
383,247,13389,1,0,0:0:0:0:
236,41,13542,70,0,B|132:25|153:97|39:75,1,201.599993847656,2|10,3:2|0:0,0:0:0:0:
185,237,14004,2,0,P|192:186|213:142,1,100.799996923828,2|0,0:0|3:2,0:0:0:0:
43,75,14312,2,0,P|64:120|71:170,1,100.799996923828,2|8,3:2|0:0,0:0:0:0:
225,353,14619,1,2,3:2:0:0:
225,353,14696,1,2,3:2:0:0:
225,353,14773,5,10,0:0:0:0:
213,141,14927,1,0,3:0:0:0:
12,304,15081,2,0,P|57:324|106:316,1,100.799996923828,10|2,0:0|3:2,0:0:0:0:
219,120,15389,5,4,0:3:0:0:
368,346,15542,2,0,L|383:244,1,100.799996923828,8|0,0:3|3:3,0:0:0:0:
223,93,15850,1,4,1:2:0:0:
146,384,16004,6,0,L|127:283,1,100.799996923828,4|0,1:2|3:0,0:0:0:0:
223,93,16312,1,4,3:0:0:0:
382,246,16465,1,2,3:2:0:0:
382,246,16542,1,2,3:2:0:0:
382,246,16619,69,4,1:0:0:0:
145,183,16773,2,0,B|130:129|130:129|131:124|131:124|116:61,1,126.000004806519,2|2,1:2|0:0,0:0:0:0:
115,60,17235,6,0,P|83:57|55:71,2,63.0000024032594,2|0|2,0:0|0:0|0:0,0:0:0:0:
145,183,17696,2,0,P|207:187|263:160,1,126.000004806519,2|0,0:0|0:0,0:0:0:0:
241,3,18158,2,0,L|229:72,1,63.0000024032594,2|2,0:0|0:0,0:0:0:0:
345,169,18465,6,0,P|401:141|463:146,1,126.000004806519,0|0,0:0|0:0,0:0:0:0:
384,55,18927,2,0,P|379:117|344:168,1,126.000004806519,2|0,0:0|0:0,0:0:0:0:
423,259,19389,1,2,0:0:0:0:
423,259,19542,1,2,0:0:0:0:
344,168,19696,6,0,P|287:195|225:190,1,126.000004806519,2|0,0:0|0:0,0:0:0:0:
168,124,20158,2,0,L|106:136,1,63.0000024032594,2|0,0:0|0:0,0:0:0:0:
159,43,20465,2,0,L|221:55,1,63.0000024032594,2|0,0:0|0:0,0:0:0:0:
225,190,20773,2,0,L|101:214,2,126.000004806519,2|2|2,0:0|0:0|0:0,0:0:0:0:
225,190,21696,69,0,0:0:0:0:
203,340,21850,2,0,P|190:311|191:280,1,63.0000024032594,2|2,0:0|0:0,0:0:0:0:
294,239,22158,6,0,L|417:265,2,126.000004806519,0|2|2,0:0|0:0|0:0,0:0:0:0:
294,239,23081,5,2,0:0:0:0:
417,265,23235,2,0,P|444:211|434:147,2,126.000004806519,2|2|2,0:0|0:0|0:0,0:0:0:0:
294,239,24004,2,0,L|170:263,1,126.000004806519,0|2,0:0|0:0,0:0:0:0:
83,96,24465,2,0,P|110:150|100:214,2,126.000004806519,2|2|2,0:0|0:0|0:0,0:0:0:0:
53,280,25235,2,0,P|107:253|171:263,1,126.000004806519,0|2,0:0|0:0,0:0:0:0:
223,335,25696,1,2,0:0:0:0:
223,335,25858,6,0,B|312:319|283:370|375:347,2,157.5,2|2|2,0:1|0:1|0:1,0:0:0:0:
422,277,26493,2,0,B|451:265|464:240|464:240|457:371,2,189.000007209778,2|2|2,0:1|0:1|0:1,0:0:0:0:
270,162,27082,70,0,P|323:167|360:224,1,126,4|0,1:2|0:0,0:0:0:0:
360,224,27389,1,2,0:0:0:0:
354,321,27543,1,8,0:0:0:0:
169,262,27697,2,0,L|4:291,1,168,2|2,3:2|0:0,0:0:0:0:
235,383,28158,6,0,P|249:344|245:303,1,84,10|0,0:0|0:0,0:0:0:0:
103,141,28466,2,0,P|89:180|93:221,1,84,2|8,3:2|0:0,0:0:0:0:
169,262,28774,2,0,L|334:233,1,168,0|0,0:0|3:0,0:0:0:0:
418,257,29235,1,8,0:0:0:0:
348,149,29389,1,2,0:0:0:0:
348,149,29466,1,0,0:0:0:0:
348,149,29543,5,0,3:2:0:0:
184,117,29697,2,0,L|266:102,1,84,0|10,0:0|0:0,0:0:0:0:
472,207,30005,2,0,P|392:214|347:148,1,168,2|2,0:0|3:2,0:0:0:0:
169,262,30466,1,0,0:0:0:0:
169,262,30620,2,0,B|252:234|252:299|331:268,1,168,10|0,0:0|3:0,0:0:0:0:
104,328,31082,2,0,P|81:293|80:251,1,84,8|0,0:0|0:0,0:0:0:0:
212,127,31389,5,2,3:2:0:0:
252,271,31543,2,0,L|162:261,1,84,0|8,3:0|0:0,0:0:0:0:
187,47,31851,1,8,0:0:0:0:
187,47,31928,1,8,0:0:0:0:
187,47,32005,70,0,B|226:12|226:12|211:127,1,168,2|0,3:2|3:0,0:0:0:0:
358,190,32466,1,8,0:0:0:0:
385,113,32620,2,0,B|345:105|345:105|306:124,1,84,2|0,0:0|3:0,0:0:0:0:
335,357,32928,5,2,0:0:0:0:
358,190,33082,1,10,0:0:0:0:
335,357,33235,2,0,B|267:348|267:348|249:322|249:322|181:313,1,168,0|8,0:0|0:0,0:0:0:0:
107,355,33697,1,0,0:0:0:0:
107,355,33774,1,0,0:0:0:0:
107,355,33851,2,0,L|95:270,1,84,2|0,3:2|3:0,0:0:0:0:
11,132,34158,2,0,L|-1:217,1,84,8|2,0:0|0:0,0:0:0:0:
238,230,34466,6,0,B|170:221|170:221|152:195|152:195|84:186,2,168,2|8|0,3:2|0:0|3:0,0:0:0:0:
352,95,35235,1,8,0:0:0:0:
352,95,35312,1,8,0:0:0:0:
352,95,35389,1,8,0:0:0:0:
352,95,35466,1,0,0:0:0:0:
352,95,35543,6,0,B|267:87|300:147|212:138,1,151.199995385742,4|0,3:2|0:0,0:0:0:0:
227,145,35851,2,0,L|212:43,1,100.799996923828,2|8,3:0|0:0,0:0:0:0:
89,200,36158,70,0,B|181:187|157:258|254:240,1,176.399994616699,4|0,3:2|0:0,0:0:0:0:
237,87,36466,2,0,L|226:145,1,58.7999982055665,8|8,3:0|3:0,0:0:0:0:
253,240,36620,1,8,3:0:0:0:
281,234,36696,1,8,3:0:0:0:
310,229,36773,1,4,3:0:0:0:
339,223,36850,1,4,3:0:0:0:
368,218,36927,1,4,3:1:0:0:
368,218,37543,6,0,L|374:164,1,54.5999975006105,2|0,0:0|0:0,0:0:0:0:
280,33,37851,2,0,L|286:87,1,54.5999975006105,2|0,0:0|0:0,0:0:0:0:
226,144,38158,6,0,P|172:148|132:115,1,109.199995001221,2|0,0:0|0:0,0:0:0:0:
91,237,38620,2,0,P|113:188|163:170,1,109.199995001221,2|0,0:0|0:0,0:0:0:0:
291,312,39082,1,2,0:0:0:0:
291,312,39389,6,0,P|239:266|169:273,1,142.800002723694,2|0,0:0|0:0,0:0:0:0:
214,128,39851,2,0,P|200:196|241:253,1,142.800002723694,2|0,0:0|0:0,0:0:0:0:
445,212,40312,1,2,0:0:0:0:
445,212,40620,70,0,P|389:156|285:176,1,193.200003684998,2|0,0:0|0:0,0:0:0:0:
240,252,41082,2,0,P|150:277|80:217,1,193.200003684998,2|0,0:0|0:0,0:0:0:0:
190,95,41543,2,0,P|256:160|239:251,1,193.200003684998,2|2,0:0|0:0,0:0:0:0:
239,251,42158,6,0,L|293:244,1,54.5999975006105,2|0,0:0|0:0,0:0:0:0:
361,281,42466,2,0,L|415:274,1,54.5999975006105,2|0,0:0|0:0,0:0:0:0:
457,209,42774,1,2,0:0:0:0:
292,242,43082,6,0,P|260:199|268:148,1,109.199995001221,2|0,0:0|0:0,0:0:0:0:
250,75,43543,2,0,P|228:124|180:144,1,109.199995001221,2|0,0:0|0:0,0:0:0:0:
126,196,44005,1,2,0:0:0:0:
292,242,44312,5,2,0:0:0:0:
240,321,44620,1,0,0:0:0:0:
240,321,44774,2,0,B|180:351|111:337|79:272|79:272|104:295|136:289,1,252,2|2,0:0|0:0,0:0:0:0:
126,196,45389,1,4,0:3:0:0:
126,196,45466,1,4,0:3:0:0:
126,196,45543,70,0,B|153:170|161:100|117:115|125:47|159:18,2,189.000007209778,4|8|8,0:3|0:3|0:3,0:0:0:0:
126,196,46774,6,0,P|156:174|194:171,1,75.5999976928712,4|2,3:2|0:0,0:0:0:0:
414,150,47082,2,0,P|376:146|345:125,1,75.5999976928712,2|2,3:2|0:0,0:0:0:0:
278,72,47389,2,0,L|258:230,1,151.199995385742,2|0,3:2|3:0,0:0:0:0:
259,222,47851,1,2,0:0:0:0:
235,354,48005,5,2,3:2:0:0:
182,252,48158,1,2,0:0:0:0:
46,306,48312,2,0,P|81:317|118:312,1,75.5999976928712,2|0,3:2|0:0,0:0:0:0:
182,252,48620,2,0,B|174:195|174:195|169:188|169:188|163:140,2,113.399996539307,2|0|2,3:2|0:0|1:3,0:0:0:0:
236,354,49235,6,0,L|310:339,1,75.5999976928712,0|2,3:2|0:0,0:0:0:0:
509,240,49543,2,0,L|435:225,1,75.5999976928712,2|2,3:2|0:0,0:0:0:0:
388,356,49851,2,0,L|358:208,1,151.199995385742,2|0,3:2|3:0,0:0:0:0:
420,73,50312,1,2,0:0:0:0:
420,73,50389,1,0,0:0:0:0:
420,73,50466,2,0,B|429:113|429:113|414:148,1,75.5999976928712,2|2,3:2|0:0,0:0:0:0:
357,207,50774,2,0,L|283:192,1,75.5999976928712,6|0,3:2|0:0,0:0:0:0:
158,134,51082,70,0,P|218:116|244:74,1,113.399996539307,2|8,3:2|3:0,0:0:0:0:
243,75,51389,1,8,3:0:0:0:
96,33,51543,1,4,3:0:0:0:
96,33,51620,1,4,3:0:0:0:
96,33,51697,5,4,1:2:0:0:
158,134,51851,1,2,3:2:0:0:
54,131,52005,5,4,1:2:0:0:
243,75,52158,1,2,3:2:0:0:
273,278,52312,5,8,0:3:0:0:
158,134,52466,2,0,L|148:222,1,84,2|2,3:2|3:2,0:0:0:0:
304,373,52774,70,0,P|369:326|369:245,1,168,4|8,1:2|3:0,0:0:0:0:
243,75,53235,1,4,1:2:0:0:
273,278,53389,1,8,3:0:0:0:
273,278,53466,1,8,3:0:0:0:
273,278,53543,5,8,3:0:0:0:
412,171,53697,2,0,P|372:158|331:165,1,84,4|4,3:0|3:0,0:0:0:0:
204,368,54005,1,2,3:2:0:0:
158,134,54158,5,4,1:2:0:0:
273,278,54312,1,8,0:0:0:0:
249,286,54388,1,8,0:0:0:0:
224,287,54465,1,8,0:0:0:0:
200,281,54542,1,8,0:0:0:0:
178,268,54619,1,8,0:0:0:0:
162,249,54696,1,8,0:0:0:0:
145,230,54774,1,8,0:0:0:0:
124,217,54851,1,8,0:0:0:0:
99,210,54928,1,8,0:0:0:0:
74,212,55005,1,8,0:0:0:0:
51,220,55082,6,0,L|45:262,1,42,8|8,0:0|0:0,0:0:0:0:
32,340,55235,1,4,3:2:0:0:
230,194,55699,6,0,P|243:139|207:82,2,126.000004806519,10|2|2,0:0|0:0|0:0,0:0:0:0:
20,173,56695,6,0,P|92:135|164:147,1,157.5,6|0,3:2|0:0,0:0:0:0:
230,194,57028,2,0,P|273:207|317:195,1,92.4000028198243,8|0,0:0|0:0,0:0:0:0:
445,63,57361,5,2,3:2:0:0:
272,130,57528,1,2,0:0:0:0:
323,0,57695,1,8,0:0:0:0:
394,193,57861,6,0,L|420:330,1,138.600004229736,2|0,0:0|0:0,0:0:0:0:
419,329,58195,2,0,P|382:309|334:305,1,92.4000028198243,2|8,0:0|0:0,0:0:0:0:
98,298,58528,2,0,P|143:294|184:273,1,92.4000028198243,2|0,0:0|3:0,0:0:0:0:
272,130,58861,1,2,0:0:0:0:
332,304,59028,2,0,L|344:213,1,92.4000028198243,8|0,0:0|0:0,0:0:0:0:
272,130,59361,70,0,B|217:136|217:136|195:156|195:156|143:164,1,138.600004229736,6|0,3:2|0:0,0:0:0:0:
82,109,59695,2,0,P|62:150|66:195,1,92.4000028198243,8|0,0:0|0:0,0:0:0:0:
250,213,60028,5,2,3:2:0:0:
237,54,60195,1,2,0:0:0:0:
250,213,60361,1,8,0:0:0:0:
352,43,60528,6,0,P|419:29|478:67,1,138.600004229736,2|0,0:0|0:0,0:0:0:0:
475,64,60861,1,2,0:0:0:0:
272,130,61028,1,12,0:0:0:0:
431,274,61194,1,2,0:0:0:0:
401,123,61361,1,2,3:0:0:0:
294,307,61528,1,2,3:2:0:0:
271,304,61611,1,0,3:0:0:0:
248,301,61694,1,2,3:0:0:0:
225,298,61778,1,0,3:0:0:0:
202,295,61861,1,2,3:2:0:0:
179,292,61944,1,0,3:0:0:0:
156,290,62028,6,0,P|125:220|157:146,1,138.600004229736,4|0,3:2|0:0,0:0:0:0:
141,163,62361,2,0,L|48:183,1,92.4000028198243,8|0,0:0|0:0,0:0:0:0:
202,73,62694,69,2,3:2:0:0:
312,42,62861,1,2,0:0:0:0:
343,152,63028,1,8,0:0:0:0:
232,182,63194,1,2,0:0:0:0:
232,182,63278,1,0,0:0:0:0:
232,182,63361,6,0,L|138:162,1,92.4000028198243,0|0,3:2|0:0,0:0:0:0:
203,325,63694,2,0,L|296:305,1,92.4000028198243,10|0,0:0|0:0,0:0:0:0:
425,127,64028,5,2,3:2:0:0:
385,354,64194,1,2,0:0:0:0:
425,127,64361,1,8,0:0:0:0:
512,306,64528,1,2,0:0:0:0:
512,306,64611,1,0,0:0:0:0:
512,306,64694,6,0,P|473:282|428:277,1,92.4000028198243,0|0,3:2|0:0,0:0:0:0:
233,183,65028,2,0,P|278:178|317:154,1,92.4000028198243,8|0,0:0|0:0,0:0:0:0:
247,87,65361,1,2,3:2:0:0:
293,305,65528,1,2,0:0:0:0:
409,165,65694,2,0,L|312:153,1,92.4000028198243,12|2,0:0|0:0,0:0:0:0:
123,250,66028,69,2,3:2:0:0:
61,41,66194,2,0,L|49:138,1,92.4000028198243,2|12,3:2|0:0,0:0:0:0:
233,183,66528,2,0,L|221:86,1,92.4000028198243,2|12,0:0|3:2,0:0:0:0:
76,247,66861,5,10,0:0:0:0:
110,234,66944,1,8,0:0:0:0:
146,241,67027,1,8,0:0:0:0:
173,265,67110,1,8,2:2:0:0:
200,288,67194,1,0,3:0:0:0:
236,295,67277,1,0,3:2:0:0:
271,283,67361,6,0,L|362:271,1,92.4000028198243,14|0,1:2|3:0,0:0:0:0:
474,124,67694,2,0,L|383:112,1,92.4000028198243,8|0,1:2|3:0,0:0:0:0:
233,183,68028,1,10,1:2:0:0:
474,124,68194,1,2,3:2:0:0:
233,183,68361,1,8,1:2:0:0:
272,23,68528,6,0,P|290:69|285:114,1,92.4000028198243,2|8,3:2|1:2,0:0:0:0:
47,132,68861,1,2,3:2:0:0:
207,79,69028,1,8,1:2:0:0:
18,46,69194,1,2,3:2:0:0:
207,79,69361,1,8,1:2:0:0:
26,225,69528,1,2,3:2:0:0:
261,370,69694,2,0,P|278:327|270:282,1,92.4000028198243,8|0,1:2|3:0,0:0:0:0:
207,79,70028,70,0,L|222:216,1,138.600004229736,14|0,1:2|0:0,0:0:0:0:
222,216,70361,2,0,P|255:201|311:212,1,92.4000028198243,12|0,1:2|3:0,0:0:0:0:
409,85,70694,1,14,1:2:0:0:
270,282,70861,1,2,3:2:0:0:
207,79,71028,1,12,1:2:0:0:
439,230,71194,1,2,3:2:0:0:
133,341,71361,6,0,L|122:249,1,92.4000028198243,12|2,1:2|3:2,0:0:0:0:
314,26,71694,2,0,L|303:118,1,92.4000028198243,12|2,1:2|3:2,0:0:0:0:
39,219,72028,5,8,0:0:0:0:
270,282,72194,1,10,0:0:0:0:
307,274,72277,1,8,0:0:0:0:
345,267,72360,1,8,0:0:0:0:
383,260,72443,1,8,0:0:0:0:
421,253,72527,1,10,0:0:0:0:
459,246,72610,1,8,0:0:0:0:
497,239,72694,6,0,P|445:186|447:120,1,138.600004229736,4|0,3:2|0:0,0:0:0:0:
505,71,73028,2,0,P|466:48|421:52,1,92.4000028198243,10|0,0:0|0:0,0:0:0:0:
383,260,73361,69,2,3:2:0:0:
338,43,73528,1,2,0:0:0:0:
383,260,73694,2,0,L|290:250,1,92.4000028198243,8|2,0:0|0:0,0:0:0:0:
1,338,74028,6,0,B|48:329|48:329|85:349|85:349|132:340,1,138.600004229736,0|0,3:2|0:0,0:0:0:0:
136,344,74361,2,0,L|146:251,1,92.4000028198243,10|0,0:0|0:0,0:0:0:0:
49,37,74694,5,2,3:2:0:0:
75,213,74861,1,2,0:0:0:0:
49,37,75028,1,10,0:0:0:0:
262,129,75194,1,2,0:0:0:0:
262,129,75278,1,2,0:0:0:0:
262,129,75361,5,2,3:2:0:0:
70,217,75528,1,0,0:0:0:0:
281,341,75694,2,0,L|291:248,1,92.4000028198243,8|0,0:0|0:0,0:0:0:0:
194,42,76028,2,0,P|114:42|62:128,1,184.800005639649,2|12,3:2|0:0,0:0:0:0:
281,341,76528,1,2,0:0:0:0:
281,341,76611,1,0,0:0:0:0:
281,341,76694,69,4,3:2:0:0:
316,57,76861,1,0,3:0:0:0:
72,217,77028,1,8,0:0:0:0:
72,217,77111,1,8,0:0:0:0:
72,217,77194,2,0,L|117:212,1,46.2000014099122,8|8,0:0|0:0,0:0:0:0:
194,203,77361,1,8,3:0:0:0:
432,341,77528,5,8,3:0:0:0:
384,368,77611,1,8,3:0:0:0:
329,369,77682,1,8,0:0:0:0:
281,341,77763,1,8,0:0:0:0:
252,295,77845,1,8,0:0:0:0:
314,76,78008,6,0,P|334:111|331:153,1,84,2|0,3:2|0:0,0:0:0:0:
104,169,78387,2,0,P|165:115|254:134,1,176.399994616699,4|0,1:2|0:0,0:0:0:0:
252,132,78714,6,0,L|245:222,1,84,0|0,3:0|0:0,0:0:0:0:
190,288,79042,1,10,0:2:0:0:
20,175,79206,2,0,L|110:168,1,84,2|0,0:0|3:0,0:0:0:0:
190,288,79536,1,2,0:0:0:0:
329,222,79703,2,0,L|239:215,1,84,10|0,0:2|0:0,0:0:0:0:
351,328,80036,69,2,3:2:0:0:
385,146,80203,1,2,0:0:0:0:
351,328,80370,1,10,0:2:0:0:
171,161,80536,1,2,0:0:0:0:
136,164,80619,1,0,0:0:0:0:
103,168,80702,5,2,3:2:0:0:
111,302,80870,2,0,P|152:305|189:287,1,84,2|8,0:0|0:2,0:0:0:0:
252,132,81203,1,2,0:0:0:0:
189,286,81370,2,0,L|175:203,1,84,2|0,3:2|0:0,0:0:0:0:
275,48,81703,5,10,0:2:0:0:
341,230,81870,2,0,L|175:203,1,168,2|0,0:0|3:0,0:0:0:0:
406,170,82370,2,0,P|425:202|429:247,1,84,14|0,0:2|0:0,0:0:0:0:
227,384,82703,5,2,3:2:0:0:
175,203,82870,1,10,0:0:0:0:
175,203,82953,1,8,0:0:0:0:
175,203,83036,2,0,L|216:196,1,42,10|0,0:2|0:0,0:0:0:0:
341,321,83203,2,0,L|299:314,1,42,2|0,0:0|0:0,0:0:0:0:
287,139,83370,69,2,3:2:0:0:
227,384,83536,2,0,L|213:301,1,84,2|8,0:0|0:2,0:0:0:0:
87,212,83870,5,2,0:0:0:0:
213,301,84036,2,0,L|130:287,1,84,2|0,3:2|0:0,0:0:0:0:
164,124,84354,5,10,0:2:0:0:
299,314,84520,2,0,L|319:189,1,126,2|0,0:0|0:0,0:0:0:0:
319,189,84854,1,2,0:0:0:0:
454,353,85020,2,0,P|414:367|373:360,1,84,10|0,0:2|0:0,0:0:0:0:
241,94,85354,5,2,3:2:0:0:
406,273,85520,1,2,0:0:0:0:
361,63,85687,1,10,0:2:0:0:
299,314,85854,1,2,0:0:0:0:
241,94,86020,69,2,3:2:0:0:
406,273,86187,2,0,L|415:187,1,84,2|8,0:0|0:2,0:0:0:0:
361,63,86520,5,2,0:0:0:0:
182,247,86687,2,0,L|173:161,1,84,2|0,3:2|0:0,0:0:0:0:
299,314,87020,5,10,0:0:0:0:
73,242,87187,1,2,0:0:0:0:
241,94,87369,5,4,1:2:0:0:
191,340,87536,1,0,3:0:0:0:
243,80,87703,2,0,L|257:164,1,84,4|0,1:2|3:0,0:0:0:0:
301,369,88036,69,8,0:0:0:0:
416,196,88203,1,8,0:0:0:0:
243,80,88369,1,8,0:0:0:0:
128,253,88536,1,8,0:0:0:0:
