osu file format v14

[General]
AudioFilename: audio.mp3
AudioLeadIn: 0
PreviewTime: 6657
Countdown: 0
SampleSet: Soft
StackLeniency: 0.3
Mode: 0
LetterboxInBreaks: 0
EpilepsyWarning: 1
WidescreenStoryboard: 1

[Editor]
Bookmarks: 14465,56710,64209
DistanceSpacing: 1.5
BeatDivisor: 4
GridSize: 32
TimelineZoom: 3.599998

[Metadata]
Title:MIIRO vs. Ai no Scenario
TitleUnicode:海色 vs. アイのシナリオ
Artist:Roselia & Afterglow
ArtistUnicode:Roselia & Afterglow
Creator:-Mikan
Version:Mikalus' Light Insane
Source:バンドリ!ガールズバンドパーティ!
Tags:Akitoshi -Laura- Corinn MashaSG schoolboy Komore domSaur -Aqua Blitzifyyy Djulus ktgster lit120 iljaaz Shizuku- piroshki AKINO from bless4 CHiCO with HoneyWorks みいろ opening kantai collection kancolle fleet girls magic kaito 1412 まじっく快斗1412 艦隊これくしょん -艦これ- BanG Dream! Girls Band Party! Garupa Bandori! ガルパ! japanese anime edit tatoe tatowe video game アフターグロウ Mitake Ran 美竹 蘭 Sakura Ayane 佐倉綾音 Aoba Moca 青葉 モカ Misawa Sachika 三澤紗千香 Uehara Himari 上原 ひまり Katou Emiri 加藤 英美里 Udagawa Tomoe 宇田川 巴 Hikasa Yoko 日笠陽子 Hazawa Tsugumi 羽沢 つぐみ Kanemoto Hisako 金元 寿子 ロゼリア minato yukina 湊友希那 aiba aina 相羽あいな hikawa sayo 氷川紗夜 kudou haruka 工藤晴香 imai lisa 今井リサ endou yurika 遠藤ゆりか nakashima yuki 中島由貴 udagawa ako 宇田川あこ sakuragawa megu 櫻川めぐ shirokane rinko 白金燐子 akesaka satomi 明坂聡美
BeatmapID:2174716
BeatmapSetID:1035849

[Difficulty]
HPDrainRate:5.7
CircleSize:3.8
OverallDifficulty:7.2
ApproachRate:8
SliderMultiplier:1.5
SliderTickRate:1

[Events]
//Background and Video events
0,0,"032865d41b9ce03fbbd2130325900d0ead2ed12f_s2_n2.jpg",0,0
//Break Periods
2,37528,40793
//Storyboard Layer 0 (Background)
//Storyboard Layer 1 (Fail)
//Storyboard Layer 2 (Pass)
//Storyboard Layer 3 (Foreground)
//Storyboard Layer 4 (Overlay)
//Storyboard Sound Samples

[TimingPoints]
1100,368.098159509202,4,2,1,60,1,0
1238,307.692307692308,4,2,1,60,1,0
1545,-133.333333333333,4,2,1,60,0,0
2468,-133.333333333333,4,2,1,60,0,0
3699,-250,4,2,1,60,0,0
4930,314.13612565445,4,2,1,70,1,0
4930,-181.818181818181,4,2,1,70,0,0
6775,307.692307692308,4,2,1,60,1,0
6775,-250,4,2,1,60,0,0
7159,-250,4,2,1,5,0,0
7236,-133.333333333333,4,2,1,80,0,0
7389,307.692307692308,4,2,1,80,1,0
7696,-117.647058823529,4,2,1,80,0,0
16927,-100,4,2,1,50,0,0
17235,-133.333333333333,4,2,1,55,0,0
25696,324.324324324324,4,2,1,60,1,0
25858,303.030303030303,4,2,1,70,1,0
25858,-133.333333333333,4,2,1,70,0,0
26009,-133.333333333333,4,2,1,5,0,0
26085,-133.333333333333,4,2,1,70,0,0
26236,-133.333333333333,4,2,1,5,0,0
26312,363.636363636364,4,2,1,70,1,0
26402,-133.333333333333,4,2,1,5,0,0
26493,294.117647058824,4,2,1,70,1,0
26493,-133.333333333333,4,2,1,70,0,0
26640,-133.333333333333,4,2,1,5,0,0
26713,-133.333333333333,4,2,1,70,0,0
26860,-133.333333333333,4,2,1,5,0,0
26934,300,4,2,1,70,1,0
27009,-100,4,2,1,5,0,0
27082,307.692307692308,4,2,1,65,1,0
27082,-125,4,2,1,65,0,0
36928,-100,4,2,1,50,0,0
37543,-181.818181818182,4,2,1,50,0,0
46774,-111.111111111111,4,2,1,70,0,0
51697,-100,4,2,1,80,0,0
55699,333.333333333333,4,2,1,60,1,0
55699,-200,4,2,1,60,0,0
55949,-200,4,2,1,5,0,0
56032,-200,4,2,1,60,0,0
56282,-200,4,2,1,5,0,0
56365,-200,4,2,1,60,0,0
56615,-200,4,2,1,5,0,0
56695,333.333333333333,4,2,1,80,1,0
56695,-90.9090909090909,4,2,1,80,0,1
67361,-100,4,2,1,90,0,1
70028,-100,4,2,1,100,0,1
72694,-100,4,2,1,80,0,1
77682,326.086956521739,4,2,1,80,1,0
78008,352.941176470588,4,2,1,80,1,0
78008,-100,4,2,1,80,0,0
78272,-100,4,2,1,80,0,0
78387,327.868852459016,4,2,1,70,1,0
78387,-100,4,2,1,70,0,0
79370,333.333333333333,4,2,1,70,1,0
84354,333.333333333333,4,2,1,70,1,0
87369,333.333333333333,4,2,1,80,1,0
87369,-100,4,2,1,80,0,0
88203,-100,4,2,1,85,0,0
88369,-100,4,2,1,90,0,0
88536,-100,4,2,1,95,0,0

[Colours]
Combo1 : 213,0,106
Combo2 : 167,167,211
Combo3 : 106,181,255
Combo4 : 254,156,249
Combo5 : 162,255,255
Combo6 : 255,108,108
Combo7 : 255,157,111
Combo8 : 255,255,123

[HitObjects]
78,182,1100,6,2,L|72:153,3,18.75,2|2|2|2,0:0|0:0|0:0|0:0,0:0:0:0:
82,148,1545,6,0,P|162:129|199:120,1,112.500004291535,0|2,0:0|0:0,0:0:0:0:
319,232,2161,2,0,L|305:301,1,56.2500021457673,0|2,0:0|0:0,0:0:0:0:
294,303,2468,6,0,P|245:271|185:288,1,112.500004291535,2|2,0:0|0:0,0:0:0:0:
120,321,2930,2,0,L|126:192,1,112.500004291535,2|2,0:0|0:0,0:0:0:0:
73,145,3391,1,2,0:0:0:0:
206,27,3699,5,2,0:0:0:0:
74,133,4930,70,0,L|78:85,2,41.2500012588501,2|0|0,0:1|0:0|0:0,0:0:0:0:
191,193,5401,2,0,L|179:143,2,41.2500012588501,2|0|0,0:1|0:0|0:0,0:0:0:0:
97,250,5872,2,0,L|55:273,2,41.2500012588501,2|0|0,0:1|0:0|0:0,0:0:0:0:
214,309,6343,2,0,L|266:329,2,41.2500012588501,2|0|0,0:1|0:0|0:0,0:0:0:0:
136,358,6775,1,2,0:0:0:0:
123,350,7236,6,0,P|177:305|233:321,1,112.500004291535,6|0,1:2|3:0,0:0:0:0:
292,330,7696,2,0,L|309:193,1,127.50000243187,10|2,0:0|3:2,0:0:0:0:
369,100,8158,1,2,3:2:0:0:
372,115,8312,2,0,L|389:183,1,63.7500012159348,10|0,0:0|0:0,0:0:0:0:
228,105,8619,6,0,P|261:91|293:85,2,63.7500012159348,2|0|10,3:2|3:0|0:0,0:0:0:0:
119,58,9081,2,0,L|141:188,1,127.50000243187,2|2,0:0|3:2,0:0:0:0:
96,270,9542,1,10,0:0:0:0:
174,332,9696,6,0,B|207:306|249:316|249:316|276:345|317:341,1,127.50000243187,6|0,1:2|3:0,0:0:0:0:
393,272,10158,2,0,P|365:266|327:257,1,63.7500012159348,8|0,0:0|0:0,0:0:0:0:
473,346,10465,2,0,L|483:267,1,63.7500012159348,2|2,3:2|3:2,0:0:0:0:
485,123,10773,1,8,0:0:0:0:
485,123,11081,70,0,L|466:199,2,63.7500012159348,2|2|8,3:2|3:2|0:0,0:0:0:0:
410,50,11542,1,2,0:0:0:0:
313,99,11696,2,0,L|294:46,4,31.8750006079674,4|0|8|8|8,3:0|3:0|0:3|0:3|3:3,0:0:0:0:
321,118,12158,6,0,B|261:129|267:92|183:108,1,127.50000243187,6|0,1:2|3:0,0:0:0:0:
127,193,12619,2,0,P|114:248|149:319,1,127.50000243187,10|2,0:0|3:2,0:0:0:0:
283,265,13081,1,2,3:2:0:0:
272,264,13235,2,0,L|202:248,1,63.7500012159348,10|0,0:0|0:0,0:0:0:0:
141,311,13542,6,0,B|71:341|71:341|38:327|27:297,1,127.50000243187,2|10,3:2|0:0,0:0:0:0:
127,193,14004,1,2,0:0:0:0:
48,127,14158,2,0,L|58:64,1,63.7500012159348,0|2,3:2|3:2,0:0:0:0:
154,116,14465,1,8,0:0:0:0:
259,53,14619,1,2,3:2:0:0:
254,44,14773,6,0,L|174:33,1,63.7500012159348,10|0,0:0|3:0,0:0:0:0:
333,128,15081,2,0,L|400:115,1,63.7500012159348,10|2,0:0|3:2,0:0:0:0:
259,219,15389,1,4,0:3:0:0:
242,215,15542,70,0,B|175:193|175:193|141:206|137:243,1,127.50000243187,8|4,0:3|1:2,0:0:0:0:
247,307,16004,2,0,L|336:277,1,63.7500012159348,4|0,1:2|3:0,0:0:0:0:
402,223,16312,1,4,3:0:0:0:
348,142,16465,1,2,3:2:0:0:
348,142,16542,1,2,3:2:0:0:
348,142,16619,1,4,1:0:0:0:
307,286,16773,1,2,1:2:0:0:
297,289,17235,6,0,P|206:309|162:321,1,112.500004291535,2|2,0:0|0:0,0:0:0:0:
114,245,17696,2,0,P|174:226|243:206,1,112.500004291535,2|0,0:0|0:0,0:0:0:0:
282,149,18158,1,2,0:0:0:0:
275,135,18312,6,0,P|283:79|233:41,1,112.500004291535,2|0,0:0|0:0,0:0:0:0:
194,110,18773,1,0,0:0:0:0:
421,351,19389,2,0,P|437:317|434:283,1,56.2500021457673,2|2,0:0|0:0,0:0:0:0:
365,237,19696,6,0,P|357:189|396:127,1,112.500004291535,2|0,0:0|0:0,0:0:0:0:
461,64,20158,2,0,L|335:51,1,112.500004291535,2|2,0:0|0:0,0:0:0:0:
248,166,20773,1,2,0:0:0:0:
116,87,21081,70,0,B|179:102|179:102|214:80|212:52,1,112.500004291535,2|2,0:0|0:0,0:0:0:0:
195,67,21542,2,0,L|184:143,1,56.2500021457673,0|0,0:0|0:0,0:0:0:0:
132,208,21850,1,2,0:0:0:0:
207,268,22004,1,2,0:0:0:0:
207,268,22158,6,0,L|196:337,1,56.2500021457673,0|0,0:0|0:0,0:0:0:0:
285,239,22465,2,0,L|297:300,1,56.2500021457673,2|2,0:0|0:0,0:0:0:0:
392,360,22773,2,0,L|390:301,1,56.2500021457673,2|0,0:0|0:0,0:0:0:0:
491,234,23081,1,2,0:0:0:0:
431,163,23235,6,0,P|394:142|317:165,2,112.500004291535,2|2|2,0:0|0:0|0:0,0:0:0:0:
208,23,24312,1,2,0:0:0:0:
191,106,24465,6,0,L|168:242,2,112.500004291535,2|2|2,0:0|0:0|0:0,0:0:0:0:
51,276,25542,2,0,L|71:343,1,56.2500021457673,2|2,0:0|0:0,0:0:0:0:
149,349,25858,70,0,L|258:330,2,84.3750032186509,2|2|2,0:1|0:1|0:1,0:0:0:0:
319,253,26493,2,0,L|226:237,2,84.3750032186509,2|2|2,0:1|0:1|0:1,0:0:0:0:
404,322,27082,6,0,P|426:287|409:211,1,120,4|2,1:2|0:0,0:0:0:0:
462,96,27543,1,8,0:0:0:0:
462,96,27697,2,0,L|476:156,1,60,2|0,3:2|3:0,0:0:0:0:
354,71,28005,1,2,0:0:0:0:
280,142,28158,6,0,B|220:151|218:116|147:134,1,120,10|2,0:0|3:2,0:0:0:0:
87,95,28620,2,0,P|76:55|86:31,1,60,8|0,0:0|0:0,0:0:0:0:
161,130,28928,1,2,3:2:0:0:
80,207,29082,2,0,L|7:196,1,60,0|8,3:0|0:0,0:0:0:0:
153,289,29389,1,2,0:0:0:0:
153,289,29466,1,0,0:0:0:0:
153,289,29543,6,0,P|201:259|275:280,1,120,0|10,3:2|0:0,0:0:0:0:
346,361,30005,2,0,L|277:356,1,60,2|2,0:0|3:2,0:0:0:0:
433,239,30312,2,0,L|363:257,1,60,2|0,3:2|0:0,0:0:0:0:
290,174,30620,70,0,P|269:132|315:75,1,120,10|0,0:0|3:0,0:0:0:0:
403,14,31082,2,0,P|397:81|392:143,1,120,8|2,0:0|3:2,0:0:0:0:
479,230,31543,1,0,3:0:0:0:
377,267,31697,1,8,0:0:0:0:
441,357,31851,1,8,0:0:0:0:
441,357,31928,1,8,0:0:0:0:
441,357,32005,6,0,P|476:343|509:347,1,60,2|0,3:2|0:0,0:0:0:0:
355,275,32312,2,0,B|317:251|294:264|294:264|266:296|232:294,1,120,0|2,3:0|0:0,0:0:0:0:
135,335,32774,1,0,3:0:0:0:
62,234,32928,2,0,L|139:247,1,60,2|10,0:0|0:0,0:0:0:0:
246,168,33235,5,0,0:0:0:0:
165,81,33389,2,0,P|160:114|168:150,2,60,2|8|0,3:2|0:0|0:0,0:0:0:0:
311,235,33851,2,0,P|355:205|429:223,1,120,2|8,3:2|0:0,0:0:0:0:
507,131,34312,1,2,0:0:0:0:
428,75,34466,6,0,P|377:86|292:98,1,120,2|8,3:2|0:0,0:0:0:0:
196,34,34928,1,2,0:0:0:0:
221,140,35082,1,0,3:0:0:0:
122,106,35235,1,8,0:0:0:0:
122,106,35312,1,8,0:0:0:0:
122,106,35389,1,8,0:0:0:0:
59,183,35543,69,4,3:2:0:0:
99,269,35851,1,2,3:0:0:0:
141,361,36158,1,4,3:2:0:0:
281,250,36466,6,0,L|269:291,4,30,8|8|8|8|4,3:0|3:0|3:0|3:0|3:0,0:0:0:0:
244,360,36928,1,4,3:1:0:0:
340,84,41543,6,0,L|329:129,1,41.2500012588501,2|0,0:0|0:0,0:0:0:0:
331,142,41851,6,0,P|269:146|221:198,1,123.75000377655,2|0,0:0|0:0,0:0:0:0:
184,262,42466,2,0,L|199:359,1,82.5000025177003,2|2,0:0|0:0,0:0:0:0:
326,362,43082,70,0,B|375:323|375:323|423:346|447:324,2,123.75000377655,2|2|2,0:0|0:0|0:0,0:0:0:0:
184,262,44312,2,0,P|204:207|160:169,2,123.75000377655,2|2|2,0:0|0:0|0:0,0:0:0:0:
283,285,45389,1,4,0:3:0:0:
283,285,45466,1,4,0:3:0:0:
283,285,45543,5,4,0:3:0:0:
377,208,46005,1,8,0:3:0:0:
471,126,46466,1,8,0:3:0:0:
405,72,46774,6,0,L|320:63,1,67.4999979400635,4|2,3:2|0:0,0:0:0:0:
222,159,47082,2,0,L|299:140,1,67.4999979400635,2|2,3:2|0:0,0:0:0:0:
375,204,47389,2,0,P|394:248|362:328,1,134.999995880127,2|0,3:2|3:0,0:0:0:0:
249,255,47851,1,2,0:0:0:0:
202,352,48005,6,0,L|271:332,1,67.4999979400635,2|2,3:2|0:0,0:0:0:0:
132,271,48312,2,0,P|112:237|139:135,1,134.999995880127,2|2,3:2|3:2,0:0:0:0:
247,85,48774,1,2,1:3:0:0:
160,35,48928,1,2,3:2:0:0:
222,172,49082,1,2,1:3:0:0:
234,181,49235,70,0,P|285:171|311:179,1,67.4999979400635,0|2,3:2|0:0,0:0:0:0:
427,287,49543,2,0,P|393:291|359:280,1,67.4999979400635,2|2,3:2|0:0,0:0:0:0:
400,197,49851,2,0,P|402:157|413:52,1,134.999995880127,2|0,3:2|3:0,0:0:0:0:
279,18,50312,1,2,0:0:0:0:
319,119,50466,1,2,3:2:0:0:
197,94,50620,1,2,0:0:0:0:
212,198,50774,6,0,P|143:210|95:265,1,134.999995880127,6|2,3:2|3:2,0:0:0:0:
164,341,51235,1,8,3:0:0:0:
164,341,51312,1,8,3:0:0:0:
164,341,51389,2,0,L|198:373,3,33.7499989700318,8|8|4|4,3:0|3:0|3:0|3:0,0:0:0:0:
226,296,51697,1,4,1:2:0:0:
381,211,52005,5,4,1:2:0:0:
305,146,52158,1,2,3:2:0:0:
364,300,52312,1,8,0:3:0:0:
466,212,52466,1,2,3:2:0:0:
479,199,52620,2,0,L|473:115,1,75,2|4,3:2|1:2,0:0:0:0:
359,32,52928,5,2,3:2:0:0:
282,97,53082,1,8,3:0:0:0:
253,8,53235,1,4,1:2:0:0:
372,132,53389,1,8,3:0:0:0:
372,132,53466,1,8,3:0:0:0:
372,132,53543,1,8,3:0:0:0:
243,181,53697,1,4,3:0:0:0:
228,189,53851,2,0,L|135:204,1,75,4|2,3:0|3:2,0:0:0:0:
30,328,54158,70,0,P|73:302|156:349,1,150,4|8,1:2|0:0,0:0:0:0:
253,291,54620,1,8,0:0:0:0:
253,291,54697,1,8,0:0:0:0:
253,291,54774,2,0,L|244:339,4,37.5,8|8|8|8|8,0:0|0:0|0:0|0:0|0:0,0:0:0:0:
350,372,55235,5,4,3:2:0:0:
466,57,55699,37,10,0:0:0:0:
396,21,56032,1,2,0:0:0:0:
339,75,56365,1,2,0:0:0:0:
336,85,56695,6,0,P|257:72|163:65,1,165.000005035401,6|8,3:2|0:0,0:0:0:0:
153,200,57195,1,0,0:0:0:0:
239,232,57361,2,0,B|243:187|243:187|216:148,1,82.5000025177003,2|2,3:2|0:0,0:0:0:0:
87,117,57695,5,8,0:0:0:0:
71,215,57861,2,0,L|168:197,1,82.5000025177003,2|0,0:0|3:0,0:0:0:0:
320,247,58195,2,0,L|223:229,1,82.5000025177003,2|8,0:0|0:0,0:0:0:0:
47,308,58528,2,0,L|144:290,1,82.5000025177003,2|0,0:0|3:0,0:0:0:0:
324,328,58861,2,0,L|227:310,1,82.5000025177003,2|8,0:0|0:0,0:0:0:0:
411,272,59195,5,0,0:0:0:0:
426,256,59361,2,0,B|482:243|482:243|521:285|503:344,1,165.000005035401,6|8,3:2|0:0,0:0:0:0:
416,379,59861,1,0,0:0:0:0:
320,247,60028,2,0,L|332:160,1,82.5000025177003,2|2,3:2|0:0,0:0:0:0:
406,36,60361,69,8,0:0:0:0:
474,92,60528,2,0,B|436:118|436:118|371:118,1,82.5000025177003,2|0,0:0|3:2,0:0:0:0:
256,139,60861,2,0,B|294:165|294:165|359:165,1,82.5000025177003,2|12,0:0|0:0,0:0:0:0:
500,187,61194,2,0,B|462:213|462:213|397:213,1,82.5000025177003,2|2,0:0|3:0,0:0:0:0:
314,73,61528,1,2,3:2:0:0:
314,73,61611,1,0,3:0:0:0:
314,73,61694,2,0,L|318:11,3,41.2500012588501,2|0|2|0,3:0|3:0|3:2|3:0,0:0:0:0:
256,139,62028,6,0,B|193:133|193:133|165:100|165:100|86:109,1,165.000005035401,4|8,3:2|0:0,0:0:0:0:
37,200,62528,1,0,0:0:0:0:
37,200,62694,2,0,L|131:187,1,82.5000025177003,2|2,3:2|0:0,0:0:0:0:
278,260,63028,1,8,0:0:0:0:
193,305,63194,2,0,P|198:248|200:186,1,82.5000025177003,2|0,0:0|3:2,0:0:0:0:
314,73,63694,6,0,B|410:66|368:130|476:121,1,165.000005035401,10|2,0:0|3:2,0:0:0:0:
508,211,64194,1,2,0:0:0:0:
471,290,64361,2,0,P|432:252|430:191,1,82.5000025177003,8|2,0:0|0:0,0:0:0:0:
335,158,64694,2,0,P|302:211|296:322,1,165.000005035401,0|8,3:2|0:0,0:0:0:0:
205,356,65194,5,0,0:0:0:0:
205,356,65361,2,0,P|153:319|113:310,1,82.5000025177003,2|2,3:2|0:0,0:0:0:0:
35,357,65694,2,0,P|96:328|114:255,1,123.75000377655,12|0,0:0|0:0,0:0:0:0:
79,213,66028,1,2,3:2:0:0:
223,99,66194,1,2,3:2:0:0:
131,43,66361,2,0,P|139:118|146:196,1,123.75000377655,12|0,0:0|0:0,0:0:0:0:
204,227,66694,69,12,3:2:0:0:
228,232,66778,1,8,0:0:0:0:
252,229,66861,1,10,0:0:0:0:
274,218,66944,1,8,0:0:0:0:
287,197,67028,1,8,0:0:0:0:
434,236,67194,1,0,3:0:0:0:
434,236,67361,6,0,P|363:223|325:220,1,75,14|0,1:2|3:0,0:0:0:0:
223,99,67694,2,0,P|260:93|296:85,1,75,8|0,1:2|3:0,0:0:0:0:
400,20,68028,5,10,1:2:0:0:
400,20,68194,1,2,3:2:0:0:
369,135,68361,1,8,1:2:0:0:
369,135,68528,1,2,3:2:0:0:
223,99,68694,6,0,P|228:47|229:-1,1,75,8|2,1:2|3:2,0:0:0:0:
137,240,69028,2,0,P|142:188|143:140,1,75,8|2,1:2|3:2,0:0:0:0:
51,70,69361,2,0,P|128:77|148:78,1,75,8|2,1:2|3:2,0:0:0:0:
238,189,69694,2,0,P|315:182|335:181,1,75,8|0,1:2|3:0,0:0:0:0:
481,275,70028,69,14,1:2:0:0:
348,307,70194,1,0,3:0:0:0:
494,271,70361,1,12,1:2:0:0:
336,311,70527,1,0,3:0:0:0:
447,367,70694,5,14,1:2:0:0:
395,218,70861,1,2,3:2:0:0:
451,379,71028,1,12,1:2:0:0:
390,205,71195,1,2,3:2:0:0:
336,311,71361,6,0,P|286:306|246:304,1,75,12|2,1:2|3:2,0:0:0:0:
132,370,71694,2,0,B|181:361|181:361|163:256,1,150,12|8,1:2|0:0,0:0:0:0:
214,161,72194,1,10,0:0:0:0:
217,144,72278,1,8,0:0:0:0:
220,129,72361,2,0,L|164:135,3,37.5,8|8|10|8,0:0|0:0|0:0|0:0,0:0:0:0:
271,62,72694,6,0,B|353:63|321:116|420:122,1,150,4|10,3:2|0:0,0:0:0:0:
488,72,73194,1,0,0:0:0:0:
481,42,73361,2,0,P|433:21|381:25,1,75,2|2,3:2|0:0,0:0:0:0:
271,141,73694,1,8,0:0:0:0:
336,192,73861,2,0,P|341:266|347:356,1,150,2|0,0:0|0:0,0:0:0:0:
234,292,74361,70,0,B|181:274|181:274|105:310,1,112.5,10|0,0:0|0:0,0:0:0:0:
129,318,74694,1,2,3:2:0:0:
32,209,74861,2,0,L|130:219,1,75,2|10,0:0|0:0,0:0:0:0:
217,144,75194,2,0,P|168:76|87:99,1,150,2|0,0:0|0:0,0:0:0:0:
63,18,75694,1,8,0:0:0:0:
298,98,76028,6,0,L|393:87,1,75,2|2,3:2|0:0,0:0:0:0:
474,24,76361,2,0,L|464:160,1,112.5,12|0,0:0|0:0,0:0:0:0:
472,157,76694,1,4,3:2:0:0:
379,221,76861,1,0,3:0:0:0:
379,221,76944,1,0,3:0:0:0:
379,221,77028,2,0,L|386:269,1,37.5,8|8,0:0|0:0,0:0:0:0:
466,283,77194,2,0,L|458:331,1,37.5,8|8,0:0|0:0,0:0:0:0:
362,367,77361,5,8,3:0:0:0:
343,364,77444,1,8,3:0:0:0:
324,362,77527,1,8,3:0:0:0:
306,359,77610,1,8,3:0:0:0:
285,355,77682,2,0,L|291:312,1,37.5,8|8,0:0|0:0,0:0:0:0:
201,262,77845,2,0,L|208:299,1,37.5,8|8,0:0|0:0,0:0:0:0:
147,354,78008,1,2,3:2:0:0:
63,18,78387,6,0,B|-1:21|-9:93|25:110|25:110|26:90|37:75,1,150,4|0,1:2|3:0,0:0:0:0:
114,117,78878,2,0,L|197:105,1,75,0|10,0:0|0:2,0:0:0:0:
278,0,79206,2,0,L|275:93,1,75,2|0,0:0|3:0,0:0:0:0:
359,156,79536,1,2,0:0:0:0:
359,156,79703,2,0,P|412:131|420:106,1,75,10|0,0:2|0:0,0:0:0:0:
385,30,80036,69,2,3:2:0:0:
385,30,80203,1,2,0:0:0:0:
509,117,80370,1,10,0:2:0:0:
509,117,80536,1,2,0:0:0:0:
434,223,80703,5,2,3:2:0:0:
434,223,80870,2,0,P|442:280|444:317,1,75,2|8,0:0|0:2,0:0:0:0:
332,367,81203,1,2,0:0:0:0:
332,367,81370,2,0,P|340:310|342:273,1,75,2|0,3:2|0:0,0:0:0:0:
265,216,81703,1,10,0:2:0:0:
264,216,81870,2,0,P|226:221|189:225,1,75,2|0,0:0|3:0,0:0:0:0:
105,308,82203,1,0,3:0:0:0:
22,232,82370,6,0,P|43:170|111:161,1,112.5,14|0,0:2|0:0,0:0:0:0:
96,168,82703,2,0,P|89:109|84:61,1,75,2|10,3:2|0:0,0:0:0:0:
92,82,82953,1,8,0:0:0:0:
98,71,83036,1,10,0:2:0:0:
187,120,83203,1,2,0:0:0:0:
250,42,83370,5,2,3:2:0:0:
250,42,83536,2,0,B|213:21|213:21|150:31,1,75,2|8,0:0|0:2,0:0:0:0:
318,109,83870,1,2,0:0:0:0:
318,109,84036,2,0,B|349:101|349:101|376:68,1,75,2|0,3:2|0:0,0:0:0:0:
231,134,84354,1,10,0:2:0:0:
231,134,84520,2,0,B|204:167|204:167|204:231,1,75,2|0,0:0|3:0,0:0:0:0:
283,284,84854,1,2,0:0:0:0:
283,284,85020,2,0,P|351:273|384:273,1,75,10|0,0:2|0:0,0:0:0:0:
483,299,85354,69,2,3:2:0:0:
388,347,85520,1,2,0:0:0:0:
334,257,85687,1,10,0:2:0:0:
432,205,85854,1,2,0:0:0:0:
356,272,86020,5,2,3:2:0:0:
334,257,86187,2,0,P|336:191|335:147,1,75,2|8,0:0|0:2,0:0:0:0:
416,26,86520,1,2,0:0:0:0:
438,41,86687,2,0,P|436:107|437:151,1,75,2|0,3:2|0:0,0:0:0:0:
339,90,87020,2,0,P|260:82|250:82,1,75,10|2,0:0|0:0,0:0:0:0:
149,34,87369,5,4,1:2:0:0:
211,159,87536,1,0,3:0:0:0:
141,20,87703,1,4,1:2:0:0:
219,174,87869,1,0,3:0:0:0:
264,82,88036,5,8,0:0:0:0:
135,150,88203,1,8,0:0:0:0:
212,279,88369,1,8,0:0:0:0:
337,213,88536,1,8,0:0:0:0:
