osu file format v14

[General]
AudioFilename: audio.mp3
AudioLeadIn: 0
PreviewTime: 6657
Countdown: 0
SampleSet: Soft
StackLeniency: 0.3
Mode: 0
LetterboxInBreaks: 0
EpilepsyWarning: 1
WidescreenStoryboard: 1

[Editor]
Bookmarks: 79057
DistanceSpacing: 1.5
BeatDivisor: 16
GridSize: 32
TimelineZoom: 5.199997

[Metadata]
Title:MIIRO vs. Ai no Scenario
TitleUnicode:海色 vs. アイのシナリオ
Artist:Roselia & Afterglow
ArtistUnicode:Roselia & Afterglow
Creator:-Mikan
Version:Easy
Source:バンドリ!ガールズバンドパーティ!
Tags:Akitoshi -Laura- Corinn MashaSG schoolboy Komore domSaur -Aqua Blitzifyyy Djulus ktgster lit120 iljaaz Shizuku- piroshki AKINO from bless4 CHiCO with HoneyWorks みいろ opening kantai collection kancolle fleet girls magic kaito 1412 まじっく快斗1412 艦隊これくしょん -艦これ- BanG Dream! Girls Band Party! Garupa Bandori! ガルパ! japanese anime edit tatoe tatowe video game アフターグロウ Mitake Ran 美竹 蘭 Sakura Ayane 佐倉綾音 Aoba Moca 青葉 モカ Misawa Sachika 三澤紗千香 Uehara Himari 上原 ひまり Katou Emiri 加藤 英美里 Udagawa Tomoe 宇田川 巴 Hikasa Yoko 日笠陽子 Hazawa Tsugumi 羽沢 つぐみ Kanemoto Hisako 金元 寿子 ロゼリア minato yukina 湊友希那 aiba aina 相羽あいな hikawa sayo 氷川紗夜 kudou haruka 工藤晴香 imai lisa 今井リサ endou yurika 遠藤ゆりか nakashima yuki 中島由貴 udagawa ako 宇田川あこ sakuragawa megu 櫻川めぐ shirokane rinko 白金燐子 akesaka satomi 明坂聡美
BeatmapID:2170504
BeatmapSetID:1035849

[Difficulty]
HPDrainRate:3
CircleSize:2.7
OverallDifficulty:2
ApproachRate:4
SliderMultiplier:1
SliderTickRate:1

[Events]
//Background and Video events
0,0,"032865d41b9ce03fbbd2130325900d0ead2ed12f_s2_n2.jpg",0,0
//Break Periods
2,17220,25762
//Storyboard Layer 0 (Background)
//Storyboard Layer 1 (Fail)
//Storyboard Layer 2 (Pass)
//Storyboard Layer 3 (Foreground)
//Storyboard Layer 4 (Overlay)
//Storyboard Sound Samples

[TimingPoints]
1100,368.098159509202,4,2,1,60,1,0
1238,307.692307692308,4,2,1,60,1,0
1238,-125,4,2,1,60,0,0
3699,-125,4,2,1,60,0,0
4930,314.13612565445,4,2,1,70,1,0
4930,-125,4,2,1,70,0,0
6775,307.692307692308,4,2,1,60,1,0
6775,-125,4,2,1,60,0,0
7159,-125,4,2,1,5,0,0
7236,-125,4,2,1,80,0,0
7389,307.692307692308,4,2,1,80,1,0
7389,-125,4,2,1,80,0,0
16927,-125,4,2,1,50,0,0
17235,-125,4,2,1,55,0,0
25696,324.324324324324,4,2,1,60,1,0
25858,303.030303030303,4,2,1,70,1,0
26009,-125,4,2,1,5,0,0
26085,-125,4,2,1,70,0,0
26236,-125,4,2,1,5,0,0
26312,363.636363636364,4,2,1,70,1,0
26402,-125,4,2,1,5,0,0
26493,294.117647058824,4,2,1,70,1,0
26640,-125,4,2,1,5,0,0
26713,-125,4,2,1,70,0,0
26860,-125,4,2,1,5,0,0
26934,300,4,2,1,70,1,0
27009,-125,4,2,1,5,0,0
27082,307.692307692308,4,2,1,65,1,0
27082,-125,4,2,1,65,0,0
36928,-125,4,2,1,50,0,0
46774,-125,4,2,1,70,0,0
51697,-125,4,2,1,80,0,0
55699,333.333333333333,4,2,1,60,1,0
55699,-125,4,2,1,60,0,0
55949,-125,4,2,1,5,0,0
56032,-125,4,2,1,60,0,0
56282,-125,4,2,1,5,0,0
56365,-125,4,2,1,60,0,0
56611,-125,4,2,1,60,0,0
56615,-125,4,2,1,5,0,0
56695,333.333333333333,4,2,1,80,1,0
56695,-125,4,2,1,80,0,1
67194,-125,4,2,1,80,0,0
67361,-125,4,2,1,90,0,1
70028,-125,4,2,1,100,0,1
72694,-125,4,2,1,80,0,1
77682,326.086956521739,4,2,1,80,1,0
77682,-125,4,2,1,80,0,1
78008,352.941176470588,4,2,1,80,1,0
78008,-125,4,2,1,80,0,0
78272,-125,4,2,1,80,0,0
78387,327.868852459016,4,2,1,70,1,0
78387,-125,4,2,1,70,0,1
78550,-125,4,2,1,70,0,0
79370,333.333333333333,4,2,1,70,1,0
79370,-125,4,2,1,70,0,0
84036,-112.359550561798,4,2,1,70,0,0
84354,333.333333333333,4,2,1,70,1,0
84354,-125,4,2,1,70,0,0
87369,333.333333333333,4,2,1,80,1,0
87369,-125,4,2,1,80,0,0
88203,-125,4,2,1,85,0,0
88369,-125,4,2,1,90,0,0
88536,-125,4,2,1,95,0,0

[Colours]
Combo1 : 213,0,106
Combo2 : 167,167,211
Combo3 : 106,181,255
Combo4 : 254,156,249
Combo5 : 162,255,255
Combo6 : 255,108,108
Combo7 : 255,157,111
Combo8 : 255,255,123

[HitObjects]
42,323,1238,6,0,B|131:349|111:276|203:309,1,160,2|2,0:0|0:0,0:0:0:0:
266,357,2161,1,0,0:0:0:0:
331,298,2468,2,0,P|366:271|439:280,2,120,2|2|2,0:0|0:0|0:0,0:0:0:0:
256,192,3699,12,2,4930,0:0:0:0:
52,33,7236,6,0,P|72:85|84:157,1,120,6|8,1:2|0:0,0:0:0:0:
35,221,8004,2,0,P|16:275|33:306,1,80,2|10,3:2|0:0,0:0:0:0:
92,347,8619,2,0,P|170:323|258:318,1,160,2|0,3:2|3:0,0:0:0:0:
373,357,9696,6,0,P|460:340|472:308,1,120,6|8,1:2|0:0,0:0:0:0:
418,248,10465,1,2,3:2:0:0:
472,178,10773,1,8,0:0:0:0:
426,102,11081,2,0,B|347:65|350:132|270:99,1,160,2|4,3:2|3:0,0:0:0:0:
150,47,12158,6,0,P|170:112|178:176,1,120,6|10,1:2|0:0,0:0:0:0:
201,248,12927,2,0,P|252:221|263:190,1,80,2|10,3:2|0:0,0:0:0:0:
281,117,13542,2,0,P|325:57|408:69,1,160,2|0,3:2|3:2,0:0:0:0:
464,128,14465,1,8,0:0:0:0:
442,213,14773,70,0,P|364:197|352:196,1,80,10|10,0:0|0:0,0:0:0:0:
299,257,15389,1,4,0:3:0:0:
339,334,15696,2,0,L|385:326,2,40,0|4|4,3:3|1:2|1:2,0:0:0:0:
256,366,16312,1,4,3:0:0:0:
185,314,16619,2,0,L|130:323,1,40,4|2,1:0|1:2,0:0:0:0:
45,346,27082,6,0,P|79:306|75:237,1,120,4|8,1:2|0:0,0:0:0:0:
18,175,27851,1,0,3:0:0:0:
67,102,28158,2,0,P|129:114|156:113,1,80,10|2,0:0|3:2,0:0:0:0:
218,63,28774,2,0,P|254:35|295:30,1,80,0|0,0:0|3:0,0:0:0:0:
354,85,29389,5,2,0:0:0:0:
429,40,29697,1,0,0:0:0:0:
492,101,30005,2,0,L|479:184,1,80,2|2,0:0|3:2,0:0:0:0:
476,268,30620,2,0,B|427:259|427:259|404:275|404:275|347:269,1,120,10|8,0:0|0:0,0:0:0:0:
284,228,31389,2,0,P|214:232|205:247,1,80,2|8,3:2|0:0,0:0:0:0:
156,301,32005,6,0,P|85:279|66:192,1,160,2|2,3:2|0:0,0:0:0:0:
113,130,32928,1,2,0:0:0:0:
78,49,33235,2,0,P|134:41|161:54,1,80,0|8,0:0|0:0,0:0:0:0:
226,100,33851,2,0,B|318:111|281:60|382:63,1,160,2|2,3:2|3:2,0:0:0:0:
453,19,34774,1,8,0:0:0:0:
494,96,35082,70,0,P|480:157|479:218,1,120,0|4,3:0|3:2,0:0:0:0:
498,300,35851,1,2,3:0:0:0:
415,331,36158,2,0,B|304:297|332:394|207:345,1,200,4|4,3:2|3:1,0:0:0:0:
79,250,37543,6,0,P|86:213|128:182,1,80,2|2,0:0|0:0,0:0:0:0:
189,136,38158,2,0,P|224:101|226:21,2,120,2|2|2,0:0|0:0|0:0,0:0:0:0:
196,223,39389,2,0,P|208:270|277:312,2,120,2|2|2,0:0|0:0|0:0,0:0:0:0:
116,185,40620,2,0,P|68:172|-2:210,2,120,2|2|2,0:0|0:0|0:0,0:0:0:0:
189,136,41851,1,2,0:0:0:0:
220,218,42158,6,0,L|312:203,1,80,2|2,0:0|0:0,0:0:0:0:
346,130,42774,1,2,0:0:0:0:
399,199,43082,2,0,L|507:271,2,120,2|2|2,0:0|0:0|0:0,0:0:0:0:
346,130,44312,2,0,L|354:0,2,120,2|2|2,0:0|0:0|0:0,0:0:0:0:
313,211,45543,2,0,L|196:268,2,120,4|8|8,0:3|0:3|0:3,0:0:0:0:
399,199,46774,5,4,3:2:0:0:
476,157,47082,2,0,P|464:101|461:72,1,80,2|2,3:2|3:2,0:0:0:0:
395,20,47697,1,0,3:0:0:0:
318,62,48005,2,0,L|223:50,1,80,2|2,3:2|3:2,0:0:0:0:
156,84,48620,2,0,L|73:73,1,80,2|2,3:2|3:2,0:0:0:0:
15,136,49235,69,0,3:2:0:0:
81,193,49543,2,0,L|165:179,1,80,2|2,3:2|3:2,0:0:0:0:
240,214,50158,2,0,L|323:200,1,80,0|2,3:0|3:2,0:0:0:0:
398,239,50774,1,6,3:2:0:0:
383,325,51082,6,0,L|216:312,1,160,2|4,3:2|1:2,0:0:0:0:
144,351,52005,1,4,1:2:0:0:
61,320,52312,2,0,P|65:270|64:233,1,80,8|2,0:3|3:2,0:0:0:0:
19,164,52928,1,2,3:2:0:0:
103,139,53235,1,4,1:2:0:0:
139,58,53543,2,0,P|186:38|232:35,1,80,8|4,3:0|3:0,0:0:0:0:
274,99,54158,6,0,P|304:156|480:110,1,280,4|4,1:2|3:2,0:0:0:0:
382,31,55699,21,10,0:0:0:0:
119,48,56695,6,0,P|130:102|137:215,1,160,6|2,3:2|3:2,0:0:0:0:
77,271,57695,1,8,0:0:0:0:
137,334,58028,2,0,L|217:325,1,80,0|8,3:0|0:0,0:0:0:0:
297,361,58695,2,0,L|376:349,1,80,0|8,3:0|0:0,0:0:0:0:
457,382,59361,6,0,P|501:348|482:253,1,160,6|2,3:2|3:2,0:0:0:0:
400,225,60361,1,8,0:0:0:0:
442,148,60694,2,0,L|453:58,1,80,0|12,3:2|0:0,0:0:0:0:
371,33,61361,2,0,L|360:119,1,80,2|2,3:0|3:0,0:0:0:0:
280,148,62028,1,4,3:2:0:0:
200,109,62361,6,0,P|169:72|169:37,2,80,8|2|8,0:0|3:2|0:0,0:0:0:0:
280,148,63361,1,0,3:2:0:0:
239,226,63694,2,0,L|253:315,2,80,10|2|8,0:0|3:2|0:0,0:0:0:0:
156,194,64694,1,0,3:2:0:0:
101,263,65028,70,0,P|24:221|26:157,1,160,8|12,0:0|0:0,0:0:0:0:
52,73,66028,2,0,P|139:92|145:93,1,80,2|12,3:2|0:0,0:0:0:0:
205,44,66694,2,0,P|244:31|287:29,1,80,12|8,3:2|0:0,0:0:0:0:
347,88,67361,5,14,1:2:0:0:
429,56,67694,1,8,1:2:0:0:
479,128,68028,2,0,P|469:195|468:213,1,80,10|8,1:2|1:2,0:0:0:0:
483,293,68694,1,8,1:2:0:0:
409,341,69028,1,8,1:2:0:0:
332,297,69361,2,0,P|280:298|245:308,1,80,8|8,1:2|1:2,0:0:0:0:
173,341,70028,5,14,1:2:0:0:
87,318,70361,1,12,1:2:0:0:
51,237,70694,2,0,P|74:169|85:150,1,80,14|12,1:2|1:2,0:0:0:0:
151,109,71361,1,12,1:2:0:0:
236,130,71694,1,12,1:2:0:0:
273,210,72028,6,0,B|375:226|336:172|436:180,1,160,8|4,0:0|3:2,0:0:0:0:
484,113,73028,2,0,P|494:61|482:35,1,80,10|2,0:0|3:2,0:0:0:0:
400,8,73694,1,8,0:0:0:0:
326,56,74028,2,0,P|235:44|160:40,1,160,0|2,3:2|3:2,0:0:0:0:
83,67,75028,1,10,0:0:0:0:
36,141,75361,2,0,P|44:212|44:234,1,80,2|8,3:2|0:0,0:0:0:0:
121,263,76028,2,0,P|106:320|103:344,1,80,2|12,3:2|0:0,0:0:0:0:
183,376,76694,69,4,3:2:0:0:
254,323,77028,1,8,0:0:0:0:
331,365,77361,1,8,3:0:0:0:
414,340,77682,2,0,L|402:257,1,80,8|2,0:0|3:2,0:0:0:0:
456,174,78387,6,0,P|460:121|469:81,1,80,4|0,1:2|3:0,0:0:0:0:
418,20,79042,2,0,P|353:10|341:17,1,80,10|0,0:2|3:0,0:0:0:0:
276,72,79703,2,0,P|211:82|199:75,1,80,10|2,0:2|3:2,0:0:0:0:
131,23,80370,1,10,0:2:0:0:
72,88,80703,6,0,L|82:170,1,80,2|8,3:2|0:2,0:0:0:0:
17,227,81370,2,0,L|27:309,1,80,2|10,3:2|0:2,0:0:0:0:
92,364,82036,1,0,3:0:0:0:
169,322,82370,1,14,0:2:0:0:
251,353,82703,2,0,B|323:361|311:304|409:317,1,160,2|2,3:2|3:2,0:0:0:0:
473,263,83703,5,8,0:2:0:0:
407,204,84036,2,0,P|422:138|425:109,1,85.0000016212464,2|10,3:2|0:2,0:0:0:0:
352,68,84687,2,0,P|302:66|271:82,1,80,0|10,3:0|0:2,0:0:0:0:
211,138,85354,2,0,P|218:191|219:224,1,80,2|10,3:2|0:2,0:0:0:0:
160,283,86020,70,0,P|87:278|46:192,1,160,2|2,3:2|3:2,0:0:0:0:
87,131,87020,1,10,0:0:0:0:
79,43,87369,2,0,B|115:22|115:22|157:36,1,80,4|4,1:2|1:2,0:0:0:0:
232,67,88036,1,8,0:0:0:0:
306,20,88369,2,0,L|364:27,1,40,8|8,0:0|0:0,0:0:0:0:
