osu file format v14

[General]
AudioFilename: audio.mp3
AudioLeadIn: 0
PreviewTime: 6657
Countdown: 0
SampleSet: Soft
StackLeniency: 0.3
Mode: 0
LetterboxInBreaks: 0
EpilepsyWarning: 1
WidescreenStoryboard: 1

[Editor]
DistanceSpacing: 5.1
BeatDivisor: 4
GridSize: 4
TimelineZoom: 2.7

[Metadata]
Title:MIIRO vs. Ai no Scenario
TitleUnicode:海色 vs. アイのシナリオ
Artist:Roselia & Afterglow
ArtistUnicode:Roselia & Afterglow
Creator:-Mikan
Version:Djulus' Extra
Source:バンドリ!ガールズバンドパーティ!
Tags:Akitoshi -Laura- Corinn MashaSG schoolboy Komore domSaur -Aqua Blitzifyyy Djulus ktgster lit120 iljaaz Shizuku- piroshki AKINO from bless4 CHiCO with HoneyWorks みいろ opening kantai collection kancolle fleet girls magic kaito 1412 まじっく快斗1412 艦隊これくしょん -艦これ- BanG Dream! Girls Band Party! Garupa Bandori! ガルパ! japanese anime edit tatoe tatowe video game アフターグロウ Mitake Ran 美竹 蘭 Sakura Ayane 佐倉綾音 Aoba Moca 青葉 モカ Misawa Sachika 三澤紗千香 Uehara Himari 上原 ひまり Katou Emiri 加藤 英美里 Udagawa Tomoe 宇田川 巴 Hikasa Yoko 日笠陽子 Hazawa Tsugumi 羽沢 つぐみ Kanemoto Hisako 金元 寿子 ロゼリア minato yukina 湊友希那 aiba aina 相羽あいな hikawa sayo 氷川紗夜 kudou haruka 工藤晴香 imai lisa 今井リサ endou yurika 遠藤ゆりか nakashima yuki 中島由貴 udagawa ako 宇田川あこ sakuragawa megu 櫻川めぐ shirokane rinko 白金燐子 akesaka satomi 明坂聡美
BeatmapID:2167367
BeatmapSetID:1035849

[Difficulty]
HPDrainRate:6
CircleSize:4
OverallDifficulty:9
ApproachRate:9.3
SliderMultiplier:1.8
SliderTickRate:1

[Events]
//Background and Video events
0,0,"032865d41b9ce03fbbd2130325900d0ead2ed12f_s2_n2.jpg",0,0
//Break Periods
2,37128,40989
//Storyboard Layer 0 (Background)
//Storyboard Layer 1 (Fail)
//Storyboard Layer 2 (Pass)
//Storyboard Layer 3 (Foreground)
//Storyboard Layer 4 (Overlay)
//Storyboard Sound Samples

[TimingPoints]
1100,368.098159509202,4,2,1,50,1,0
1238,307.692307692308,4,2,1,50,1,0
1238,-133.333333333333,4,2,1,50,0,0
3699,-1000,4,2,1,50,0,0
4930,314.13612565445,4,2,1,50,1,0
4930,-181.818181818181,4,2,1,50,0,0
6775,307.692307692308,4,2,1,50,1,0
6775,-153.846153846153,4,2,1,50,0,0
6928,-153.846153846153,4,2,1,60,0,0
7159,-153.846153846153,4,2,1,5,0,0
7236,-100,4,2,1,80,0,0
7389,307.692307692308,4,2,1,80,1,0
7696,-111.111111111111,4,2,1,80,0,0
16927,-111.111111111111,4,2,1,50,0,0
17235,-153.846153846153,4,2,1,55,0,0
25696,324.324324324324,4,2,1,60,1,0
25858,303.030303030303,4,2,1,70,1,0
26009,-100,4,2,1,5,0,0
26085,-100,4,2,1,70,0,0
26236,-100,4,2,1,5,0,0
26312,363.636363636364,4,2,1,70,1,0
26402,-100,4,2,1,5,0,0
26493,294.117647058824,4,2,1,70,1,0
26640,-100,4,2,1,5,0,0
26713,-100,4,2,1,70,0,0
26860,-100,4,2,1,5,0,0
26934,300,4,2,1,70,1,0
27009,-100,4,2,1,5,0,0
27082,307.692307692308,4,2,1,65,1,0
27082,-133.333333333333,4,2,1,65,0,0
35543,-100,4,2,1,65,0,0
36774,-133.333333333333,4,2,1,65,0,0
36928,-133.333333333333,4,2,1,50,0,0
41543,-250,4,2,1,50,0,0
44312,-200,4,2,1,50,0,0
46774,-133.333333333333,4,2,1,70,0,0
51697,-133.333333333333,4,2,1,80,0,0
54466,-90.9090909090909,4,2,1,80,0,0
55699,333.333333333333,4,2,1,60,1,0
55699,-500,4,2,1,60,0,0
55949,-500,4,2,1,5,0,0
56032,-500,4,2,1,60,0,0
56282,-500,4,2,1,5,0,0
56365,-500,4,2,1,60,0,0
56615,-500,4,2,1,5,0,0
56695,333.333333333333,4,2,1,80,1,0
56695,-125,4,2,1,80,0,0
67361,-125,4,2,1,90,0,0
70028,-125,4,2,1,100,0,0
72194,-90.9090909090909,4,2,1,100,0,0
72694,-125,4,2,1,80,0,0
77682,326.086956521739,4,2,1,80,1,0
78008,352.941176470588,4,2,1,80,1,0
78387,327.868852459016,4,2,1,70,1,0
78387,-153.846153846153,4,2,1,70,0,0
79370,333.333333333333,4,2,1,70,1,0
79620,-153.846153846153,4,2,1,70,0,0
84354,333.333333333333,4,2,1,70,1,0
84354,-153.846153846154,4,2,1,70,0,0
87369,333.333333333333,4,2,1,80,1,0
87369,-153.846153846153,4,2,1,80,0,0
88203,-153.846153846153,4,2,1,85,0,0
88369,-153.846153846153,4,2,1,90,0,0
88536,-153.846153846153,4,2,1,95,0,0

[Colours]
Combo1 : 213,0,106
Combo2 : 167,167,211
Combo3 : 106,181,255
Combo4 : 254,156,249
Combo5 : 162,255,255
Combo6 : 255,108,108
Combo7 : 255,157,111
Combo8 : 255,255,123

[HitObjects]
100,264,1100,6,0,L|91:220,1,45,0|0,0:0|0:0,0:0:0:0:
50,319,1238,2,0,B|127:327|105:261|198:294,1,135,2|0,0:0|0:0,0:0:0:0:
366,86,1853,2,0,B|325:69|325:69|352:172,1,135.000005149842,2|0,0:0|0:0,0:0:0:0:
467,233,2314,5,2,0:0:0:0:
467,233,2468,2,0,B|441:201|411:212|411:212|384:251|325:237,1,135.000005149842,2|2,0:0|0:0,0:0:0:0:
267,193,2930,2,0,P|237:226|289:302,1,135.000005149842,2|2,0:0|0:0,0:0:0:0:
147,379,3391,2,0,L|159:291,1,67.5000025749208,2|2,0:0|0:0,0:0:0:0:
64,63,3699,6,0,L|76:117,1,54,2|2,0:0|0:0,0:0:0:0:
87,129,4930,6,0,L|76:186,2,49.5000015106202,2|0|0,0:1|0:0|0:0,0:0:0:0:
199,70,5401,2,0,L|184:-1,2,49.5000015106202,2|0|0,0:1|0:0|0:0,0:0:0:0:
197,178,5872,70,0,L|186:235,2,49.5000015106202,2|0|0,0:1|0:0|0:0,0:0:0:0:
309,119,6343,2,0,L|294:48,2,49.5000015106202,2|0|0,0:1|0:0|0:0,0:0:0:0:
443,198,6775,6,0,B|485:252|446:303|446:303|417:265,1,146.249993305207,2|0,0:0|0:0,0:0:0:0:
374,353,7236,6,0,P|313:302|253:326,1,135,6|0,1:2|0:0,0:0:0:0:
252,333,7542,1,0,0:0:0:0:
29,182,7696,2,0,P|87:195|128:204,1,80.9999975280763,10|0,0:0|0:0,0:0:0:0:
293,101,8004,1,2,3:2:0:0:
197,255,8158,1,2,3:2:0:0:
94,92,8312,2,0,P|85:47|111:19,1,80.9999975280763,10|0,0:0|0:0,0:0:0:0:
287,179,8619,5,2,3:2:0:0:
94,326,8773,1,0,3:0:0:0:
287,384,8927,2,0,P|330:354|378:372,1,80.9999975280763,10|2,0:0|0:0,0:0:0:0:
495,142,9235,2,0,P|479:207|475:239,1,80.9999975280763,0|2,3:0|3:2,0:0:0:0:
354,21,9542,1,10,0:0:0:0:
239,173,9696,70,0,P|308:118|398:146,1,161.999995056153,6|0,1:2|3:0,0:0:0:0:
182,252,10158,2,0,P|129:238|55:224,1,121.499996292114,8|0,0:0|0:0,0:0:0:0:
42,227,10465,1,2,3:2:0:0:
277,81,10619,1,2,3:2:0:0:
282,260,10773,2,0,P|271:322|267:379,1,80.9999975280763,8|2,0:0|0:0,0:0:0:0:
417,112,11081,5,2,3:2:0:0:
182,252,11235,1,2,3:2:0:0:
428,330,11389,1,8,0:0:0:0:
277,81,11542,1,2,0:0:0:0:
134,331,11696,1,4,3:0:0:0:
111,347,11772,1,0,3:0:0:0:
83,352,11849,1,8,0:3:0:0:
56,344,11926,1,8,0:3:0:0:
35,325,12003,1,8,3:3:0:0:
31,216,12158,6,0,B|114:194|105:271|185:251,1,161.999995056153,6|0,1:2|3:0,0:0:0:0:
299,60,12619,2,0,L|284:139,1,80.9999975280763,10|0,0:0|0:0,0:0:0:0:
186,86,12927,1,2,3:2:0:0:
392,136,13081,1,2,3:2:0:0:
186,86,13235,2,0,P|133:77|107:55,1,80.9999975280763,10|0,0:0|0:0,0:0:0:0:
262,217,13542,5,2,3:2:0:0:
103,314,13696,1,0,3:0:0:0:
198,384,13850,2,0,L|209:276,1,80.9999975280763,10|2,0:0|0:0,0:0:0:0:
354,71,14158,1,0,3:2:0:0:
130,187,14312,1,2,3:2:0:0:
365,342,14465,1,8,0:0:0:0:
268,210,14619,1,2,3:2:0:0:
268,210,14696,1,2,3:2:0:0:
268,210,14773,69,10,0:0:0:0:
36,278,14927,1,0,3:0:0:0:
345,249,15081,1,10,0:0:0:0:
109,157,15235,1,2,3:2:0:0:
352,120,15389,1,4,0:3:0:0:
152,250,15542,1,8,0:3:0:0:
383,352,15696,1,0,3:3:0:0:
262,173,15850,1,4,1:2:0:0:
160,368,16004,5,4,1:2:0:0:
399,220,16158,1,0,3:0:0:0:
157,95,16312,1,4,3:0:0:0:
286,365,16465,1,2,3:2:0:0:
286,365,16542,1,2,3:2:0:0:
286,365,16619,1,4,1:0:0:0:
430,124,16773,1,2,1:2:0:0:
434,108,17235,6,0,P|443:182|451:236,2,116.999994644165,2|2|0,0:0|0:0|0:0,0:0:0:0:
142,306,18158,1,2,0:0:0:0:
134,305,18312,2,0,P|178:302|222:367,1,116.999994644165,2|0,0:0|0:0,0:0:0:0:
310,368,18773,6,0,L|323:297,1,58.4999973220826,0|2,0:0|0:0,0:0:0:0:
272,225,19081,2,0,L|289:287,1,58.4999973220826,0|0,0:0|0:0,0:0:0:0:
366,202,19389,1,2,0:0:0:0:
311,135,19542,1,2,0:0:0:0:
300,134,19696,70,0,B|242:143|251:85|169:114,1,116.999994644165,2|0,0:0|0:0,0:0:0:0:
14,50,20158,2,0,P|46:39|105:97,1,116.999994644165,2|2,0:0|0:0,0:0:0:0:
125,170,20619,1,0,0:0:0:0:
121,177,20773,2,0,L|114:248,1,58.4999973220826,2|0,0:0|0:0,0:0:0:0:
63,325,21081,6,0,B|135:343|109:288|192:311,1,116.999994644165,2|2,0:0|0:0,0:0:0:0:
249,360,21542,2,0,P|259:278|265:220,1,116.999994644165,0|2,0:0|0:0,0:0:0:0:
369,179,22004,1,2,0:0:0:0:
280,76,22158,6,0,L|292:144,1,58.4999973220826,0|0,0:0|0:0,0:0:0:0:
370,198,22465,2,0,L|360:269,1,58.4999973220826,2|2,0:0|0:0,0:0:0:0:
275,330,22773,2,0,P|238:297|161:327,1,116.999994644165,2|2,0:0|0:0,0:0:0:0:
94,253,23235,6,0,P|101:194|112:119,2,116.999994644165,2|2|2,0:0|0:0|0:0,0:0:0:0:
366,363,24312,1,2,0:0:0:0:
306,291,24465,1,2,0:0:0:0:
306,291,24619,2,0,P|266:312|282:392,1,116.999994644165,0|0,0:0|0:0,0:0:0:0:
391,288,25081,2,0,P|398:213|413:152,1,116.999994644165,2|2,0:0|0:1,0:0:0:0:
341,48,25542,2,0,P|345:97|344:118,1,58.4999973220826,2|2,0:0|0:0,0:0:0:0:
151,239,25858,70,0,B|181:208|212:223|212:223|229:193|275:189,2,135,2|2|2,0:1|0:1|0:1,0:0:0:0:
413,321,26493,6,0,P|327:324|321:401,2,135,2|2|2,0:1|0:1|0:1,0:0:0:0:
212,356,27082,6,0,B|146:381|160:311|72:337,1,135.000005149842,4|2,1:2|0:0,0:0:0:0:
195,233,27543,1,8,0:0:0:0:
89,159,27697,2,0,P|96:218|104:257,1,67.5000025749208,2|0,3:2|3:0,0:0:0:0:
237,133,28005,1,2,0:0:0:0:
102,58,28158,6,0,P|175:47|250:27,1,135.000005149842,10|2,0:0|3:2,0:0:0:0:
338,102,28620,2,0,P|324:154|321:186,1,67.5000025749208,8|0,0:0|0:0,0:0:0:0:
477,186,28928,2,0,P|429:164|411:143,1,67.5000025749208,2|0,3:2|3:0,0:0:0:0:
283,254,29235,1,8,0:0:0:0:
375,384,29389,69,2,0:0:0:0:
375,384,29466,1,0,0:0:0:0:
375,384,29543,2,0,P|382:306|405:228,1,135.000005149842,0|10,3:2|0:0,0:0:0:0:
286,333,30005,1,2,0:0:0:0:
168,222,30158,2,0,P|176:178|178:133,1,67.5000025749208,2|2,3:2|3:2,0:0:0:0:
271,233,30466,1,0,0:0:0:0:
86,375,30620,6,0,P|123:331|221:349,1,135.000005149842,10|0,0:0|3:0,0:0:0:0:
403,206,31082,2,0,P|336:222|259:234,1,135.000005149842,8|2,0:0|3:2,0:0:0:0:
196,329,31543,1,0,3:0:0:0:
330,368,31697,1,8,0:0:0:0:
178,222,31851,5,8,0:0:0:0:
178,222,31928,1,8,0:0:0:0:
178,222,32005,2,0,P|169:169|170:139,1,67.5000025749208,2|0,3:2|0:0,0:0:0:0:
294,19,32312,2,0,P|303:70|302:112,1,67.5000025749208,0|8,3:0|0:0,0:0:0:0:
160,40,32620,2,0,P|115:44|70:131,1,135.000005149842,2|2,0:0|0:0,0:0:0:0:
195,219,33082,6,0,B|268:192|258:274|341:230,1,135.000005149842,10|2,0:0|3:2,0:0:0:0:
204,371,33543,2,0,P|210:322|212:286,1,67.5000025749208,8|0,0:0|0:0,0:0:0:0:
277,128,33851,1,2,3:2:0:0:
94,238,34005,1,0,3:0:0:0:
295,334,34158,2,0,P|348:318|375:330,1,67.5000025749208,8|2,0:0|0:0,0:0:0:0:
436,248,34466,70,0,P|447:186|462:96,2,135.000005149842,2|8|0,3:2|0:0|3:0,0:0:0:0:
357,320,35235,1,8,0:0:0:0:
339,290,35311,1,8,0:0:0:0:
310,273,35388,1,8,0:0:0:0:
277,273,35465,1,0,0:0:0:0:
248,288,35543,6,0,B|215:283|196:320|196:320|160:300|128:346,1,135,4|0,3:2|0:0,0:0:0:0:
47,376,35851,6,0,B|-11:344|16:285|16:285|68:312,1,135,2|0,3:0|0:0,0:0:0:0:
112,240,36158,6,0,P|121:177|132:93,1,135,4|0,3:2|0:0,0:0:0:0:
202,37,36466,69,8,3:0:0:0:
228,21,36542,1,8,3:0:0:0:
259,21,36619,1,8,3:0:0:0:
286,36,36696,1,8,3:0:0:0:
302,63,36774,2,0,L|307:104,1,33.7500012874604,4|4,3:0|3:0,0:0:0:0:
278,185,36928,1,4,3:1:0:0:
173,67,41543,6,0,L|183:112,1,36,2|0,0:0|0:0,0:0:0:0:
231,166,41851,6,0,B|310:147|358:216|358:216|414:178|366:128|340:158,1,252,2|0,0:0|0:0,0:0:0:0:
274,256,43082,6,0,P|257:309|294:348,2,108,2|2|2,0:0|0:0|0:0,0:0:0:0:
447,149,44312,70,0,B|501:103|478:56|437:46|437:79,2,135,2|2|2,0:0|0:0|0:0,0:0:0:0:
367,216,45389,5,4,0:3:0:0:
357,208,45466,1,4,0:3:0:0:
342,207,45543,1,4,0:3:0:0:
279,254,46005,1,8,0:3:0:0:
214,221,46466,1,8,0:3:0:0:
214,221,46774,6,0,L|232:78,2,135.000005149842,4|2|2,3:2|3:2|3:2,0:0:0:0:
341,303,47543,1,0,0:0:0:0:
241,384,47697,2,0,L|254:310,1,67.5000025749208,0|2,3:0|0:0,0:0:0:0:
367,185,48005,6,0,P|406:179|442:187,1,67.5000025749208,2|2,3:2|0:0,0:0:0:0:
140,350,48312,2,0,P|106:353|67:337,1,67.5000025749208,2|0,3:2|0:0,0:0:0:0:
266,257,48620,1,2,3:2:0:0:
169,108,48774,2,0,P|164:157|160:190,1,67.5000025749208,2|2,1:3|3:2,0:0:0:0:
360,373,49082,2,0,P|354:322|355:288,1,67.5000025749208,2|0,1:3|3:2,0:0:0:0:
417,150,49389,69,2,0:0:0:0:
260,281,49543,1,2,3:2:0:0:
451,332,49697,1,2,0:0:0:0:
326,191,49851,2,0,P|269:175|239:153,1,67.5000025749208,2|0,3:2|0:0,0:0:0:0:
122,348,50158,2,0,P|157:332|198:327,1,67.5000025749208,0|2,3:0|0:0,0:0:0:0:
324,107,50466,5,2,3:2:0:0:
149,210,50620,1,2,0:0:0:0:
306,324,50774,2,0,B|383:338|358:273|451:295,1,135.000005149842,6|2,3:2|3:2,0:0:0:0:
282,38,51235,1,8,3:0:0:0:
276,71,51311,1,8,3:0:0:0:
270,104,51388,1,8,3:0:0:0:
266,137,51465,1,8,3:0:0:0:
262,171,51542,1,4,3:0:0:0:
103,358,51697,5,4,1:2:0:0:
443,189,51851,1,2,3:2:0:0:
68,194,52005,5,4,1:2:0:0:
445,350,52158,1,2,3:2:0:0:
112,122,52312,69,8,0:3:0:0:
203,341,52466,1,2,3:2:0:0:
105,98,52620,1,2,3:2:0:0:
300,261,52774,5,4,1:2:0:0:
358,32,52928,1,2,3:2:0:0:
296,278,53082,1,8,3:0:0:0:
460,83,53235,5,4,1:2:0:0:
219,216,53389,1,8,3:0:0:0:
200,212,53466,1,8,3:0:0:0:
183,208,53543,1,8,3:0:0:0:
441,341,53697,1,4,3:0:0:0:
268,87,53851,1,4,3:0:0:0:
496,202,54005,1,2,3:2:0:0:
258,335,54158,2,0,L|138:351,1,101.250003862381,4|8,1:2|0:0,0:0:0:0:
65,266,54466,6,0,L|157:284,1,49.5000015106202,8|8,0:0|0:0,0:0:0:0:
280,143,54620,1,8,0:0:0:0:
271,144,54697,1,8,0:0:0:0:
259,147,54774,2,0,L|200:159,1,49.5000015106202,8|8,0:0|0:0,0:0:0:0:
363,311,54928,2,0,L|444:335,1,49.5000015106202,8|8,0:0|0:0,0:0:0:0:
512,194,55082,1,8,0:0:0:0:
487,197,55158,1,8,0:0:0:0:
468,222,55235,1,4,3:2:0:0:
468,222,55699,6,0,L|460:143,1,72,10|2,0:0|0:0,0:0:0:0:
468,222,56695,6,0,B|389:236|425:165|325:190,1,144,6|8,3:2|0:0,0:0:0:0:
403,80,57195,2,0,P|436:64|489:63,1,72,0|2,0:0|3:2,0:0:0:0:
242,296,57528,1,2,0:0:0:0:
332,383,57695,2,0,L|341:311,1,72,8|2,0:0|0:0,0:0:0:0:
166,126,58028,6,0,P|171:181|170:217,1,72,0|2,3:0|0:0,0:0:0:0:
326,107,58361,2,0,P|279:97|249:75,1,72,8|2,0:0|0:0,0:0:0:0:
290,238,58695,1,0,3:0:0:0:
425,152,58861,2,0,P|436:73|448:0,1,144,2|0,0:0|0:0,0:0:0:0:
290,238,59361,6,0,P|356:231|400:313,1,144,6|8,3:2|0:0,0:0:0:0:
266,375,59861,1,0,0:0:0:0:
201,228,60028,2,0,P|206:191|212:155,1,72,2|2,3:2|0:0,0:0:0:0:
330,307,60361,1,8,0:0:0:0:
179,377,60528,70,0,P|114:381|82:393,1,72,2|0,0:0|3:2,0:0:0:0:
4,221,60861,2,0,P|53:246|97:257,1,72,2|12,0:0|0:0,0:0:0:0:
239,82,61194,1,2,0:0:0:0:
95,167,61361,1,2,3:0:0:0:
239,302,61528,1,2,3:2:0:0:
242,276,61611,1,0,3:0:0:0:
246,252,61694,1,2,3:0:0:0:
252,227,61778,1,0,3:0:0:0:
260,203,61861,1,2,3:2:0:0:
138,36,62028,6,0,P|150:83|159:126,1,72,4|0,3:2|0:0,0:0:0:0:
315,129,62361,1,8,0:0:0:0:
155,248,62528,1,0,0:0:0:0:
312,332,62694,2,0,P|356:344|389:348,1,72,2|2,3:2|0:0,0:0:0:0:
260,203,63028,1,8,0:0:0:0:
166,329,63194,6,0,P|112:339|19:362,1,144,2|0,0:0|0:0,0:0:0:0:
123,148,63694,2,0,P|132:189|131:223,1,72,10|0,0:0|0:0,0:0:0:0:
301,355,64028,2,0,P|292:314|293:278,1,72,2|2,3:2|0:0,0:0:0:0:
394,289,64361,1,8,0:0:0:0:
204,309,64528,1,2,0:0:0:0:
394,289,64694,6,0,B|421:260|456:268|456:268|498:314|532:292,1,144,0|8,3:2|0:0,0:0:0:0:
301,179,65194,2,0,P|245:190|203:199,1,72,0|2,0:0|3:2,0:0:0:0:
474,72,65528,1,2,0:0:0:0:
365,17,65694,2,0,L|386:111,1,72,12|0,0:0|0:0,0:0:0:0:
292,271,66028,1,2,3:2:0:0:
72,50,66194,70,0,B|160:78|160:78|178:119|144:138,1,144,2|2,3:2|0:0,0:0:0:0:
23,283,66694,1,12,3:2:0:0:
145,350,66861,1,10,0:0:0:0:
141,324,66944,1,8,0:0:0:0:
138,299,67027,1,8,0:0:0:0:
135,274,67110,1,8,2:2:0:0:
132,249,67194,1,0,3:0:0:0:
356,72,67361,5,14,1:2:0:0:
140,75,67528,1,0,3:0:0:0:
405,160,67694,1,8,1:2:0:0:
205,22,67861,1,0,3:0:0:0:
456,47,68028,1,10,1:2:0:0:
174,173,68194,1,2,3:2:0:0:
376,354,68361,1,8,1:2:0:0:
273,90,68528,1,2,3:2:0:0:
190,349,68694,5,8,1:2:0:0:
416,122,68861,1,2,3:2:0:0:
504,351,69028,1,8,1:2:0:0:
286,188,69194,1,2,3:2:0:0:
265,182,69278,1,0,0:0:0:0:
249,178,69361,1,8,1:2:0:0:
116,297,69528,1,2,3:2:0:0:
415,210,69694,1,8,1:2:0:0:
173,32,69861,1,0,3:0:0:0:
262,310,70028,5,14,1:2:0:0:
378,85,70194,1,0,3:0:0:0:
144,198,70361,1,12,1:2:0:0:
405,351,70528,1,0,3:0:0:0:
240,144,70694,1,14,1:2:0:0:
133,358,70861,1,2,3:2:0:0:
395,202,71028,1,12,1:2:0:0:
120,49,71194,1,2,3:2:0:0:
345,316,71361,70,0,P|396:291|464:317,1,108,12|0,1:2|0:0,0:0:0:0:
512,238,71694,2,0,L|506:150,1,72,12|2,1:2|3:2,0:0:0:0:
427,62,72028,1,8,0:0:0:0:
350,214,72194,6,0,P|388:223|416:220,1,49.5000015106202,10|8,0:0|0:0,0:0:0:0:
249,141,72361,2,0,P|220:146|191:166,1,49.5000015106202,8|8,0:0|0:0,0:0:0:0:
109,294,72528,2,0,P|133:289|156:281,1,49.5000015106202,10|8,0:0|0:0,0:0:0:0:
30,208,72694,6,0,P|23:280|18:352,1,144,4|10,3:2|0:0,0:0:0:0:
228,219,73194,1,0,0:0:0:0:
99,125,73361,2,0,P|61:119|6:116,1,72,2|2,3:2|0:0,0:0:0:0:
187,30,73694,2,0,P|223:32|259:34,1,72,8|2,0:0|0:0,0:0:0:0:
390,142,74028,6,0,B|315:134|337:188|248:182,1,144,0|10,3:2|0:0,0:0:0:0:
437,72,74528,1,0,0:0:0:0:
479,203,74694,2,0,P|475:239|471:362,1,144,2|10,3:2|0:0,0:0:0:0:
345,252,75194,1,2,0:0:0:0:
107,342,75361,70,0,P|173:367|240:344,1,144,2|8,3:2|0:0,0:0:0:0:
94,228,75861,1,0,0:0:0:0:
94,228,76028,2,0,L|7:246,1,72,2|2,3:2|0:0,0:0:0:0:
222,68,76361,2,0,L|212:157,1,72,12|2,0:0|0:0,0:0:0:0:
370,352,76694,1,4,3:2:0:0:
385,332,76777,1,0,3:0:0:0:
389,307,76860,1,0,3:0:0:0:
380,284,76943,1,0,3:0:0:0:
360,269,77028,6,0,L|347:204,1,36,8|8,0:0|0:0,0:0:0:0:
492,120,77194,2,0,L|502:160,1,36,8|8,0:0|0:0,0:0:0:0:
379,66,77361,1,8,3:0:0:0:
357,64,77444,1,8,3:0:0:0:
335,62,77527,1,8,3:0:0:0:
314,61,77610,1,8,3:0:0:0:
284,91,77682,5,8,0:0:0:0:
252,95,77763,1,8,0:0:0:0:
221,100,77845,1,8,0:0:0:0:
190,104,77926,1,8,0:0:0:0:
160,108,78008,6,0,P|219:125|227:204,1,135,2|0,3:2|0:0,0:0:0:0:
169,241,78387,69,4,1:2:0:0:
297,329,78550,1,0,0:0:0:0:
195,380,78714,2,0,L|211:313,1,58.4999973220826,0|0,3:0|0:0,0:0:0:0:
347,226,79042,5,10,0:2:0:0:
347,226,79206,2,0,L|339:160,1,58.4999973220826,2|0,0:0|3:0,0:0:0:0:
440,56,79536,5,2,0:0:0:0:
434,60,79703,2,0,L|418:123,1,58.4999973220826,10|0,0:2|0:0,0:0:0:0:
288,73,80036,5,2,3:2:0:0:
217,62,80203,1,2,0:0:0:0:
165,110,80370,1,10,0:2:0:0:
176,181,80536,1,2,0:0:0:0:
56,288,80703,69,2,3:2:0:0:
63,281,80870,2,0,L|72:212,1,58.4999973220826,2|8,0:0|0:2,0:0:0:0:
205,349,81203,5,2,0:0:0:0:
212,340,81370,2,0,L|202:272,1,58.4999973220826,2|0,3:2|0:0,0:0:0:0:
329,156,81703,5,10,0:2:0:0:
336,169,81870,2,0,L|324:237,1,58.4999973220826,2|0,0:0|3:0,0:0:0:0:
252,121,82203,1,0,3:0:0:0:
331,59,82370,2,0,P|398:51|410:49,1,58.4999973220826,14|0,0:2|0:0,0:0:0:0:
488,155,82703,5,2,3:2:0:0:
416,183,82870,1,10,0:0:0:0:
401,257,83036,1,10,0:2:0:0:
461,306,83203,1,2,0:0:0:0:
352,366,83370,69,2,3:2:0:0:
352,366,83536,2,0,L|282:344,1,58.4999973220826,2|8,0:0|0:2,0:0:0:0:
214,259,83870,5,2,0:0:0:0:
214,259,84036,2,0,L|145:267,1,58.4999973220826,2|0,3:2|0:0,0:0:0:0:
262,103,84354,5,10,0:2:0:0:
262,103,84520,2,0,P|272:163|272:174,1,58.4999973220826,2|0,0:0|3:0,0:0:0:0:
405,236,84854,1,2,0:0:0:0:
315,319,85020,2,0,L|325:243,1,58.4999973220826,10|0,0:2|0:0,0:0:0:0:
220,361,85354,5,2,3:2:0:0:
147,350,85520,1,2,0:0:0:0:
120,281,85687,1,10,0:2:0:0:
168,224,85854,1,2,0:0:0:0:
70,87,86020,69,2,3:2:0:0:
80,100,86187,2,0,L|88:164,1,58.4999973220826,2|8,0:0|0:2,0:0:0:0:
219,35,86520,5,2,0:0:0:0:
212,48,86687,2,0,L|205:119,1,58.4999973220826,2|0,3:2|0:0,0:0:0:0:
338,198,87020,5,10,0:0:0:0:
352,186,87187,2,0,L|345:115,1,58.4999973220826,2|4,0:0|1:2,0:0:0:0:
249,247,87536,1,0,3:0:0:0:
404,316,87703,2,0,L|477:294,1,58.4999973220826,4|0,1:2|3:0,0:0:0:0:
345,128,88036,5,8,0:0:0:0:
242,338,88203,1,8,0:0:0:0:
433,198,88369,1,8,0:0:0:0:
209,88,88536,1,8,0:0:0:0:
