osu file format v14

[General]
AudioFilename: audio.mp3
AudioLeadIn: 0
PreviewTime: 6657
Countdown: 0
SampleSet: Soft
StackLeniency: 0.3
Mode: 0
LetterboxInBreaks: 0
EpilepsyWarning: 1
WidescreenStoryboard: 1

[Editor]
Bookmarks: 79057
DistanceSpacing: 2.1
BeatDivisor: 4
GridSize: 32
TimelineZoom: 1.9

[Metadata]
Title:MIIRO vs. Ai no Scenario
TitleUnicode:海色 vs. アイのシナリオ
Artist:Roselia & Afterglow
ArtistUnicode:Roselia & Afterglow
Creator:-Mikan
Version:Beginner
Source:バンドリ!ガールズバンドパーティ!
Tags:Akitoshi -Laura- Corinn MashaSG schoolboy Komore domSaur -Aqua Blitzifyyy Djulus ktgster lit120 iljaaz Shizuku- piroshki AKINO from bless4 CHiCO with HoneyWorks みいろ opening kantai collection kancolle fleet girls magic kaito 1412 まじっく快斗1412 艦隊これくしょん -艦これ- BanG Dream! Girls Band Party! Garupa Bandori! ガルパ! japanese anime edit tatoe tatowe video game アフターグロウ Mitake Ran 美竹 蘭 Sakura Ayane 佐倉綾音 Aoba Moca 青葉 モカ Misawa Sachika 三澤紗千香 Uehara Himari 上原 ひまり Katou Emiri 加藤 英美里 Udagawa Tomoe 宇田川 巴 Hikasa Yoko 日笠陽子 Hazawa Tsugumi 羽沢 つぐみ Kanemoto Hisako 金元 寿子 ロゼリア minato yukina 湊友希那 aiba aina 相羽あいな hikawa sayo 氷川紗夜 kudou haruka 工藤晴香 imai lisa 今井リサ endou yurika 遠藤ゆりか nakashima yuki 中島由貴 udagawa ako 宇田川あこ sakuragawa megu 櫻川めぐ shirokane rinko 白金燐子 akesaka satomi 明坂聡美
BeatmapID:2170634
BeatmapSetID:1035849

[Difficulty]
HPDrainRate:2
CircleSize:2.5
OverallDifficulty:1.5
ApproachRate:3
SliderMultiplier:0.7
SliderTickRate:1

[Events]
//Background and Video events
0,0,"032865d41b9ce03fbbd2130325900d0ead2ed12f_s2_n2.jpg",0,0
//Break Periods
2,17220,25642
//Storyboard Layer 0 (Background)
//Storyboard Layer 1 (Fail)
//Storyboard Layer 2 (Pass)
//Storyboard Layer 3 (Foreground)
//Storyboard Layer 4 (Overlay)
//Storyboard Sound Samples

[TimingPoints]
1100,368.098159509202,4,2,1,60,1,0
1238,307.692307692308,4,2,1,60,1,0
1238,-100,4,2,1,60,0,0
3699,-100,4,2,1,60,0,0
4930,314.13612565445,4,2,1,70,1,0
4930,-100,4,2,1,70,0,0
6775,307.692307692308,4,2,1,60,1,0
6775,-100,4,2,1,60,0,0
7159,-100,4,2,1,5,0,0
7236,-100,4,2,1,80,0,0
7389,307.692307692308,4,2,1,80,1,0
7389,-100,4,2,1,80,0,0
16927,-100,4,2,1,50,0,0
17235,-100,4,2,1,55,0,0
25696,324.324324324324,4,2,1,60,1,0
25858,303.030303030303,4,2,1,70,1,0
26009,-100,4,2,1,5,0,0
26085,-100,4,2,1,70,0,0
26236,-100,4,2,1,5,0,0
26312,363.636363636364,4,2,1,70,1,0
26402,-100,4,2,1,5,0,0
26493,294.117647058824,4,2,1,70,1,0
26640,-100,4,2,1,5,0,0
26713,-100,4,2,1,70,0,0
26860,-100,4,2,1,5,0,0
26934,300,4,2,1,70,1,0
27009,-100,4,2,1,5,0,0
27082,307.692307692308,4,2,1,65,1,0
27082,-100,4,2,1,65,0,0
36928,-100,4,2,1,50,0,0
46774,-100,4,2,1,70,0,0
51697,-100,4,2,1,80,0,0
55699,333.333333333333,4,2,1,60,1,0
55699,-100,4,2,1,60,0,0
55949,-100,4,2,1,5,0,0
56032,-100,4,2,1,60,0,0
56282,-100,4,2,1,5,0,0
56365,-100,4,2,1,60,0,0
56611,-100,4,2,1,60,0,0
56615,-100,4,2,1,5,0,0
56695,333.333333333333,4,2,1,80,1,0
56695,-100,4,2,1,80,0,1
67194,-100,4,2,1,80,0,0
67361,-100,4,2,1,80,0,1
70028,-100,4,2,1,80,0,1
72694,-100,4,2,1,80,0,1
77682,326.086956521739,4,2,1,80,1,0
77682,-100,4,2,1,80,0,1
78008,352.941176470588,4,2,1,80,1,0
78008,-100,4,2,1,80,0,0
78272,-100,4,2,1,80,0,0
78387,327.868852459016,4,2,1,70,1,0
78387,-100,4,2,1,70,0,1
78550,-100,4,2,1,70,0,0
79370,333.333333333333,4,2,1,70,1,0
79370,-100,4,2,1,70,0,0
84354,333.333333333333,4,2,1,70,1,0
87369,333.333333333333,4,2,1,80,1,0
87369,-100,4,2,1,80,0,0
88203,-100,4,2,1,85,0,0
88369,-100,4,2,1,90,0,0
88536,-100,4,2,1,95,0,0

[Colours]
Combo1 : 213,0,106
Combo2 : 167,167,211
Combo3 : 106,181,255
Combo4 : 254,156,249
Combo5 : 162,255,255
Combo6 : 255,108,108
Combo7 : 255,157,111
Combo8 : 255,255,123

[HitObjects]
12,313,1238,6,0,B|42:278|42:278|99:289|99:289|128:340|128:340|201:337|201:337|224:297,1,280,2|2,0:0|0:0,0:0:0:0:
160,189,2930,1,2,0:0:0:0:
254,106,3391,1,2,0:0:0:0:
256,192,3699,12,2,4930,0:0:0:0:
498,58,7236,6,0,B|452:57|452:57|440:81|440:81|398:102|398:102|362:78|362:78|353:51|353:51|297:49,1,245,6|10,1:2|0:0,0:0:0:0:
234,103,8619,2,0,B|179:76|179:76|176:34|176:34|120:22|120:22|78:50|78:50|89:84,1,245,2|6,3:2|1:2,0:0:0:0:
12,183,10158,1,8,0:0:0:0:
94,329,10773,6,0,B|162:323|162:323|194:354|194:354|248:345|248:345|276:305,1,210,8|4,0:0|3:0,0:0:0:0:
375,237,12158,2,0,B|436:262|436:262|477:221|477:221|450:159|450:159|482:102,1,245,6|10,1:2|0:0,0:0:0:0:
424,46,13542,2,0,B|361:40|361:40|327:60|327:60|210:45,1,210,2|8,3:2|0:0,0:0:0:0:
145,8,14773,5,10,0:0:0:0:
26,127,15389,1,4,0:3:0:0:
122,264,16004,1,4,1:2:0:0:
238,142,16619,1,4,1:0:0:0:
442,349,27082,70,0,B|367:338|367:338|337:303|337:303|252:291|252:291|217:323,2,245,4|10|8,1:2|0:0|0:0,0:0:0:0:
483,275,29543,2,0,B|471:192|471:192|455:173|455:173|462:148|462:148|447:37,1,245,0|10,3:2|0:0,0:0:0:0:
334,95,31082,1,8,0:0:0:0:
183,20,31697,5,8,0:0:0:0:
105,52,32005,2,0,B|117:112|117:112|146:126|146:126|126:193|126:193|90:190|90:190|106:280,1,280,2|0,3:2|0:0,0:0:0:0:
253,345,33851,2,0,B|243:283|243:283|294:250|294:250|347:275|347:275|342:309,1,210,2|8,3:2|0:0,0:0:0:0:
401,362,35082,1,0,3:0:0:0:
498,282,35543,6,0,B|449:226|449:226|469:149,1,140,4|4,3:2|3:2,0:0:0:0:
486,81,36466,2,0,L|374:55,1,105,8|4,3:0|3:1,0:0:0:0:
219,91,37543,6,0,B|234:34|234:34|175:11|175:11|103:33|103:33|114:103|114:103|66:141|66:141|87:200|87:200|135:205|135:205|121:280|121:280|77:285|77:285|81:343|81:343|122:368|122:368|169:357,1,700,2|2,0:0|0:0,0:0:0:0:
363,96,41851,2,0,B|348:39|348:39|407:16|407:16|479:38|479:38|468:108|468:108|516:146|516:146|495:205|495:205|447:210|447:210|460:285|460:285|504:290|504:290|500:348|500:348|460:373|460:373|413:362,1,700,2|2,0:0|0:0,0:0:0:0:
268,308,45543,69,4,0:3:0:0:
153,361,46005,1,8,0:3:0:0:
42,301,46466,1,8,0:3:0:0:
95,236,46774,6,0,B|62:175|62:175|80:125|80:125|121:114|121:114|148:60,1,210,4|0,3:2|3:0,0:0:0:0:
204,18,48005,2,0,B|247:20|247:20|308:59|308:59|369:63,1,175,2|2,3:2|1:3,0:0:0:0:
433,11,49082,1,2,1:3:0:0:
495,66,49389,2,0,L|474:320,1,245,2|2,0:0|3:2,0:0:0:0:
309,342,51082,6,0,B|309:295|309:295|272:266|272:266|221:279,1,140,2|4,3:2|1:2,0:0:0:0:
153,317,52005,1,4,1:2:0:0:
98,253,52312,2,0,B|98:206|98:206|135:177|135:177|186:190,1,140,8|2,0:3|3:2,0:0:0:0:
256,155,53235,2,0,L|263:73,1,70,4|8,1:2|3:0,0:0:0:0:
324,28,53851,1,4,3:0:0:0:
402,57,54158,6,0,B|415:123|415:123|456:157|456:157|431:199|431:199|442:275,1,245,4|4,1:2|3:2,0:0:0:0:
76,341,56695,6,0,B|51:280|106:200|148:260|176:178,1,210,6|8,3:2|0:0,0:0:0:0:
118,117,58028,2,0,P|106:76|227:63,1,210,0|8,3:0|0:0,0:0:0:0:
286,114,59361,1,6,3:2:0:0:
435,36,60028,1,2,3:2:0:0:
447,203,60694,6,0,B|402:195|368:234|378:259|326:265,2,140,0|2|4,3:2|3:0|3:2,0:0:0:0:
406,39,62694,2,0,P|356:37|299:113,1,140,2|0,3:2|3:2,0:0:0:0:
150,177,64028,2,0,P|65:115|69:81,1,140,2|0,3:2|3:2,0:0:0:0:
208,3,65361,1,2,3:2:0:0:
344,100,66028,2,0,B|330:146|363:205|371:187|405:263|387:313,1,210,2|8,3:2|0:0,0:0:0:0:
318,343,67361,6,0,P|281:304|188:316,1,140,14|10,1:2|1:2,0:0:0:0:
120,337,68361,1,8,1:2:0:0:
50,290,68694,2,0,P|58:217|111:186,1,140,8|8,1:2|1:2,0:0:0:0:
195,189,69694,1,8,1:2:0:0:
238,117,70028,6,0,B|316:109|306:160|373:154,1,140,14|14,1:2|1:2,0:0:0:0:
437,105,71028,1,12,1:2:0:0:
409,25,71361,2,0,P|337:-4|272:23,2,140,12|8|4,1:2|0:0|3:2,0:0:0:0:
437,105,73028,70,0,B|400:206|460:207|414:323,1,210,10|0,0:0|3:2,0:0:0:0:
341,343,74361,2,0,B|297:301|232:319|244:353|158:354|137:328,1,210,10|2,0:0|3:2,0:0:0:0:
36,201,76028,1,2,3:2:0:0:
107,49,76694,2,0,P|191:52|217:97,1,140,4|8,3:2|3:0,0:0:0:0:
233,175,77682,2,0,P|263:199|304:194,1,70,8|2,0:0|3:2,0:0:0:0:
355,124,78387,6,0,P|454:121|465:223,1,210,4|0,1:2|3:0,0:0:0:0:
345,324,80036,1,2,3:2:0:0:
177,334,80703,2,0,P|126:287|131:216,1,140,2|2,3:2|3:2,0:0:0:0:
69,63,82036,2,0,P|161:28|199:50,1,140,0|2,3:0|3:2,0:0:0:0:
359,28,83370,5,2,3:2:0:0:
286,179,84036,1,2,3:2:0:0:
396,305,84687,2,0,B|415:251|400:209|426:157,1,140,0|2,3:0|3:2,0:0:0:0:
335,23,86020,2,0,P|248:17|221:65,1,140,2|2,3:2|3:2,0:0:0:0:
61,100,87369,6,0,P|70:172|72:250,1,140,4|8,1:2|0:0,0:0:0:0:
33,359,88536,1,8,0:0:0:0:
