osu file format v14

[General]
AudioFilename: audio.mp3
AudioLeadIn: 0
PreviewTime: 6657
Countdown: 0
SampleSet: Soft
StackLeniency: 0.3
Mode: 0
LetterboxInBreaks: 0
EpilepsyWarning: 1
WidescreenStoryboard: 1

[Editor]
DistanceSpacing: 1.5
BeatDivisor: 12
GridSize: 32
TimelineZoom: 5.799996

[Metadata]
Title:MIIRO vs. Ai no Scenario
TitleUnicode:海色 vs. アイのシナリオ
Artist:Roselia & Afterglow
ArtistUnicode:Roselia & Afterglow
Creator:-Mikan
Version:Aqua's Hyper
Source:バンドリ!ガールズバンドパーティ!
Tags:Akitoshi -Laura- Corinn MashaSG schoolboy Komore domSaur -Aqua Blitzifyyy Djulus ktgster lit120 iljaaz Shizuku- piroshki AKINO from bless4 CHiCO with HoneyWorks みいろ opening kantai collection kancolle fleet girls magic kaito 1412 まじっく快斗1412 艦隊これくしょん -艦これ- BanG Dream! Girls Band Party! Garupa Bandori! ガルパ! japanese anime edit tatoe tatowe video game アフターグロウ Mitake Ran 美竹 蘭 Sakura Ayane 佐倉綾音 Aoba Moca 青葉 モカ Misawa Sachika 三澤紗千香 Uehara Himari 上原 ひまり Katou Emiri 加藤 英美里 Udagawa Tomoe 宇田川 巴 Hikasa Yoko 日笠陽子 Hazawa Tsugumi 羽沢 つぐみ Kanemoto Hisako 金元 寿子 ロゼリア minato yukina 湊友希那 aiba aina 相羽あいな hikawa sayo 氷川紗夜 kudou haruka 工藤晴香 imai lisa 今井リサ endou yurika 遠藤ゆりか nakashima yuki 中島由貴 udagawa ako 宇田川あこ sakuragawa megu 櫻川めぐ shirokane rinko 白金燐子 akesaka satomi 明坂聡美
BeatmapID:2167940
BeatmapSetID:1035849

[Difficulty]
HPDrainRate:5
CircleSize:3.7
OverallDifficulty:6.5
ApproachRate:8
SliderMultiplier:1.4
SliderTickRate:1

[Events]
//Background and Video events
0,0,"032865d41b9ce03fbbd2130325900d0ead2ed12f_s2_n2.jpg",0,0
//Break Periods
//Storyboard Layer 0 (Background)
//Storyboard Layer 1 (Fail)
//Storyboard Layer 2 (Pass)
//Storyboard Layer 3 (Foreground)
//Storyboard Layer 4 (Overlay)
//Storyboard Sound Samples

[TimingPoints]
1100,368.098159509202,4,2,1,60,1,0
1238,307.692307692308,4,2,1,60,1,0
4930,314.13612565445,4,2,1,70,1,0
6775,307.692307692308,4,2,1,60,1,0
7159,-100,4,2,1,5,0,0
7236,-100,4,2,1,80,0,0
7389,307.692307692308,4,2,1,80,1,0
16927,-100,4,2,1,50,0,0
17235,-100,4,2,1,55,0,0
25696,324.324324324324,4,2,1,60,1,0
25858,303.030303030303,4,2,1,70,1,0
26009,-100,4,2,1,5,0,0
26085,-100,4,2,1,70,0,0
26236,-100,4,2,1,5,0,0
26312,363.636363636364,4,2,1,70,1,0
26402,-100,4,2,1,5,0,0
26493,294.117647058824,4,2,1,70,1,0
26640,-100,4,2,1,5,0,0
26713,-100,4,2,1,70,0,0
26860,-100,4,2,1,5,0,0
26934,300,4,2,1,70,1,0
27009,-100,4,2,1,5,0,0
27082,307.692307692308,4,2,1,65,1,0
36928,-100,4,2,1,50,0,0
37543,-117.647058823529,4,2,1,50,0,0
46774,-100,4,2,1,70,0,0
51697,-100,4,2,1,80,0,0
55699,333.333333333333,4,2,1,60,1,0
55949,-100,4,2,1,5,0,0
56032,-100,4,2,1,60,0,0
56282,-100,4,2,1,5,0,0
56365,-100,4,2,1,60,0,0
56615,-100,4,2,1,5,0,0
56695,333.333333333333,4,2,1,80,1,0
56695,-90.9090909090909,4,2,1,80,0,0
67361,-90.9090909090909,4,2,1,90,0,0
70028,-90.9090909090909,4,2,1,100,0,0
72694,-90.9090909090909,4,2,1,80,0,0
77682,326.086956521739,4,2,1,80,1,0
78008,352.941176470588,4,2,1,80,1,0
78387,327.868852459016,4,2,1,70,1,0
79206,-101.010101010101,4,2,1,70,0,0
79370,333.333333333333,4,2,1,70,1,0
84036,-90.0900900900901,4,2,1,70,0,0
84354,333.333333333333,4,2,1,70,1,0
87369,333.333333333333,4,2,1,80,1,0
87369,-100,4,2,1,80,0,0
88203,-100,4,2,1,85,0,0
88369,-100,4,2,1,90,0,0
88536,-100,4,2,1,95,0,0

[Colours]
Combo1 : 213,0,106
Combo2 : 167,167,211
Combo3 : 106,181,255
Combo4 : 254,156,249
Combo5 : 162,255,255
Combo6 : 255,108,108
Combo7 : 255,157,111
Combo8 : 255,255,123

[HitObjects]
64,320,1238,5,2,0:0:0:0:
80,332,1545,2,0,P|114:292|216:296,1,140,0|2,0:0|0:0,0:0:0:0:
346,363,2161,2,0,P|389:375|439:367,1,70,0|2,0:0|0:0,0:0:0:0:
486,331,2468,6,0,B|510:276|510:276|446:129,2,210,2|2|2,0:0|0:0|0:0,0:0:0:0:
350,231,3699,6,0,B|239:190|268:297|150:263,2,210,2|2|2,0:0|0:0|0:0,0:0:0:0:
362,244,4930,6,0,L|352:324,2,70,2|0|0,0:1|0:0|0:0,0:0:0:0:
439,210,5401,2,0,L|447:279,2,70,2|0|0,0:1|0:0|0:0,0:0:0:0:
499,151,5872,69,2,0:1:0:0:
433,98,6029,2,0,P|392:105|352:144,1,70,0|0,0:0|0:0,0:0:0:0:
305,65,6343,5,2,0:1:0:0:
239,118,6500,2,0,P|198:111|158:72,1,70,0|0,0:0|0:0,0:0:0:0:
159,84,7236,6,0,B|249:55|205:137|301:149,1,140,6|0,1:2|3:0,0:0:0:0:
305,65,7696,2,0,P|356:39|445:20,1,140,10|2,0:0|3:2,0:0:0:0:
506,67,8158,1,2,3:2:0:0:
465,140,8312,2,0,B|447:176|447:176|457:218|446:258,1,105,10|0,0:0|0:0,0:0:0:0:
435,279,8619,6,0,P|498:272|512:335,1,140,2|10,3:2|0:0,0:0:0:0:
440,379,9081,2,0,L|356:346,1,70,2|0,0:0|3:0,0:0:0:0:
311,296,9389,2,0,L|227:329,1,70,2|10,3:2|0:0,0:0:0:0:
116,364,9696,70,0,B|83:343|83:343|100:234,1,140,6|0,1:2|3:0,0:0:0:0:
164,190,10158,1,8,0:0:0:0:
230,241,10312,1,0,0:0:0:0:
300,195,10465,2,0,P|352:181|384:189,1,70,2|2,3:2|3:2,0:0:0:0:
414,252,10773,2,0,P|466:266|498:258,1,70,8|2,0:0|0:0,0:0:0:0:
510,140,11081,6,0,B|527:83|527:83|533:61,2,70,2|2|8,3:2|3:2|0:0,0:0:0:0:
354,34,11542,2,0,P|377:108|383:176,1,140,2|8,0:0|0:3,0:0:0:0:
221,122,12158,6,0,B|131:98|137:178|78:161,1,140,6|0,1:2|3:0,0:0:0:0:
22,121,12619,2,0,P|54:166|80:260,1,140,10|2,0:0|3:2,0:0:0:0:
40,321,13081,1,2,3:2:0:0:
106,372,13235,2,0,B|142:349|142:349|164:370|212:380,1,105,10|0,0:0|0:0,0:0:0:0:
229,349,13542,6,0,B|287:337|287:337|312:357|312:357|375:346,1,140,2|10,3:2|0:0,0:0:0:0:
436,383,14004,2,0,P|453:346|471:313,1,70,2|0,0:0|3:2,0:0:0:0:
398,270,14312,2,0,P|381:233|363:200,1,70,2|8,3:2|0:0,0:0:0:0:
292,244,14619,1,2,3:2:0:0:
292,244,14696,1,2,3:2:0:0:
292,244,14773,70,0,P|236:222|200:215,1,70,10|0,0:0|3:0,0:0:0:0:
163,163,15081,1,10,0:0:0:0:
163,163,15235,1,2,3:2:0:0:
99,218,15389,1,4,0:3:0:0:
0,83,15542,2,0,P|67:80|107:26,1,140,8|4,0:3|1:2,0:0:0:0:
170,82,16004,6,0,L|234:59,3,35,4|0|0|0,1:2|0:0|3:0|0:0,0:0:0:0:
231,38,16312,2,0,L|295:61,3,35,4|2|2|2,3:0|3:2|3:2|3:2,0:0:0:0:
292,80,16619,1,4,1:0:0:0:
392,0,16773,1,2,1:2:0:0:
392,0,16927,1,2,0:0:0:0:
490,136,17235,6,0,P|435:92|363:120,1,140,2|2,0:0|0:0,0:0:0:0:
337,185,17696,2,0,L|383:328,1,140,2|0,0:0|0:0,0:0:0:0:
399,325,18312,1,2,0:0:0:0:
287,313,18465,6,0,B|214:292|229:363|144:336,1,140,0|0,0:0|0:0,0:0:0:0:
77,307,18927,2,0,P|51:246|85:170,1,140,2|0,0:0|0:0,0:0:0:0:
128,114,19389,2,0,L|204:132,1,70,2|2,0:0|0:0,0:0:0:0:
309,47,19696,70,0,L|278:196,1,140,2|0,0:0|0:0,0:0:0:0:
207,227,20158,2,0,L|225:313,1,70,2|0,0:0|0:0,0:0:0:0:
294,336,20465,1,2,0:0:0:0:
305,346,20773,1,2,0:0:0:0:
468,303,21081,6,0,L|342:275,1,105,2|0,0:0|0:0,0:0:0:0:
341,245,21389,2,0,P|319:187|342:115,1,140,2|0,0:0|0:0,0:0:0:0:
418,80,21850,1,2,0:0:0:0:
418,80,22004,1,2,0:0:0:0:
368,12,22158,5,0,0:0:0:0:
239,134,22465,2,0,L|307:120,1,70,2|2,0:0|0:0,0:0:0:0:
180,72,22773,2,0,L|111:58,1,70,2|0,0:0|0:0,0:0:0:0:
46,112,23081,1,2,0:0:0:0:
131,215,23235,6,0,P|138:278|87:340,1,140,2|2,0:0|0:0,0:0:0:0:
243,258,23850,2,0,B|327:227|296:292|384:285,1,140,2|0,0:0|0:0,0:0:0:0:
432,226,24312,1,2,0:0:0:0:
488,377,24465,70,0,L|512:237,1,140,2|2,0:0|0:0,0:0:0:0:
452,81,25081,2,0,P|402:68|328:141,1,140,2|2,0:0|0:1,0:0:0:0:
297,191,25542,1,2,0:0:0:0:
222,162,25696,1,2,0:0:0:0:
156,223,25858,6,0,L|185:336,2,105,2|2|2,0:1|0:1|0:1,0:0:0:0:
63,176,26493,2,0,L|92:63,2,105,2|2|2,0:1|0:1|0:1,0:0:0:0:
22,300,27082,6,0,B|114:279|71:346|170:328,1,140,4|2,1:2|0:0,0:0:0:0:
215,275,27543,1,8,0:0:0:0:
296,314,27697,2,0,L|281:389,2,70,2|0|2,3:2|3:0|0:0,0:0:0:0:
414,322,28158,6,0,B|437:287|437:287|403:177,1,140,10|2,0:0|3:2,0:0:0:0:
334,151,28620,1,8,0:0:0:0:
260,204,28774,2,0,L|181:191,1,70,0|2,0:0|3:2,0:0:0:0:
142,123,29082,2,0,L|63:136,1,70,0|8,3:0|0:0,0:0:0:0:
26,204,29389,70,0,P|-2:169|14:76,1,140,2|0,0:0|0:0,0:0:0:0:
71,20,29851,1,10,0:0:0:0:
150,47,30005,2,0,B|186:37|186:37|215:52,1,70,2|2,0:0|3:2,0:0:0:0:
268,117,30312,2,0,B|304:127|304:127|333:112,1,70,2|0,3:2|0:0,0:0:0:0:
455,18,30620,6,0,L|433:162,1,140,10|0,0:0|3:0,0:0:0:0:
369,211,31082,2,0,L|387:304,1,70,8|0,0:0|0:0,0:0:0:0:
448,331,31389,1,2,3:2:0:0:
448,331,31543,1,0,3:0:0:0:
380,380,31697,2,0,L|300:362,1,70,8|8,0:0|0:0,0:0:0:0:
302,347,31928,1,8,0:0:0:0:
292,329,32005,6,0,B|206:303|236:374|149:364,1,140,2|0,3:2|3:0,0:0:0:0:
94,318,32466,1,8,0:0:0:0:
19,356,32620,2,0,P|7:305|2:260,1,70,2|0,0:0|3:0,0:0:0:0:
54,219,32928,1,2,0:0:0:0:
9,147,33082,1,10,0:0:0:0:
92,37,33235,6,0,B|139:56|139:56|186:41|186:41|233:56,1,140,0|8,0:0|0:0,0:0:0:0:
294,100,33697,1,0,0:0:0:0:
357,45,33851,2,0,P|401:35|433:29,1,70,2|0,3:2|3:0,0:0:0:0:
490,84,34158,2,0,P|500:128|506:160,1,70,8|2,0:0|0:0,0:0:0:0:
435,271,34466,70,0,P|399:223|307:234,1,140,2|8,3:2|0:0,0:0:0:0:
260,277,34928,1,2,0:0:0:0:
187,233,35082,2,0,L|200:149,1,70,0|8,3:0|0:0,0:0:0:0:
188,150,35312,1,8,0:0:0:0:
178,136,35389,1,8,0:0:0:0:
60,207,35543,6,0,P|69:258|91:357,1,140,4|2,3:2|3:0,0:0:0:0:
164,379,36005,1,8,0:0:0:0:
286,309,36158,2,0,B|373:299|343:352|423:352,1,140,4|8,3:2|3:0,0:0:0:0:
429,342,36543,1,8,3:0:0:0:
443,332,36620,1,8,3:0:0:0:
422,250,36774,1,4,3:0:0:0:
476,132,36928,5,4,3:1:0:0:
476,132,37543,2,0,L|349:146,1,119.000002269745,2|2,0:0|0:0,0:0:0:0:
231,77,38158,2,0,P|241:143|270:256,2,178.500003404617,2|2|2,0:0|0:0|0:0,0:0:0:0:
134,182,39389,2,0,P|113:290|101:365,2,178.500003404617,2|2|2,0:0|0:0|0:0,0:0:0:0:
45,69,40620,5,2,0:0:0:0:
151,196,41082,1,2,0:0:0:0:
8,355,41543,70,0,B|83:333|65:384|128:374,1,119.000002269745,2|2,0:0|0:0,0:0:0:0:
235,289,42158,1,2,0:0:0:0:
354,367,42466,2,0,P|387:347|381:254,1,119.000002269745,2|2,0:0|0:0,0:0:0:0:
487,162,43082,6,0,P|436:129|460:13,2,178.500003404617,2|2|2,0:0|0:0|0:0,0:0:0:0:
371,245,44312,2,0,P|319:278|343:394,2,178.500003404617,2|2|2,0:0|0:0|0:0,0:0:0:0:
394,332,45389,1,4,0:3:0:0:
394,332,45466,1,4,0:3:0:0:
394,332,45543,5,4,0:3:0:0:
426,120,46005,1,8,0:3:0:0:
349,221,46466,1,8,0:3:0:0:
337,239,46774,6,0,L|250:216,1,70,4|2,3:2|0:0,0:0:0:0:
226,294,47082,2,0,L|139:317,1,70,2|2,3:2|0:0,0:0:0:0:
85,269,47389,1,2,3:2:0:0:
81,279,47697,1,0,3:0:0:0:
16,328,47851,1,2,0:0:0:0:
25,194,48005,70,0,P|72:173|118:174,1,70,2|2,3:2|0:0,0:0:0:0:
123,94,48312,2,0,P|170:115|216:114,1,70,2|0,3:2|0:0,0:0:0:0:
240,183,48620,1,2,3:2:0:0:
347,45,48774,2,0,L|321:196,1,140,2|2,1:3|1:3,0:0:0:0:
460,189,49235,6,0,P|459:154|440:125,1,70,0|2,3:2|0:0,0:0:0:0:
384,21,49543,2,0,P|383:56|365:85,1,70,2|2,3:2|0:0,0:0:0:0:
282,105,49851,1,2,3:2:0:0:
271,113,50158,1,0,3:0:0:0:
199,68,50312,1,2,0:0:0:0:
66,137,50466,6,0,L|78:68,1,70,2|2,3:2|0:0,0:0:0:0:
144,167,50774,2,0,L|156:235,1,70,6|0,3:2|0:0,0:0:0:0:
100,299,51082,1,2,3:2:0:0:
168,364,51235,1,8,3:0:0:0:
168,364,51312,1,8,3:0:0:0:
168,364,51389,1,8,3:0:0:0:
243,326,51543,1,4,3:0:0:0:
315,369,51697,6,0,L|412:350,1,70,4|2,1:2|3:2,0:0:0:0:
478,288,52005,2,0,L|410:275,1,70,4|2,1:2|3:2,0:0:0:0:
350,215,52312,1,8,0:3:0:0:
350,215,52466,1,2,3:2:0:0:
408,154,52620,1,2,3:2:0:0:
308,78,52774,70,0,B|217:66|260:136|151:112,1,140,4|8,1:2|3:0,0:0:0:0:
110,68,53235,1,4,1:2:0:0:
57,163,53389,2,0,L|47:130,2,35,8|8|8,3:0|3:0|3:0,0:0:0:0:
116,224,53697,2,0,L|95:312,1,70,4|4,3:0|3:0,0:0:0:0:
30,341,54005,1,2,3:2:0:0:
160,384,54158,6,0,L|233:365,1,70,4|8,1:2|0:0,0:0:0:0:
237,373,54389,1,8,0:0:0:0:
246,379,54466,1,8,0:0:0:0:
303,317,54620,1,8,0:0:0:0:
379,351,54774,2,0,L|365:390,4,35,8|8|8|8|8,0:0|0:0|0:0|0:0|0:0,0:0:0:0:
447,302,55235,1,4,3:2:0:0:
251,160,55699,38,0,B|172:143|177:213|106:201,2,140,10|2|2,0:0|0:0|0:0,0:0:0:0:
379,290,56695,6,0,P|333:297|224:329,1,154.000004699707,6|8,3:2|0:0,0:0:0:0:
154,381,57195,1,0,0:0:0:0:
81,324,57361,2,0,P|63:273|61:234,2,77.0000023498536,2|2|8,3:2|0:0|0:0,0:0:0:0:
164,246,57861,6,0,P|158:208|144:173,1,77.0000023498536,2|0,0:0|3:0,0:0:0:0:
168,83,58195,2,0,P|137:60|101:45,1,77.0000023498536,2|8,0:0|0:0,0:0:0:0:
235,148,58528,2,0,P|270:133|301:110,1,77.0000023498536,2|0,0:0|3:0,0:0:0:0:
352,33,58861,1,2,0:0:0:0:
424,91,59028,1,8,0:0:0:0:
491,27,59195,1,0,0:0:0:0:
471,184,59361,6,0,P|462:241|423:334,1,154.000004699707,6|8,3:2|0:0,0:0:0:0:
344,373,59861,1,0,0:0:0:0:
260,332,60028,2,0,L|169:316,2,77.0000023498536,2|2|8,3:2|0:0|0:0,0:0:0:0:
241,241,60528,70,0,L|150:225,1,77.0000023498536,2|0,0:0|3:2,0:0:0:0:
96,289,60861,1,2,0:0:0:0:
8,192,61028,2,0,P|16:154|40:124,1,77.0000023498536,12|2,0:0|0:0,0:0:0:0:
126,92,61361,1,2,3:0:0:0:
68,19,61528,1,2,3:2:0:0:
68,19,61611,1,0,3:0:0:0:
68,19,61694,1,2,3:0:0:0:
136,81,61861,1,2,3:2:0:0:
275,10,62028,6,0,B|369:-11|340:50|426:40,1,154.000004699707,4|8,3:2|0:0,0:0:0:0:
503,0,62528,1,0,0:0:0:0:
506,92,62694,1,2,3:2:0:0:
506,92,62861,2,0,P|486:146|476:166,1,77.0000023498536,2|8,0:0|0:0,0:0:0:0:
389,190,63194,6,0,P|340:167|286:152,1,77.0000023498536,2|0,0:0|3:2,0:0:0:0:
236,204,63528,1,0,0:0:0:0:
162,148,63694,2,0,L|178:72,1,77.0000023498536,10|0,0:0|0:0,0:0:0:0:
75,181,64028,1,2,3:2:0:0:
119,261,64194,1,2,0:0:0:0:
119,261,64361,1,8,0:0:0:0:
0,338,64528,6,0,B|94:312|59:375|147:360,1,154.000004699707,2|0,0:0|0:0,0:0:0:0:
221,307,65028,2,0,P|278:332|300:344,1,77.0000023498536,8|0,0:0|0:0,0:0:0:0:
363,281,65361,1,2,3:2:0:0:
363,281,65528,1,2,0:0:0:0:
442,333,65694,2,0,P|466:280|478:250,1,77.0000023498536,12|2,0:0|0:0,0:0:0:0:
425,182,66028,69,2,3:2:0:0:
425,182,66194,2,0,P|401:129|389:99,1,77.0000023498536,2|12,3:2|0:0,0:0:0:0:
463,49,66528,1,2,0:0:0:0:
388,117,66694,1,12,3:2:0:0:
308,69,66861,1,10,0:0:0:0:
308,69,66944,1,8,0:0:0:0:
308,69,67028,1,8,0:0:0:0:
228,115,67194,1,0,3:0:0:0:
130,21,67361,6,0,P|88:59|104:159,1,154.000004699707,14|8,1:2|1:2,0:0:0:0:
170,204,67861,1,0,3:0:0:0:
170,204,68028,2,0,L|144:282,1,77.0000023498536,10|2,1:2|3:2,0:0:0:0:
63,320,68361,1,8,1:2:0:0:
133,379,68528,1,2,3:2:0:0:
133,379,68694,6,0,L|211:353,1,77.0000023498536,8|2,1:2|3:2,0:0:0:0:
273,290,69028,2,0,L|351:316,1,77.0000023498536,8|2,1:2|3:2,0:0:0:0:
420,370,69361,2,0,P|433:343|429:288,1,77.0000023498536,8|2,1:2|3:2,0:0:0:0:
505,240,69694,2,0,P|492:213|496:158,1,77.0000023498536,8|0,1:2|3:0,0:0:0:0:
423,41,70028,6,0,B|341:39|359:101|289:116,1,154.000004699707,14|12,1:2|1:2,0:0:0:0:
218,61,70528,1,0,3:0:0:0:
218,61,70694,2,0,P|171:38|139:23,1,77.0000023498536,14|2,1:2|3:2,0:0:0:0:
112,113,71028,2,0,P|65:136|33:151,1,77.0000023498536,12|2,1:2|3:2,0:0:0:0:
12,233,71361,70,0,P|3:295|11:342,1,77.0000023498536,12|2,1:2|3:2,0:0:0:0:
98,384,71694,1,12,1:2:0:0:
155,311,71861,1,2,3:2:0:0:
235,357,72028,1,8,0:0:0:0:
308,301,72194,2,0,L|363:319,2,38.5000011749268,10|8|8,0:0|0:0|0:0,0:0:0:0:
268,216,72528,2,0,L|231:227,1,38.5000011749268,10|8,0:0|0:0,0:0:0:0:
192,204,72694,6,0,P|177:168|181:130,1,77.0000023498536,4|0,3:2|0:0,0:0:0:0:
231,51,73028,2,0,L|309:67,1,77.0000023498536,10|0,0:0|0:0,0:0:0:0:
358,142,73361,1,2,3:2:0:0:
466,41,73528,2,0,L|435:205,1,154.000004699707,2|2,0:0|0:0,0:0:0:0:
360,243,74028,6,0,L|389:333,1,77.0000023498536,0|0,3:2|0:0,0:0:0:0:
251,254,74361,2,0,L|274:180,1,77.0000023498536,10|0,0:0|0:0,0:0:0:0:
179,312,74694,1,2,3:2:0:0:
179,312,74861,2,0,P|136:281|106:279,1,77.0000023498536,2|10,0:0|0:0,0:0:0:0:
14,195,75194,6,0,P|54:147|152:156,1,154.000004699707,2|0,0:0|0:0,0:0:0:0:
178,63,75694,2,0,P|240:93|277:94,1,77.0000023498536,8|0,0:0|0:0,0:0:0:0:
325,42,76028,1,2,3:2:0:0:
325,42,76194,1,2,0:0:0:0:
442,103,76361,2,0,L|421:182,1,77.0000023498536,12|2,0:0|0:0,0:0:0:0:
340,220,76694,69,4,3:2:0:0:
340,220,76861,1,0,3:0:0:0:
399,291,77028,2,0,L|461:283,4,38.5000011749268,8|8|8|8|8,0:0|0:0|0:0|0:0|3:0,0:0:0:0:
331,354,77528,1,8,3:0:0:0:
243,343,77682,6,0,L|181:335,4,35,8|8|8|8|2,0:0|0:0|0:0|0:0|3:2,0:0:0:0:
331,354,78184,1,0,0:0:0:0:
199,252,78387,6,0,P|146:271|127:307,1,70,4|2,1:2|0:0,0:0:0:0:
108,358,78714,2,0,L|72:215,1,140,0|10,3:0|0:2,0:0:0:0:
39,145,79206,2,0,B|117:117|105:178|184:150,1,140,2|2,0:0|0:0,0:0:0:0:
210,75,79703,2,0,P|249:96|280:103,1,70,10|0,0:2|0:0,0:0:0:0:
347,62,80036,5,2,3:2:0:0:
347,62,80203,1,2,0:0:0:0:
404,123,80370,1,10,0:2:0:0:
404,123,80536,1,2,0:0:0:0:
479,85,80703,69,2,3:2:0:0:
511,162,80870,2,0,P|490:238|467:300,1,140,2|2,0:0|0:0,0:0:0:0:
405,350,81370,2,0,B|361:324|361:324|319:340|319:340|262:331,1,140,2|10,3:2|0:2,0:0:0:0:
218,271,81870,1,2,0:0:0:0:
151,321,82036,5,0,3:0:0:0:
151,321,82203,1,0,3:0:0:0:
31,248,82370,2,0,B|16:208|16:208|63:109,1,140,14|2,0:2|3:2,0:0:0:0:
135,183,82870,1,10,0:0:0:0:
135,183,82953,1,8,0:0:0:0:
135,183,83036,1,10,0:2:0:0:
203,133,83203,1,2,0:0:0:0:
324,194,83370,5,2,3:2:0:0:
403,168,83536,2,0,P|418:116|413:31,1,140,2|2,0:0|0:0,0:0:0:0:
338,5,84036,2,0,B|256:-14|274:50|201:50,1,148.40000022644,2|10,3:2|0:2,0:0:0:0:
126,27,84520,2,0,P|106:80|149:152,1,140,2|2,0:0|0:0,0:0:0:0:
80,204,85020,2,0,P|76:238|57:267,1,70,10|0,0:2|0:0,0:0:0:0:
120,323,85354,5,2,3:2:0:0:
120,323,85520,1,2,0:0:0:0:
191,279,85687,1,10,0:2:0:0:
191,279,85854,1,2,0:0:0:0:
259,326,86020,69,2,3:2:0:0:
325,273,86187,2,0,B|414:262|375:312|461:321,1,140,2|2,0:0|0:0,0:0:0:0:
511,261,86687,2,0,P|528:224|454:140,1,140,2|10,3:2|0:0,0:0:0:0:
409,187,87187,1,2,0:0:0:0:
336,144,87369,5,4,1:2:0:0:
336,144,87536,1,0,3:0:0:0:
262,185,87703,5,4,1:2:0:0:
262,185,87869,1,0,3:0:0:0:
172,122,88036,6,0,L|187:42,1,70,8|8,0:0|0:0,0:0:0:0:
86,207,88369,2,0,L|101:287,1,70,8|8,0:0|0:0,0:0:0:0:
