osu file format v14

[General]
AudioFilename: audio.mp3
AudioLeadIn: 0
PreviewTime: 6657
Countdown: 0
SampleSet: Soft
StackLeniency: 0.5
Mode: 0
LetterboxInBreaks: 0
EpilepsyWarning: 1
WidescreenStoryboard: 1

[Editor]
DistanceSpacing: 2.1
BeatDivisor: 4
GridSize: 32
TimelineZoom: 1.9

[Metadata]
Title:MIIRO vs. Ai no Scenario
TitleUnicode:海色 vs. アイのシナリオ
Artist:Roselia & Afterglow
ArtistUnicode:Roselia & Afterglow
Creator:-Mikan
Version:Akitoshi's Expert
Source:バンドリ!ガールズバンドパーティ!
Tags:Akitoshi -Laura- Corinn MashaSG schoolboy Komore domSaur -Aqua Blitzifyyy Djulus ktgster lit120 iljaaz Shizuku- piroshki AKINO from bless4 CHiCO with HoneyWorks みいろ opening kantai collection kancolle fleet girls magic kaito 1412 まじっく快斗1412 艦隊これくしょん -艦これ- BanG Dream! Girls Band Party! Garupa Bandori! ガルパ! japanese anime edit tatoe tatowe video game アフターグロウ Mitake Ran 美竹 蘭 Sakura Ayane 佐倉綾音 Aoba Moca 青葉 モカ Misawa Sachika 三澤紗千香 Uehara Himari 上原 ひまり Katou Emiri 加藤 英美里 Udagawa Tomoe 宇田川 巴 Hikasa Yoko 日笠陽子 Hazawa Tsugumi 羽沢 つぐみ Kanemoto Hisako 金元 寿子 ロゼリア minato yukina 湊友希那 aiba aina 相羽あいな hikawa sayo 氷川紗夜 kudou haruka 工藤晴香 imai lisa 今井リサ endou yurika 遠藤ゆりか nakashima yuki 中島由貴 udagawa ako 宇田川あこ sakuragawa megu 櫻川めぐ shirokane rinko 白金燐子 akesaka satomi 明坂聡美
BeatmapID:2165639
BeatmapSetID:1035849

[Difficulty]
HPDrainRate:6
CircleSize:3.8
OverallDifficulty:8.6
ApproachRate:9.3
SliderMultiplier:1.4
SliderTickRate:1

[Events]
//Background and Video events
0,0,"032865d41b9ce03fbbd2130325900d0ead2ed12f_s2_n2.jpg",0,0
//Break Periods
//Storyboard Layer 0 (Background)
//Storyboard Layer 1 (Fail)
//Storyboard Layer 2 (Pass)
//Storyboard Layer 3 (Foreground)
//Storyboard Layer 4 (Overlay)
//Storyboard Sound Samples

[TimingPoints]
1100,368.098159509202,4,2,1,60,1,0
1238,307.692307692308,4,2,1,60,1,0
1238,-142.857142857143,4,2,1,60,0,0
3699,-250,4,2,1,60,0,0
4930,314.13612565445,4,2,1,70,1,0
4930,-133.333333333333,4,2,1,70,0,0
6775,307.692307692308,4,2,1,60,1,0
6775,-125,4,2,1,60,0,0
7159,-125,4,2,1,5,0,0
7236,-83.3333333333333,4,2,1,80,0,0
7389,307.692307692308,4,2,1,80,1,0
7389,-83.3333333333333,4,2,1,80,0,0
16927,-83.3333333333333,4,2,1,50,0,0
17235,-142.857142857143,4,2,1,55,0,0
25696,324.324324324324,4,2,1,60,1,0
25858,303.030303030303,4,2,1,70,1,0
26009,-100,4,2,1,5,0,0
26085,-100,4,2,1,70,0,0
26236,-100,4,2,1,5,0,0
26312,363.636363636364,4,2,1,70,1,0
26402,-100,4,2,1,5,0,0
26493,294.117647058824,4,2,1,70,1,0
26640,-100,4,2,1,5,0,0
26713,-100,4,2,1,70,0,0
26860,-100,4,2,1,5,0,0
26934,300,4,2,1,70,1,0
27009,-100,4,2,1,5,0,0
27082,307.692307692308,4,2,1,65,1,0
27082,-83.3333333333333,4,2,1,65,0,0
36928,-200,4,2,1,50,0,0
46774,-100,4,2,1,70,0,0
51697,-83.3333333333333,4,2,1,80,0,0
55699,333.333333333333,4,2,1,60,1,0
55699,-66.6666666666667,4,2,1,60,0,0
55949,-66.6666666666667,4,2,1,5,0,0
56032,-100,4,2,1,60,0,0
56282,-100,4,2,1,5,0,0
56365,-200,4,2,1,60,0,0
56615,-200,4,2,1,5,0,0
56695,333.333333333333,4,2,1,80,1,0
56695,-76.9230769230769,4,2,1,80,0,1
62278,-76.9230769230769,4,2,1,5,0,1
62361,-76.9230769230769,4,2,1,80,0,1
67194,-76.9230769230769,4,2,1,80,0,0
67361,-76.9230769230769,4,2,1,90,0,1
70028,-76.9230769230769,4,2,1,100,0,1
72694,-76.9230769230769,4,2,1,80,0,1
72944,-76.9230769230769,4,2,1,5,0,1
73028,-76.9230769230769,4,2,1,80,0,1
77682,326.086956521739,4,2,1,80,1,0
77682,-76.9230769230769,4,2,1,80,0,1
78008,352.941176470588,4,2,1,80,1,0
78008,-142.857142857143,4,2,1,80,0,0
78272,-142.857142857143,4,2,1,5,0,0
78387,327.868852459016,4,2,1,70,1,0
78387,-83.3333333333333,4,2,1,70,0,1
78550,-83.3333333333333,4,2,1,70,0,0
79370,333.333333333333,4,2,1,70,1,0
79370,-83.3333333333333,4,2,1,70,0,0
84203,-75.7575757575758,4,2,1,70,0,0
84354,333.333333333333,4,2,1,70,1,0
84354,-83.3333333333333,4,2,1,70,0,0
87369,333.333333333333,4,2,1,80,1,0
87369,-83.3333333333333,4,2,1,80,0,0
88203,-83.3333333333333,4,2,1,85,0,0
88369,-83.3333333333333,4,2,1,90,0,0
88536,-83.3333333333333,4,2,1,95,0,0

[Colours]
Combo1 : 213,0,106
Combo2 : 167,167,211
Combo3 : 106,181,255
Combo4 : 254,156,249
Combo5 : 162,255,255
Combo6 : 255,108,108
Combo7 : 255,157,111
Combo8 : 255,255,123

[HitObjects]
115,57,1100,6,0,L|108:35,3,17.5,0|0|0|2,0:0|0:0|0:0|0:0,0:0:0:0:
130,217,2314,5,2,0:0:0:0:
130,217,2468,2,0,P|94:225|66:223,1,48.9999985046387,2|2,0:0|0:0,0:0:0:0:
210,221,2776,2,0,P|198:256|183:279,1,48.9999985046387,2|2,0:0|0:0,0:0:0:0:
255,154,3084,2,0,P|279:181|292:206,1,48.9999985046387,2|2,0:0|0:0,0:0:0:0:
219,82,3391,2,0,P|254:73|283:76,1,48.9999985046387,2|2,0:0|0:0,0:0:0:0:
373,82,3699,6,0,B|337:200|431:177|400:302,1,224,2|2,0:0|0:1,0:0:0:0:
401,295,6775,6,0,P|360:273|291:298,1,112,2|0,0:0|0:0,0:0:0:0:
234,352,7236,70,0,B|268:304|268:304|235:193,1,167.999994873047,6|0,1:2|3:0,0:0:0:0:
135,66,7696,2,0,P|129:110|123:155,1,83.9999974365235,10|0,0:0|0:0,0:0:0:0:
100,316,8004,1,2,3:2:0:0:
13,171,8158,1,2,3:2:0:0:
231,177,8312,2,0,P|270:170|322:161,1,83.9999974365235,10|0,0:0|0:0,0:0:0:0:
480,140,8619,5,2,3:2:0:0:
326,71,8773,1,0,3:0:0:0:
404,247,8927,1,10,0:0:0:0:
495,126,9081,2,0,P|502:81|487:38,1,83.9999974365235,2|0,0:0|3:0,0:0:0:0:
338,158,9389,1,2,3:2:0:0:
509,224,9542,1,10,0:0:0:0:
359,332,9696,6,0,B|258:352|258:352|220:341|216:299,1,167.999994873047,6|0,1:2|3:0,0:0:0:0:
108,155,10158,2,0,P|101:200|93:254,1,83.9999974365235,8|0,0:0|0:0,0:0:0:0:
210,115,10465,1,2,3:2:0:0:
48,69,10619,1,2,3:2:0:0:
223,10,10773,2,0,P|269:9|317:28,1,83.9999974365235,8|2,0:0|0:0,0:0:0:0:
397,162,11081,5,2,3:2:0:0:
233,122,11235,1,2,3:2:0:0:
403,50,11389,1,8,0:0:0:0:
304,205,11542,1,2,0:0:0:0:
223,10,11696,1,4,3:0:0:0:
91,162,11850,1,8,0:3:0:0:
91,162,11927,1,8,0:3:0:0:
91,162,12004,2,0,L|100:219,1,41.9999987182618,8|0,3:3|0:0,0:0:0:0:
105,305,12158,70,0,B|206:284|206:284|221:309|264:328,1,167.999994873047,6|0,1:2|3:0,0:0:0:0:
410,238,12619,2,0,P|365:230|323:224,1,83.9999974365235,10|0,0:0|0:0,0:0:0:0:
191,123,12927,1,2,3:2:0:0:
356,91,13081,1,2,3:2:0:0:
219,218,13235,2,0,P|210:258|218:299,1,83.9999974365235,10|0,0:0|0:0,0:0:0:0:
345,111,13542,5,2,3:2:0:0:
194,98,13696,1,0,3:0:0:0:
327,224,13850,1,10,0:0:0:0:
449,167,14004,2,0,P|457:122|440:72,1,83.9999974365235,2|0,0:0|3:2,0:0:0:0:
305,230,14312,2,0,P|295:270|303:311,1,83.9999974365235,2|8,3:2|0:0,0:0:0:0:
468,194,14619,1,2,3:2:0:0:
468,194,14696,1,2,3:2:0:0:
468,194,14773,5,10,0:0:0:0:
264,139,14927,1,0,3:0:0:0:
405,294,15081,1,10,0:0:0:0:
356,91,15235,1,2,3:2:0:0:
268,272,15389,1,4,0:3:0:0:
133,123,15542,2,0,P|125:81|136:38,1,83.9999974365235,8|0,0:3|3:3,0:0:0:0:
286,148,15850,1,4,1:2:0:0:
105,255,16004,6,0,P|59:252|18:249,1,83.9999974365235,4|0,1:2|3:0,0:0:0:0:
223,82,16312,1,4,3:0:0:0:
190,338,16465,1,2,3:2:0:0:
190,338,16542,1,2,3:2:0:0:
190,338,16619,1,4,1:0:0:0:
31,131,16773,1,2,1:2:0:0:
31,131,17235,70,0,P|74:113|136:129,1,97.9999970092774,2|2,0:0|0:0,0:0:0:0:
187,175,17696,2,0,P|181:208|178:235,1,48.9999985046387,2|0,0:0|0:0,0:0:0:0:
107,267,18004,2,0,P|116:320|123:371,1,97.9999970092774,0|2,0:0|0:0,0:0:0:0:
204,378,18465,6,0,P|233:357|299:356,1,97.9999970092774,0|0,0:0|0:0,0:0:0:0:
375,370,18927,2,0,P|373:321|398:280,1,97.9999970092774,2|0,0:0|0:0,0:0:0:0:
472,240,19389,1,2,0:0:0:0:
472,240,19542,1,2,0:0:0:0:
412,181,19696,6,0,P|363:186|314:193,1,97.9999970092774,2|0,0:0|0:0,0:0:0:0:
238,228,20158,2,0,P|189:223|140:215,2,97.9999970092774,2|2|2,0:0|0:0|0:0,0:0:0:0:
287,295,20927,5,0,0:0:0:0:
287,295,21081,2,0,P|279:330|279:354,1,48.9999985046387,2|0,0:0|0:0,0:0:0:0:
195,355,21389,2,0,P|158:329|99:331,1,97.9999970092774,2|0,0:0|0:0,0:0:0:0:
24,344,21850,2,0,P|19:313|15:294,1,48.9999985046387,2|2,0:0|0:0,0:0:0:0:
8,212,22158,70,0,P|13:166|22:101,2,97.9999970092774,0|2|2,0:0|0:0|0:0,0:0:0:0:
109,339,23081,1,2,0:0:0:0:
109,339,23235,1,2,0:0:0:0:
158,271,23389,6,0,P|205:253|255:261,1,97.9999970092774,0|0,0:0|0:0,0:0:0:0:
330,284,23850,2,0,P|334:235|339:187,1,97.9999970092774,2|0,0:0|0:0,0:0:0:0:
401,130,24312,2,0,P|398:105|396:81,1,48.9999985046387,2|2,0:0|0:0,0:0:0:0:
319,48,24619,6,0,P|271:66|219:55,1,97.9999970092774,0|0,0:0|0:0,0:0:0:0:
154,102,25081,2,0,P|106:84|54:95,1,97.9999970092774,2|2,0:0|0:1,0:0:0:0:
5,164,25542,1,2,0:0:0:0:
5,164,25696,1,2,0:0:0:0:
79,210,25858,6,0,P|120:203|182:192,2,105,2|2|2,0:1|0:1|0:1,0:0:0:0:
61,91,26493,2,0,P|103:78|131:81,1,70,2|0,0:1|0:0,0:0:0:0:
157,93,26713,2,0,P|199:106|227:103,1,70,2|0,0:1|0:0,0:0:0:0:
254,93,26934,1,2,0:1:0:0:
423,43,27082,70,0,B|440:84|440:84|433:139,1,83.9999974365235,4|0,1:2|0:0,0:0:0:0:
315,256,27389,2,0,P|310:214|303:159,1,83.9999974365235,2|8,0:0|0:0,0:0:0:0:
288,5,27697,1,2,3:2:0:0:
185,103,27851,1,0,3:0:0:0:
354,94,28005,1,2,0:0:0:0:
197,223,28158,6,0,P|149:234|109:228,1,83.9999974365235,10|0,0:0|0:0,0:0:0:0:
313,291,28466,2,0,P|354:287|395:297,1,83.9999974365235,2|8,3:2|0:0,0:0:0:0:
484,174,28774,2,0,P|477:127|471:84,1,83.9999974365235,0|2,0:0|3:2,0:0:0:0:
337,18,29082,2,0,P|331:59|324:101,1,83.9999974365235,0|8,3:0|0:0,0:0:0:0:
219,209,29389,5,2,0:0:0:0:
204,58,29543,1,0,3:2:0:0:
83,150,29697,2,0,P|39:158|-8:144,1,83.9999974365235,0|10,0:0|0:0,0:0:0:0:
111,288,30005,2,0,P|155:280|202:294,1,83.9999974365235,2|2,0:0|3:2,0:0:0:0:
347,355,30312,1,2,3:2:0:0:
189,384,30466,1,0,0:0:0:0:
300,246,30620,6,0,P|292:163|283:71,1,167.999994873047,10|0,0:0|3:0,0:0:0:0:
433,216,31082,2,0,P|428:257|424:299,1,83.9999974365235,8|0,0:0|0:0,0:0:0:0:
271,370,31389,1,2,3:2:0:0:
296,203,31543,1,0,3:0:0:0:
419,328,31697,1,8,0:0:0:0:
213,284,31851,1,8,0:0:0:0:
213,284,31928,1,8,0:0:0:0:
213,284,32005,70,0,B|120:305|120:305|81:292|77:248,1,167.999994873047,2|0,3:2|3:0,0:0:0:0:
184,90,32466,2,0,P|207:131|209:176,1,83.9999974365235,8|2,0:0|0:0,0:0:0:0:
367,104,32774,2,0,P|364:62|379:23,1,83.9999974365235,0|2,3:0|0:0,0:0:0:0:
507,169,33082,1,10,0:0:0:0:
353,209,33235,5,0,0:0:0:0:
480,75,33389,1,2,3:2:0:0:
454,266,33543,2,0,P|462:309|469:356,1,83.9999974365235,8|0,0:0|0:0,0:0:0:0:
283,286,33851,1,2,3:2:0:0:
429,159,34005,1,0,3:0:0:0:
242,111,34158,2,0,P|194:135|111:108,1,125.999996154785,8|2,0:0|0:0,0:0:0:0:
94,106,34466,6,0,B|123:209|123:209|101:233|90:263,2,167.999994873047,2|8|0,3:2|0:0|3:0,0:0:0:0:
255,16,35235,1,8,0:0:0:0:
255,16,35312,1,8,0:0:0:0:
255,16,35389,1,8,0:0:0:0:
337,181,35543,6,0,P|283:193|249:186,1,83.9999974365235,4|0,3:2|0:0,0:0:0:0:
103,310,35851,2,0,P|119:257|142:231,1,83.9999974365235,2|8,3:0|0:0,0:0:0:0:
108,44,36158,2,0,P|145:84|156:117,1,83.9999974365235,4|0,3:2|0:0,0:0:0:0:
231,289,36466,1,8,3:0:0:0:
231,289,36543,1,8,3:0:0:0:
231,289,36620,2,0,L|219:353,1,41.9999987182618,8|8,3:0|3:0,0:0:0:0:
110,351,36774,2,0,L|98:287,1,41.9999987182618,4|4,3:0|3:0,0:0:0:0:
72,172,36928,69,4,3:1:0:0:
72,172,37543,2,0,P|94:169|112:166,1,35,2|0,0:0|0:0,0:0:0:0:
167,119,37851,2,0,P|189:122|207:125,1,35,2|0,0:0|0:0,0:0:0:0:
276,141,38158,6,0,P|263:197|263:221,1,70,2|0,0:0|0:0,0:0:0:0:
195,247,38620,2,0,P|208:303|208:327,1,70,2|0,0:0|0:0,0:0:0:0:
258,374,39082,1,2,0:0:0:0:
371,269,39389,6,0,P|392:257|439:251,1,70,2|0,0:0|0:0,0:0:0:0:
486,191,39851,2,0,P|465:179|418:173,1,70,2|0,0:0|0:0,0:0:0:0:
344,185,40312,1,2,0:0:0:0:
197,232,40620,6,0,P|160:225|121:220,1,70,2|0,0:0|0:0,0:0:0:0:
98,148,41082,2,0,P|135:141|174:136,1,70,2|0,0:0|0:0,0:0:0:0:
242,121,41543,2,0,B|252:86|252:86|235:53,1,70,2|2,0:0|0:0,0:0:0:0:
236,56,42158,70,0,P|254:54|274:50,1,35,2|0,0:0|0:0,0:0:0:0:
335,92,42466,2,0,P|342:75|348:56,1,35,2|0,0:0|0:0,0:0:0:0:
418,27,42774,2,0,P|407:12|393:-2,1,35,2|0,0:0|0:0,0:0:0:0:
499,52,43082,6,0,P|490:83|481:131,1,70,2|0,0:0|0:0,0:0:0:0:
413,154,43543,2,0,P|422:185|431:233,1,70,2|0,0:0|0:0,0:0:0:0:
439,298,44005,1,2,0:0:0:0:
285,289,44312,6,0,B|243:303|243:303|206:295,1,70,2|0,0:0|0:0,0:0:0:0:
201,221,44774,2,0,B|243:207|243:207|280:215,1,70,2|0,0:0|0:0,0:0:0:0:
341,236,45235,1,2,0:0:0:0:
411,198,45389,1,4,0:3:0:0:
411,198,45466,1,4,0:3:0:0:
411,198,45543,6,0,P|417:160|398:118,1,70,4|0,0:3|0:0,0:0:0:0:
349,78,46005,2,0,P|311:84|269:65,1,70,8|0,0:3|0:0,0:0:0:0:
217,30,46466,1,8,0:3:0:0:
217,30,46774,70,0,P|179:36|142:42,1,70,4|2,3:2|0:0,0:0:0:0:
29,57,47082,1,2,3:2:0:0:
116,136,47235,1,2,0:0:0:0:
8,188,47389,2,0,P|19:252|30:330,1,140,2|0,3:2|3:0,0:0:0:0:
139,374,47851,1,2,0:0:0:0:
143,254,48005,5,2,3:2:0:0:
252,299,48159,1,2,0:0:0:0:
265,181,48312,2,0,P|298:171|349:179,1,70,2|0,3:2|0:0,0:0:0:0:
445,214,48620,1,2,3:2:0:0:
363,300,48774,2,0,P|370:337|377:372,1,70,2|2,1:3|3:2,0:0:0:0:
257,268,49082,2,0,P|250:305|243:340,1,70,2|0,1:3|3:2,0:0:0:0:
133,382,49389,5,2,0:0:0:0:
68,281,49543,2,0,P|23:289|-3:294,1,70,2|2,3:2|0:0,0:0:0:0:
18,153,49851,2,0,P|85:176|159:130,1,140,2|0,3:2|3:0,0:0:0:0:
213,51,50312,1,2,0:0:0:0:
260,160,50466,5,2,3:2:0:0:
330,63,50620,1,2,0:0:0:0:
414,147,50774,2,0,P|406:186|401:227,1,70,6|0,3:2|0:0,0:0:0:0:
351,324,51082,1,2,3:2:0:0:
249,263,51235,1,8,3:0:0:0:
249,263,51312,1,8,3:0:0:0:
249,263,51389,1,8,3:0:0:0:
376,224,51543,1,4,3:0:0:0:
185,156,51697,69,4,1:2:0:0:
221,354,51851,1,2,3:2:0:0:
298,122,52005,1,4,1:2:0:0:
91,248,52158,1,2,3:2:0:0:
350,232,52312,5,8,0:3:0:0:
207,55,52466,1,2,3:2:0:0:
156,299,52620,1,2,3:2:0:0:
384,142,52774,1,4,1:2:0:0:
114,77,52928,5,2,3:2:0:0:
286,294,53082,1,8,3:0:0:0:
354,26,53235,1,4,1:2:0:0:
75,163,53389,1,8,3:0:0:0:
75,163,53466,1,8,3:0:0:0:
75,163,53543,5,8,3:0:0:0:
350,232,53697,1,4,3:0:0:0:
162,50,53851,2,0,P|111:43|68:55,1,83.9999974365235,4|2,3:0|3:2,0:0:0:0:
193,284,54158,69,4,1:2:0:0:
328,123,54312,1,8,0:0:0:0:
357,121,54388,1,8,0:0:0:0:
387,118,54465,1,8,0:0:0:0:
416,116,54542,1,8,0:0:0:0:
445,113,54619,1,8,0:0:0:0:
475,111,54696,1,8,0:0:0:0:
504,107,54774,5,8,0:0:0:0:
502,148,54850,1,8,0:0:0:0:
484,186,54927,1,8,0:0:0:0:
454,215,55004,1,8,0:0:0:0:
415,229,55081,1,8,0:0:0:0:
373,228,55158,1,8,0:0:0:0:
335,211,55235,1,4,3:2:0:0:
335,211,55699,38,0,B|230:189|230:189|212:216|185:236,1,157.500006008148,10|0,0:0|0:0,0:0:0:0:
178,247,56032,6,0,P|130:262|68:232,1,105,2|0,0:0|0:0,0:0:0:0:
59,225,56365,6,0,P|61:185|63:163,1,52.5,2|0,0:0|0:0,0:0:0:0:
66,141,56695,6,0,B|133:132|133:132|166:98|166:98|250:89,1,181.999991668702,6|8,3:2|0:0,0:0:0:0:
405,149,57195,1,0,0:0:0:0:
234,212,57361,1,2,3:2:0:0:
395,297,57528,2,0,P|442:298|485:276,1,90.9999958343508,2|8,0:0|0:0,0:0:0:0:
260,225,57861,70,0,P|254:271|250:316,1,90.9999958343508,2|0,0:0|3:0,0:0:0:0:
94,203,58195,2,0,P|99:248|103:293,1,90.9999958343508,2|8,0:0|0:0,0:0:0:0:
279,210,58528,2,0,P|273:255|269:300,1,90.9999958343508,2|0,0:0|3:0,0:0:0:0:
113,187,58862,2,0,P|118:232|122:277,1,90.9999958343508,2|8,0:0|0:0,0:0:0:0:
214,99,59195,1,0,0:0:0:0:
297,197,59361,6,0,P|371:223|460:157,1,181.999991668702,6|8,3:2|0:0,0:0:0:0:
307,78,59861,1,0,0:0:0:0:
217,257,60028,1,2,3:2:0:0:
91,100,60195,2,0,P|82:53|97:5,1,90.9999958343508,2|8,0:0|0:0,0:0:0:0:
316,58,60528,6,0,P|269:66|218:75,1,90.9999958343508,2|0,0:0|3:2,0:0:0:0:
51,189,60861,2,0,P|98:197|149:206,1,90.9999958343508,2|12,0:0|0:0,0:0:0:0:
311,326,61194,2,0,P|264:334|213:343,1,90.9999958343508,2|2,0:0|3:0,0:0:0:0:
327,158,61528,1,2,3:2:0:0:
327,158,61611,1,0,3:0:0:0:
327,158,61694,1,2,3:0:0:0:
420,303,61861,1,2,3:2:0:0:
218,246,62028,6,0,P|141:251|94:300,1,136.499993751526,4|0,3:2|0:0,0:0:0:0:
91,320,62361,2,0,P|44:315|0:311,1,90.9999958343508,8|0,0:0|0:0,0:0:0:0:
105,151,62694,1,2,3:2:0:0:
241,257,62861,2,0,P|288:252|332:248,1,90.9999958343508,2|8,0:0|0:0,0:0:0:0:
471,104,63194,70,0,B|371:94|392:161|282:142,1,181.999991668702,2|0,0:0|0:0,0:0:0:0:
97,129,63694,2,0,P|90:177|82:238,1,90.9999958343508,10|0,0:0|0:0,0:0:0:0:
19,28,64028,1,2,3:2:0:0:
190,12,64194,2,0,P|197:60|205:121,1,90.9999958343508,2|8,0:0|0:0,0:0:0:0:
226,256,64528,1,2,0:0:0:0:
329,141,64694,6,0,P|418:144|485:217,2,181.999991668702,0|8|2,3:2|0:0|3:2,0:0:0:0:
207,239,65528,1,2,0:0:0:0:
78,154,65694,2,0,B|64:113|64:113|81:66,1,90.9999958343508,12|2,0:0|0:0,0:0:0:0:
301,157,66028,5,2,3:2:0:0:
111,243,66194,1,2,3:2:0:0:
234,30,66361,1,12,0:0:0:0:
330,173,66528,2,0,P|325:221|322:274,1,90.9999958343508,2|12,0:0|3:2,0:0:0:0:
190,124,66861,1,10,0:0:0:0:
190,124,66944,1,8,0:0:0:0:
190,124,67028,1,8,0:0:0:0:
370,62,67194,1,0,3:0:0:0:
131,0,67361,5,14,1:2:0:0:
98,170,67528,1,0,3:0:0:0:
270,37,67694,1,8,1:2:0:0:
237,207,67861,1,0,3:0:0:0:
55,84,68028,69,10,1:2:0:0:
250,182,68195,1,2,3:2:0:0:
46,257,68361,1,8,1:2:0:0:
182,85,68528,1,2,3:2:0:0:
235,295,68694,5,8,1:2:0:0:
371,123,68861,1,2,3:2:0:0:
161,187,69028,1,8,1:2:0:0:
366,258,69194,1,2,3:2:0:0:
278,18,69361,5,8,1:2:0:0:
244,271,69528,1,2,3:2:0:0:
112,53,69694,1,8,1:2:0:0:
6,244,69861,1,0,3:0:0:0:
6,244,69944,1,0,3:0:0:0:
6,244,70028,6,0,P|12:290|21:345,1,90.9999958343508,14|0,1:2|3:0,0:0:0:0:
213,168,70361,1,12,1:2:0:0:
0,130,70528,1,0,3:0:0:0:
153,283,70694,1,14,1:2:0:0:
213,72,70861,1,2,3:2:0:0:
305,290,71028,1,12,1:2:0:0:
365,79,71194,70,0,P|408:86|470:96,1,90.9999958343508,2|12,3:2|1:2,0:0:0:0:
235,188,71528,1,2,3:2:0:0:
294,0,71694,1,12,1:2:0:0:
440,186,71861,2,0,P|446:243|435:286,1,90.9999958343508,2|8,3:2|0:0,0:0:0:0:
260,366,72194,1,10,0:0:0:0:
260,366,72278,1,8,0:0:0:0:
260,366,72361,2,0,L|248:306,1,45.4999979171754,8|8,0:0|0:0,0:0:0:0:
153,211,72528,2,0,L|144:255,1,45.4999979171754,10|8,0:0|0:0,0:0:0:0:
33,349,72694,6,0,P|24:278|13:199,1,136.499993751526,4|0,3:2|0:0,0:0:0:0:
1,184,73028,2,0,P|5:139|10:90,1,90.9999958343508,10|0,0:0|0:0,0:0:0:0:
133,0,73361,1,2,3:2:0:0:
232,118,73528,2,0,P|186:129|140:117,1,90.9999958343508,2|8,0:0|0:0,0:0:0:0:
258,13,73861,6,0,P|349:22|444:31,1,181.999991668702,2|0,0:0|0:0,0:0:0:0:
497,193,74361,2,0,P|442:199|398:222,1,90.9999958343508,10|0,0:0|0:0,0:0:0:0:
304,327,74694,1,2,3:2:0:0:
192,219,74861,2,0,P|186:175|180:124,1,90.9999958343508,2|10,0:0|0:0,0:0:0:0:
87,252,75194,1,2,0:0:0:0:
300,206,75361,6,0,P|356:235|463:193,2,181.999991668702,2|8|2,3:2|0:0|3:2,0:0:0:0:
421,109,76194,1,2,0:0:0:0:
505,292,76361,2,0,P|497:335|492:382,1,90.9999958343508,12|2,0:0|0:0,0:0:0:0:
299,324,76694,69,4,3:2:0:0:
372,200,76861,2,0,P|417:205|461:195,1,90.9999958343508,0|8,3:0|0:0,0:0:0:0:
280,71,77194,1,8,0:0:0:0:
280,71,77278,1,8,0:0:0:0:
280,71,77361,2,0,L|272:129,1,45.4999979171754,8|8,3:0|3:0,0:0:0:0:
189,186,77528,2,0,L|182:140,1,45.4999979171754,8|8,3:0|3:0,0:0:0:0:
169,46,77682,5,8,0:0:0:0:
127,27,77763,1,8,0:0:0:0:
82,27,77845,1,8,0:0:0:0:
41,45,77926,1,8,0:0:0:0:
10,78,78008,6,0,P|23:126|30:166,1,73.4999977569581,2|0,3:2|0:0,0:0:0:0:
32,184,78387,6,0,B|21:225|21:225|34:266,1,83.9999974365235,4|2,1:2|0:0,0:0:0:0:
143,380,78714,1,0,3:0:0:0:
266,279,78878,2,0,P|226:274|179:270,1,83.9999974365235,0|10,0:0|0:2,0:0:0:0:
342,159,79206,69,2,0:0:0:0:
441,269,79370,2,0,P|452:315|433:370,1,83.9999974365235,0|2,3:0|0:0,0:0:0:0:
314,163,79703,2,0,P|306:122|317:81,1,83.9999974365235,10|0,0:2|0:0,0:0:0:0:
181,13,80036,1,2,3:2:0:0:
202,162,80203,1,2,0:0:0:0:
60,108,80370,2,0,P|53:68|69:20,1,83.9999974365235,10|2,0:2|0:0,0:0:0:0:
214,136,80703,5,2,3:2:0:0:
78,203,80870,2,0,P|92:293|104:372,1,167.999994873047,2|2,0:0|0:0,0:0:0:0:
254,374,81370,1,2,3:2:0:0:
308,233,81536,2,0,P|266:227|205:252,1,83.9999974365235,0|10,0:0|0:2,0:0:0:0:
339,339,81870,1,2,0:0:0:0:
388,161,82036,5,0,3:0:0:0:
482,320,82203,1,0,3:0:0:0:
388,161,82370,2,0,P|394:118|400:68,1,83.9999974365235,14|0,0:2|0:0,0:0:0:0:
264,6,82703,1,2,3:2:0:0:
274,157,82870,1,10,0:0:0:0:
151,68,83036,2,0,P|108:74|58:80,1,83.9999974365235,10|2,0:2|0:0,0:0:0:0:
28,226,83370,6,0,B|86:237|86:237|121:273|121:273|192:286,1,167.999994873047,2|8,3:2|0:2,0:0:0:0:
328,305,83870,1,2,0:0:0:0:
239,183,84036,1,2,3:2:0:0:
389,205,84203,2,0,P|444:193|473:175,1,83.9999974365235,0|10,0:0|0:2,0:0:0:0:
290,24,84520,70,0,P|276:106|262:189,1,167.999994873047,2|2,0:0|0:0,0:0:0:0:
121,245,85020,2,0,P|109:191|99:156,1,83.9999974365235,10|0,0:2|0:0,0:0:0:0:
63,15,85354,1,2,3:2:0:0:
0,144,85520,1,2,0:0:0:0:
192,102,85687,2,0,P|236:107|280:112,1,83.9999974365235,10|2,0:2|0:0,0:0:0:0:
425,134,86020,5,2,3:2:0:0:
296,213,86187,2,0,P|272:298|315:376,1,167.999994873047,2|2,0:0|0:0,0:0:0:0:
391,242,86687,1,2,3:2:0:0:
303,119,86853,2,0,P|261:125|206:133,1,83.9999974365235,0|10,0:0|0:0,0:0:0:0:
70,161,87187,1,2,0:0:0:0:
191,306,87369,6,0,P|233:313|274:306,1,83.9999974365235,4|0,1:2|3:0,0:0:0:0:
385,119,87703,2,0,P|343:111|302:118,1,83.9999974365235,4|0,1:2|3:0,0:0:0:0:
123,243,88036,1,8,0:0:0:0:
358,240,88203,1,8,0:0:0:0:
185,81,88369,1,8,0:0:0:0:
232,314,88536,1,8,0:0:0:0:
