osu file format v14

[General]
AudioFilename: audio.mp3
AudioLeadIn: 0
PreviewTime: 1385
Countdown: 0
SampleSet: Normal
StackLeniency: 0.4
Mode: 1
LetterboxInBreaks: 0
WidescreenStoryboard: 0

[Editor]
Bookmarks: 23453,34488,45522,56557,67591,78626,89660,95178,106212,117247,128281,139316,150350,161385
DistanceSpacing: 0.6
BeatDivisor: 4
GridSize: 32
TimelineZoom: 2

[Metadata]
Title:A Frozen Realm
TitleUnicode:A Frozen Realm
Artist:Rose Quartz
ArtistUnicode:Rose Quartz
Creator:iRedi
Version:Oni
Source:
Tags:meiqth electronic instrumental cold freezing freeze across the sky
BeatmapID:4477608
BeatmapSetID:2129385

[Difficulty]
HPDrainRate:5
CircleSize:2
OverallDifficulty:5.5
ApproachRate:10
SliderMultiplier:1.4
SliderTickRate:1

[Events]
//Background and Video events
0,0,"winter-nature-season-trees-65911.jpeg",0,0
//Break Periods
2,89688,94728
//Storyboard Layer 0 (Background)
//Storyboard Layer 1 (Fail)
//Storyboard Layer 2 (Pass)
//Storyboard Layer 3 (Foreground)
//Storyboard Layer 4 (Overlay)
//Storyboard Sound Samples

[TimingPoints]
1385,344.827586206897,4,1,0,40,1,0
1385,-111.111111111111,4,1,0,40,0,0
22069,-111.111111111111,4,1,0,50,0,0
22591,-108.108108108108,4,1,0,60,0,0
23448,-105.263157894737,4,1,0,70,0,0
44138,-105.263157894737,4,1,0,75,0,0
44747,-103.448275862069,4,1,0,75,0,0
45091,-101.694915254237,4,1,0,75,0,0
45436,-100,4,1,0,75,0,0
56552,-95.2380952380952,4,1,0,80,0,0
67673,-111.111111111111,4,1,0,50,0,0
78621,-105.263157894737,4,1,0,60,0,0
89574,-111.111111111111,4,1,0,60,0,0
89742,-111.111111111111,4,1,0,35,0,0
95086,-100,4,1,0,80,0,0
95173,-100,4,1,0,80,0,0
115863,-99.97835,4,1,0,80,0,0
116035,-99.3615,4,1,0,80,0,0
116207,-98.75222,4,1,0,80,0,0
116380,-98.146904,4,1,0,80,0,0
116465,-97.8522,4,1,0,80,0,0
116552,-97.55239,4,1,0,80,0,0
116725,-96.96164,4,1,0,80,0,0
116897,-96.381355,4,1,0,80,0,0
117069,-95.807976,4,1,0,80,0,0
117247,-95.2381,4,1,0,90,0,0
139316,-95.2380952380952,4,1,0,90,0,0
139397,-111.111111111111,4,1,0,40,0,0
162074,-111.111111111111,4,1,0,35,0,0
162764,-111.111111111111,4,1,0,30,0,0
163454,-111.111111111111,4,1,0,25,0,0
164143,-111.111111111111,4,1,0,20,0,0
164833,-111.111111111111,4,1,0,15,0,0
165523,-111.111111111111,4,1,0,10,0,0
166212,-111.111111111111,4,1,0,5,0,0

[HitObjects]
256,192,1385,5,0,0:0:0:0:
256,192,1729,1,0,0:0:0:0:
256,192,2074,1,8,0:0:0:0:
256,192,2419,1,0,0:0:0:0:
256,192,3798,1,8,0:0:0:0:
256,192,4143,1,0,0:0:0:0:
256,192,5522,1,0,0:0:0:0:
256,192,6212,1,8,0:0:0:0:
256,192,6902,1,0,0:0:0:0:
256,192,7247,1,8,0:0:0:0:
256,192,7591,1,0,0:0:0:0:
256,192,7936,1,8,0:0:0:0:
256,192,8971,1,8,0:0:0:0:
256,192,9660,1,0,0:0:0:0:
256,192,11040,1,0,0:0:0:0:
256,192,11729,1,8,0:0:0:0:
256,192,12419,1,0,0:0:0:0:
256,192,12764,1,0,0:0:0:0:
256,192,13109,1,8,0:0:0:0:
256,192,13453,1,8,0:0:0:0:
256,192,14488,1,0,0:0:0:0:
256,192,15178,1,8,0:0:0:0:
256,192,16557,1,8,0:0:0:0:
256,192,17247,1,0,0:0:0:0:
256,192,17936,1,8,0:0:0:0:
256,192,18281,1,8,0:0:0:0:
256,192,18626,1,0,0:0:0:0:
256,192,18971,1,8,0:0:0:0:
256,192,20005,1,0,0:0:0:0:
256,192,20695,1,8,0:0:0:0:
256,192,22074,1,0,0:0:0:0:
256,192,22764,1,8,0:0:0:0:
512,0,23453,1,4,0:0:0:0:
256,192,23798,1,8,0:0:0:0:
256,192,23971,1,8,0:0:0:0:
256,192,24143,1,0,0:0:0:0:
256,192,24316,1,0,0:0:0:0:
256,192,24488,1,8,0:0:0:0:
256,192,24833,1,0,0:0:0:0:
256,192,25005,1,0,0:0:0:0:
256,192,25178,1,8,0:0:0:0:
256,192,25350,1,0,0:0:0:0:
256,192,25522,1,8,0:0:0:0:
256,192,25867,1,0,0:0:0:0:
256,192,26040,1,8,0:0:0:0:
256,192,26212,1,0,0:0:0:0:
256,192,26557,1,8,0:0:0:0:
256,192,26730,1,8,0:0:0:0:
256,192,26902,1,0,0:0:0:0:
256,192,27247,1,0,0:0:0:0:
256,192,27592,1,8,0:0:0:0:
256,192,27764,1,0,0:0:0:0:
256,192,27937,1,0,0:0:0:0:
256,192,28109,1,0,0:0:0:0:
256,192,28281,1,8,0:0:0:0:
256,192,28453,1,8,0:0:0:0:
256,192,28626,1,0,0:0:0:0:
256,192,28799,1,0,0:0:0:0:
256,192,28971,1,8,0:0:0:0:
256,192,29316,1,0,0:0:0:0:
256,192,29489,1,8,0:0:0:0:
256,192,29660,1,0,0:0:0:0:
256,192,29833,1,0,0:0:0:0:
256,192,30006,1,8,0:0:0:0:
256,192,30351,1,0,0:0:0:0:
256,192,30522,1,8,0:0:0:0:
256,192,30696,1,8,0:0:0:0:
256,192,30868,1,8,0:0:0:0:
256,192,31040,1,0,0:0:0:0:
256,192,31385,1,8,0:0:0:0:
256,192,31558,1,8,0:0:0:0:
256,192,31730,1,0,0:0:0:0:
256,192,32074,1,8,0:0:0:0:
256,192,32247,1,0,0:0:0:0:
256,192,32419,1,8,0:0:0:0:
256,192,32764,1,8,0:0:0:0:
256,192,33109,1,0,0:0:0:0:
256,192,33281,1,0,0:0:0:0:
256,192,33454,1,8,0:0:0:0:
256,192,33626,1,0,0:0:0:0:
256,192,33798,1,8,0:0:0:0:
256,192,33971,1,8,0:0:0:0:
256,192,34143,1,0,0:0:0:0:
256,192,34316,1,0,0:0:0:0:
256,192,34488,1,8,0:0:0:0:
256,192,34833,1,0,0:0:0:0:
256,192,35006,1,0,0:0:0:0:
256,192,35178,1,8,0:0:0:0:
256,192,35350,1,8,0:0:0:0:
256,192,35523,1,0,0:0:0:0:
256,192,35868,1,8,0:0:0:0:
256,192,36040,1,0,0:0:0:0:
256,192,36213,1,0,0:0:0:0:
256,192,36385,1,0,0:0:0:0:
256,192,36557,1,8,0:0:0:0:
256,192,36902,1,0,0:0:0:0:
256,192,37075,1,0,0:0:0:0:
256,192,37247,1,8,0:0:0:0:
256,192,37592,1,8,0:0:0:0:
256,192,37765,1,0,0:0:0:0:
256,192,37937,1,8,0:0:0:0:
256,192,38282,1,0,0:0:0:0:
256,192,38627,1,8,0:0:0:0:
256,192,38799,1,8,0:0:0:0:
256,192,38972,1,0,0:0:0:0:
256,192,39144,1,0,0:0:0:0:
256,192,39316,1,8,0:0:0:0:
256,192,39488,1,0,0:0:0:0:
256,192,39661,1,8,0:0:0:0:
256,192,39834,1,8,0:0:0:0:
256,192,40006,1,0,0:0:0:0:
256,192,40351,1,8,0:0:0:0:
256,192,40522,1,0,0:0:0:0:
256,192,40695,1,8,0:0:0:0:
256,192,40867,1,0,0:0:0:0:
256,192,41041,1,8,0:0:0:0:
256,192,41386,1,0,0:0:0:0:
256,192,41558,1,0,0:0:0:0:
256,192,41729,1,8,0:0:0:0:
256,192,41903,1,0,0:0:0:0:
256,192,42075,1,0,0:0:0:0:
256,192,42420,1,8,0:0:0:0:
256,192,42591,1,8,0:0:0:0:
256,192,42765,1,0,0:0:0:0:
256,192,43109,1,0,0:0:0:0:
256,192,43282,1,8,0:0:0:0:
256,192,43454,1,0,0:0:0:0:
256,192,43799,1,0,0:0:0:0:
256,192,44143,1,12,0:0:0:0:
256,192,44833,1,4,0:0:0:0:
256,192,45178,1,12,0:0:0:0:
256,192,45522,1,0,0:0:0:0:
256,192,45867,1,8,0:0:0:0:
256,192,46040,1,0,0:0:0:0:
256,192,46126,1,0,0:0:0:0:
512,0,46212,1,12,0:0:0:0:
256,192,46385,1,0,0:0:0:0:
512,0,46557,1,12,0:0:0:0:
256,192,46902,1,8,0:0:0:0:
256,192,47074,1,8,0:0:0:0:
512,0,47247,1,4,0:0:0:0:
256,192,47419,1,0,0:0:0:0:
256,192,47591,1,8,0:0:0:0:
256,192,47764,1,0,0:0:0:0:
256,192,47936,1,8,0:0:0:0:
256,192,48109,1,8,0:0:0:0:
256,192,48281,1,0,0:0:0:0:
256,192,48626,1,0,0:0:0:0:
256,192,48799,1,8,0:0:0:0:
256,192,48971,1,8,0:0:0:0:
256,192,49143,1,8,0:0:0:0:
256,192,49316,1,0,0:0:0:0:
256,192,49661,1,8,0:0:0:0:
256,192,49833,1,8,0:0:0:0:
256,192,50006,1,0,0:0:0:0:
256,192,50350,1,8,0:0:0:0:
256,192,50522,1,0,0:0:0:0:
256,192,50695,1,0,0:0:0:0:
256,192,51040,1,8,0:0:0:0:
256,192,51385,1,0,0:0:0:0:
256,192,51558,1,8,0:0:0:0:
256,192,51643,1,0,0:0:0:0:
256,192,51730,1,8,0:0:0:0:
256,192,51902,1,8,0:0:0:0:
256,192,52075,1,0,0:0:0:0:
512,0,52419,1,12,0:0:0:0:
256,192,52592,1,0,0:0:0:0:
256,192,52764,1,8,0:0:0:0:
256,192,52937,1,8,0:0:0:0:
512,0,53109,1,4,0:0:0:0:
256,192,53281,1,8,0:0:0:0:
256,192,53454,1,8,0:0:0:0:
256,192,53627,1,8,0:0:0:0:
256,192,53799,1,0,0:0:0:0:
256,192,54143,1,8,0:0:0:0:
256,192,54316,1,0,0:0:0:0:
256,192,54488,1,8,0:0:0:0:
256,192,54660,1,8,0:0:0:0:
256,192,54833,1,0,0:0:0:0:
512,0,55178,1,12,0:0:0:0:
256,192,55350,1,0,0:0:0:0:
256,192,55522,1,8,0:0:0:0:
256,192,55695,1,8,0:0:0:0:
512,0,55867,1,4,0:0:0:0:
256,192,56040,1,0,0:0:0:0:
256,192,56212,1,8,0:0:0:0:
256,192,56557,1,0,0:0:0:0:
256,192,56729,1,8,0:0:0:0:
256,192,56816,1,8,0:0:0:0:
256,192,56902,1,0,0:0:0:0:
256,192,57074,1,0,0:0:0:0:
512,0,57247,1,12,0:0:0:0:
256,192,57420,1,0,0:0:0:0:
512,0,57592,1,12,0:0:0:0:
256,192,57764,1,8,0:0:0:0:
256,192,57937,1,0,0:0:0:0:
256,192,58109,1,0,0:0:0:0:
512,0,58282,1,12,0:0:0:0:
256,192,58453,1,0,0:0:0:0:
256,192,58626,1,8,0:0:0:0:
256,192,58798,1,0,0:0:0:0:
256,192,58971,1,8,0:0:0:0:
256,192,59143,1,8,0:0:0:0:
256,192,59316,1,0,0:0:0:0:
256,192,59488,1,8,0:0:0:0:
256,192,59574,1,0,0:0:0:0:
256,192,59661,1,8,0:0:0:0:
256,192,59833,1,0,0:0:0:0:
256,192,60006,1,8,0:0:0:0:
256,192,60178,1,0,0:0:0:0:
256,192,60351,1,8,0:0:0:0:
256,192,60522,1,8,0:0:0:0:
256,192,60696,1,0,0:0:0:0:
256,192,60867,1,8,0:0:0:0:
256,192,61040,1,8,0:0:0:0:
256,192,61212,1,8,0:0:0:0:
256,192,61385,1,0,0:0:0:0:
256,192,61558,1,0,0:0:0:0:
256,192,61730,1,8,0:0:0:0:
256,192,62075,1,0,0:0:0:0:
256,192,62247,1,0,0:0:0:0:
256,192,62333,1,0,0:0:0:0:
256,192,62420,1,8,0:0:0:0:
256,192,62591,1,0,0:0:0:0:
256,192,62764,1,8,0:0:0:0:
256,192,62936,1,8,0:0:0:0:
256,192,63109,1,0,0:0:0:0:
256,192,63281,1,0,0:0:0:0:
512,0,63453,1,12,0:0:0:0:
256,192,63627,1,0,0:0:0:0:
256,192,63799,1,0,0:0:0:0:
256,192,63971,1,0,0:0:0:0:
512,0,64144,1,12,0:0:0:0:
256,192,64316,1,0,0:0:0:0:
256,192,64488,1,8,0:0:0:0:
256,192,64660,1,8,0:0:0:0:
256,192,64834,1,0,0:0:0:0:
256,192,65005,1,8,0:0:0:0:
256,192,65091,1,8,0:0:0:0:
256,192,65178,1,0,0:0:0:0:
256,192,65350,1,0,0:0:0:0:
256,192,65523,1,8,0:0:0:0:
256,192,65696,1,0,0:0:0:0:
256,192,65868,1,8,0:0:0:0:
256,192,66040,1,8,0:0:0:0:
512,0,66213,1,4,0:0:0:0:
256,192,66385,1,0,0:0:0:0:
256,192,66558,1,8,0:0:0:0:
256,192,66729,1,8,0:0:0:0:
512,0,66903,1,4,0:0:0:0:
256,192,67074,1,8,0:0:0:0:
256,192,67247,1,0,0:0:0:0:
256,192,67419,1,8,0:0:0:0:
256,192,67591,1,0,0:0:0:0:
256,192,70350,1,8,0:0:0:0:
256,192,73109,1,0,0:0:0:0:
256,192,75867,1,8,0:0:0:0:
256,192,78626,1,0,0:0:0:0:
256,192,78798,1,0,0:0:0:0:
256,192,78971,1,8,0:0:0:0:
256,192,79143,1,0,0:0:0:0:
256,192,79316,1,0,0:0:0:0:
256,192,79488,1,8,0:0:0:0:
256,192,79660,1,0,0:0:0:0:
256,192,80005,1,0,0:0:0:0:
256,192,80178,1,0,0:0:0:0:
256,192,80350,1,8,0:0:0:0:
256,192,80522,1,0,0:0:0:0:
256,192,80695,1,0,0:0:0:0:
256,192,80867,1,8,0:0:0:0:
256,192,81040,1,0,0:0:0:0:
256,192,81385,1,0,0:0:0:0:
256,192,81557,1,8,0:0:0:0:
256,192,81729,1,8,0:0:0:0:
256,192,81902,1,0,0:0:0:0:
256,192,82074,1,8,0:0:0:0:
256,192,82247,1,8,0:0:0:0:
256,192,82419,1,0,0:0:0:0:
256,192,82764,1,8,0:0:0:0:
256,192,82936,1,8,0:0:0:0:
256,192,83109,1,0,0:0:0:0:
256,192,83281,1,8,0:0:0:0:
256,192,83453,1,8,0:0:0:0:
256,192,83626,1,0,0:0:0:0:
256,192,83798,1,8,0:0:0:0:
256,192,84143,1,0,0:0:0:0:
256,192,84315,1,0,0:0:0:0:
256,192,84488,1,8,0:0:0:0:
256,192,84660,1,0,0:0:0:0:
256,192,84833,1,0,0:0:0:0:
256,192,85005,1,8,0:0:0:0:
256,192,85177,1,0,0:0:0:0:
256,192,85522,1,0,0:0:0:0:
256,192,85695,1,0,0:0:0:0:
256,192,85867,1,8,0:0:0:0:
256,192,86039,1,0,0:0:0:0:
256,192,86212,1,0,0:0:0:0:
256,192,86384,1,8,0:0:0:0:
256,192,86557,1,0,0:0:0:0:
256,192,86902,1,0,0:0:0:0:
256,192,87074,1,8,0:0:0:0:
256,192,87246,1,8,0:0:0:0:
256,192,87419,1,0,0:0:0:0:
256,192,87591,1,8,0:0:0:0:
256,192,87764,1,8,0:0:0:0:
256,192,87936,1,0,0:0:0:0:
256,192,88281,1,8,0:0:0:0:
256,192,88453,1,8,0:0:0:0:
256,192,88626,1,0,0:0:0:0:
256,192,88798,1,8,0:0:0:0:
256,192,88970,1,8,0:0:0:0:
256,192,89143,1,0,0:0:0:0:
256,192,89315,1,8,0:0:0:0:
256,192,89488,1,0,0:0:0:0:
512,0,95178,5,12,0:0:0:0:
256,192,95522,1,0,0:0:0:0:
256,192,95695,1,8,0:0:0:0:
256,192,95781,1,8,0:0:0:0:
256,192,95867,1,0,0:0:0:0:
256,192,96040,1,0,0:0:0:0:
256,192,96212,1,8,0:0:0:0:
256,192,96385,1,8,0:0:0:0:
256,192,96557,1,0,0:0:0:0:
256,192,96901,1,8,0:0:0:0:
256,192,97074,1,0,0:0:0:0:
256,192,97160,1,8,0:0:0:0:
256,192,97246,1,0,0:0:0:0:
256,192,97419,1,0,0:0:0:0:
256,192,97591,1,8,0:0:0:0:
256,192,97764,1,0,0:0:0:0:
256,192,97936,1,8,0:0:0:0:
256,192,98281,1,0,0:0:0:0:
256,192,98454,1,0,0:0:0:0:
256,192,98626,1,8,0:0:0:0:
256,192,98799,1,0,0:0:0:0:
256,192,98971,1,8,0:0:0:0:
256,192,99316,1,8,0:0:0:0:
256,192,99488,1,8,0:0:0:0:
256,192,99660,1,0,0:0:0:0:
256,192,99833,1,0,0:0:0:0:
256,192,100005,1,8,0:0:0:0:
256,192,100178,1,0,0:0:0:0:
256,192,100264,1,0,0:0:0:0:
256,192,100350,1,8,0:0:0:0:
256,192,100522,1,0,0:0:0:0:
256,192,100695,1,8,0:0:0:0:
256,192,101040,1,0,0:0:0:0:
256,192,101212,1,8,0:0:0:0:
256,192,101299,1,8,0:0:0:0:
256,192,101385,1,0,0:0:0:0:
256,192,101558,1,0,0:0:0:0:
256,192,101730,1,8,0:0:0:0:
256,192,101903,1,0,0:0:0:0:
256,192,102075,1,8,0:0:0:0:
256,192,102419,1,8,0:0:0:0:
256,192,102592,1,0,0:0:0:0:
256,192,102678,1,0,0:0:0:0:
256,192,102764,1,8,0:0:0:0:
256,192,102937,1,0,0:0:0:0:
256,192,103109,1,0,0:0:0:0:
256,192,103282,1,0,0:0:0:0:
256,192,103454,1,8,0:0:0:0:
256,192,103799,1,0,0:0:0:0:
256,192,103971,1,8,0:0:0:0:
256,192,104144,1,0,0:0:0:0:
256,192,104317,1,0,0:0:0:0:
256,192,104489,1,0,0:0:0:0:
256,192,104834,1,8,0:0:0:0:
256,192,105006,1,8,0:0:0:0:
256,192,105178,1,0,0:0:0:0:
256,192,105351,1,0,0:0:0:0:
256,192,105522,1,8,0:0:0:0:
256,192,105696,1,0,0:0:0:0:
256,192,105782,1,0,0:0:0:0:
256,192,105868,1,8,0:0:0:0:
256,192,106040,1,8,0:0:0:0:
256,192,106213,1,0,0:0:0:0:
256,192,106557,1,8,0:0:0:0:
256,192,106730,1,8,0:0:0:0:
256,192,106902,1,0,0:0:0:0:
256,192,107075,1,8,0:0:0:0:
256,192,107160,1,0,0:0:0:0:
256,192,107247,1,8,0:0:0:0:
256,192,107420,1,8,0:0:0:0:
256,192,107592,1,0,0:0:0:0:
256,192,107936,1,8,0:0:0:0:
256,192,108109,1,8,0:0:0:0:
256,192,108281,1,0,0:0:0:0:
256,192,108453,1,8,0:0:0:0:
256,192,108540,1,8,0:0:0:0:
256,192,108626,1,0,0:0:0:0:
256,192,108799,1,0,0:0:0:0:
256,192,108971,1,8,0:0:0:0:
256,192,109316,1,0,0:0:0:0:
256,192,109488,1,0,0:0:0:0:
256,192,109661,1,8,0:0:0:0:
256,192,109834,1,8,0:0:0:0:
256,192,110006,1,0,0:0:0:0:
256,192,110351,1,8,0:0:0:0:
256,192,110523,1,0,0:0:0:0:
256,192,110695,1,8,0:0:0:0:
256,192,110868,1,0,0:0:0:0:
256,192,110953,1,0,0:0:0:0:
256,192,111040,1,8,0:0:0:0:
256,192,111213,1,0,0:0:0:0:
256,192,111385,1,8,0:0:0:0:
256,192,111557,1,8,0:0:0:0:
256,192,111730,1,0,0:0:0:0:
256,192,112074,1,8,0:0:0:0:
256,192,112247,1,8,0:0:0:0:
256,192,112419,1,0,0:0:0:0:
256,192,112591,1,8,0:0:0:0:
256,192,112677,1,0,0:0:0:0:
256,192,112764,1,8,0:0:0:0:
256,192,112937,1,8,0:0:0:0:
256,192,113109,1,0,0:0:0:0:
256,192,113453,1,8,0:0:0:0:
256,192,113626,1,0,0:0:0:0:
256,192,113798,1,8,0:0:0:0:
256,192,113971,1,0,0:0:0:0:
256,192,114057,1,0,0:0:0:0:
256,192,114143,1,8,0:0:0:0:
256,192,114316,1,8,0:0:0:0:
256,192,114488,1,0,0:0:0:0:
256,192,114833,1,0,0:0:0:0:
256,192,115006,1,8,0:0:0:0:
256,192,115178,1,8,0:0:0:0:
256,192,115351,1,8,0:0:0:0:
256,192,115523,1,0,0:0:0:0:
512,0,115868,1,12,0:0:0:0:
256,192,116040,1,0,0:0:0:0:
256,192,116212,1,8,0:0:0:0:
256,192,116385,1,0,0:0:0:0:
256,192,116470,1,0,0:0:0:0:
512,0,116557,1,12,0:0:0:0:
256,192,116730,1,0,0:0:0:0:
512,0,116902,1,12,0:0:0:0:
256,192,117074,1,8,0:0:0:0:
512,0,117247,1,4,0:0:0:0:
256,192,117592,1,8,0:0:0:0:
256,192,117764,1,8,0:0:0:0:
512,0,117937,1,4,0:0:0:0:
256,192,118110,1,0,0:0:0:0:
512,0,118282,1,12,0:0:0:0:
256,192,118454,1,0,0:0:0:0:
256,192,118627,1,8,0:0:0:0:
256,192,118799,1,0,0:0:0:0:
256,192,118885,1,0,0:0:0:0:
512,0,118972,1,12,0:0:0:0:
256,192,119143,1,0,0:0:0:0:
256,192,119316,1,8,0:0:0:0:
256,192,119488,1,8,0:0:0:0:
256,192,119661,1,0,0:0:0:0:
256,192,119833,1,0,0:0:0:0:
256,192,120006,1,8,0:0:0:0:
256,192,120179,1,0,0:0:0:0:
256,192,120264,1,8,0:0:0:0:
256,192,120351,1,0,0:0:0:0:
256,192,120523,1,0,0:0:0:0:
256,192,120696,1,8,0:0:0:0:
256,192,120868,1,0,0:0:0:0:
256,192,121041,1,8,0:0:0:0:
256,192,121212,1,8,0:0:0:0:
256,192,121386,1,0,0:0:0:0:
256,192,121557,1,8,0:0:0:0:
256,192,121643,1,8,0:0:0:0:
256,192,121730,1,0,0:0:0:0:
256,192,121902,1,0,0:0:0:0:
256,192,122075,1,8,0:0:0:0:
256,192,122248,1,0,0:0:0:0:
256,192,122420,1,8,0:0:0:0:
256,192,122765,1,8,0:0:0:0:
256,192,122937,1,0,0:0:0:0:
256,192,123023,1,0,0:0:0:0:
256,192,123110,1,8,0:0:0:0:
256,192,123281,1,0,0:0:0:0:
256,192,123453,1,8,0:0:0:0:
256,192,123626,1,0,0:0:0:0:
256,192,123799,1,8,0:0:0:0:
256,192,123971,1,0,0:0:0:0:
512,0,124144,1,12,0:0:0:0:
256,192,124317,1,8,0:0:0:0:
256,192,124402,1,8,0:0:0:0:
256,192,124489,1,0,0:0:0:0:
256,192,124661,1,0,0:0:0:0:
512,0,124834,1,12,0:0:0:0:
256,192,125006,1,0,0:0:0:0:
256,192,125179,1,8,0:0:0:0:
256,192,125350,1,8,0:0:0:0:
256,192,125522,1,0,0:0:0:0:
256,192,125695,1,8,0:0:0:0:
256,192,125781,1,0,0:0:0:0:
256,192,125868,1,8,0:0:0:0:
256,192,126040,1,0,0:0:0:0:
256,192,126213,1,8,0:0:0:0:
256,192,126385,1,8,0:0:0:0:
256,192,126558,1,0,0:0:0:0:
256,192,126730,1,0,0:0:0:0:
512,0,126903,1,12,0:0:0:0:
256,192,127075,1,0,0:0:0:0:
256,192,127160,1,0,0:0:0:0:
256,192,127248,1,8,0:0:0:0:
256,192,127419,1,0,0:0:0:0:
512,0,127591,1,12,0:0:0:0:
256,192,127764,1,8,0:0:0:0:
256,192,127937,1,0,0:0:0:0:
256,192,128281,1,8,0:0:0:0:
256,192,128453,1,0,0:0:0:0:
256,192,128626,1,8,0:0:0:0:
256,192,128798,1,0,0:0:0:0:
512,0,128971,1,12,0:0:0:0:
256,192,129143,1,8,0:0:0:0:
256,192,129229,1,8,0:0:0:0:
512,0,129316,1,4,0:0:0:0:
256,192,129488,1,0,0:0:0:0:
256,192,129660,1,8,0:0:0:0:
256,192,129832,1,0,0:0:0:0:
512,0,130005,1,12,0:0:0:0:
256,192,130177,1,8,0:0:0:0:
256,192,130350,1,0,0:0:0:0:
256,192,130522,1,0,0:0:0:0:
256,192,130609,1,0,0:0:0:0:
256,192,130695,1,8,0:0:0:0:
256,192,130867,1,0,0:0:0:0:
256,192,131040,1,8,0:0:0:0:
256,192,131212,1,0,0:0:0:0:
256,192,131385,1,0,0:0:0:0:
256,192,131557,1,0,0:0:0:0:
256,192,131730,1,8,0:0:0:0:
256,192,131902,1,0,0:0:0:0:
256,192,131988,1,0,0:0:0:0:
256,192,132075,1,8,0:0:0:0:
256,192,132247,1,8,0:0:0:0:
512,0,132419,1,4,0:0:0:0:
256,192,132591,1,8,0:0:0:0:
256,192,132764,1,8,0:0:0:0:
256,192,132936,1,8,0:0:0:0:
512,0,133109,1,4,0:0:0:0:
256,192,133281,1,8,0:0:0:0:
256,192,133454,1,0,0:0:0:0:
512,0,133798,1,12,0:0:0:0:
256,192,133970,1,0,0:0:0:0:
256,192,134143,1,8,0:0:0:0:
256,192,134315,1,8,0:0:0:0:
256,192,134488,1,0,0:0:0:0:
256,192,134660,1,8,0:0:0:0:
256,192,134746,1,8,0:0:0:0:
256,192,134833,1,0,0:0:0:0:
256,192,135005,1,0,0:0:0:0:
512,0,135178,1,12,0:0:0:0:
256,192,135349,1,0,0:0:0:0:
256,192,135522,1,0,0:0:0:0:
256,192,135694,1,8,0:0:0:0:
512,0,135867,1,4,0:0:0:0:
256,192,136040,1,0,0:0:0:0:
256,192,136126,1,8,0:0:0:0:
256,192,136212,1,0,0:0:0:0:
256,192,136384,1,8,0:0:0:0:
512,0,136557,1,4,0:0:0:0:
256,192,136729,1,8,0:0:0:0:
256,192,136902,1,8,0:0:0:0:
256,192,137074,1,8,0:0:0:0:
256,192,137247,1,0,0:0:0:0:
256,192,137419,1,8,0:0:0:0:
256,192,137505,1,0,0:0:0:0:
256,192,137592,1,8,0:0:0:0:
256,192,137764,1,0,0:0:0:0:
512,0,137936,1,12,0:0:0:0:
256,192,138108,1,8,0:0:0:0:
256,192,138281,1,0,0:0:0:0:
256,192,138453,1,0,0:0:0:0:
512,0,138626,1,12,0:0:0:0:
256,192,138798,1,0,0:0:0:0:
256,192,138971,1,8,0:0:0:0:
512,0,139316,1,4,0:0:0:0:
256,192,140695,1,8,0:0:0:0:
256,192,141729,1,8,0:0:0:0:
256,192,142074,1,0,0:0:0:0:
256,192,143453,1,0,0:0:0:0:
256,192,144143,1,0,0:0:0:0:
256,192,144833,1,8,0:0:0:0:
256,192,146212,1,0,0:0:0:0:
256,192,147591,1,8,0:0:0:0:
256,192,148971,1,0,0:0:0:0:
256,192,150350,1,8,0:0:0:0:
256,192,150695,1,8,0:0:0:0:
256,192,151040,1,0,0:0:0:0:
256,192,151385,1,8,0:0:0:0:
256,192,152419,1,0,0:0:0:0:
256,192,153109,1,8,0:0:0:0:
256,192,154488,1,0,0:0:0:0:
256,192,155178,1,8,0:0:0:0:
256,192,155867,1,0,0:0:0:0:
256,192,156212,1,0,0:0:0:0:
256,192,156557,1,8,0:0:0:0:
256,192,156902,1,0,0:0:0:0:
256,192,157936,1,8,0:0:0:0:
256,192,158626,1,0,0:0:0:0:
256,192,160005,1,8,0:0:0:0:
256,192,160695,1,8,0:0:0:0:
256,192,161385,1,0,0:0:0:0:
256,192,161557,8,0,168281,0:0:0:0:
