osu file format v14

[General]
AudioFilename: audio.mp3
AudioLeadIn: 0
PreviewTime: 1385
Countdown: 0
SampleSet: Normal
StackLeniency: 0.4
Mode: 1
LetterboxInBreaks: 0
WidescreenStoryboard: 1

[Editor]
Bookmarks: 23453,34488,45522,56557,67591,78626,89660,95178,106212,117247,128281,139316,150350,161385
DistanceSpacing: 0.6
BeatDivisor: 4
GridSize: 32
TimelineZoom: 0.8999997

[Metadata]
Title:A Frozen Realm
TitleUnicode:A Frozen Realm
Artist:Rose Quartz
ArtistUnicode:Rose Quartz
Creator:iRedi
Version:Futsuu
Source:
Tags:meiqth electronic instrumental cold freezing freeze across the sky
BeatmapID:4477609
BeatmapSetID:2129385

[Difficulty]
HPDrainRate:7
CircleSize:2
OverallDifficulty:4
ApproachRate:10
SliderMultiplier:1.4
SliderTickRate:1

[Events]
//Background and Video events
0,0,"winter-nature-season-trees-65911.jpeg",0,0
//Break Periods
2,89660,94728
//Storyboard Layer 0 (Background)
//Storyboard Layer 1 (Fail)
//Storyboard Layer 2 (Pass)
//Storyboard Layer 3 (Foreground)
//Storyboard Layer 4 (Overlay)
//Storyboard Sound Samples

[TimingPoints]
1385,344.827586206897,4,1,0,40,1,0
1385,-100,4,1,0,40,0,0
22069,-100,4,1,0,50,0,0
22591,-100,4,1,0,60,0,0
23448,-100,4,1,0,70,0,0
44138,-100,4,1,0,75,0,0
56552,-100,4,1,0,80,0,0
67673,-100,4,1,0,50,0,0
78621,-100,4,1,0,60,0,0
89742,-100,4,1,0,20,0,0
95086,-100,4,1,0,80,0,0
95173,-100,4,1,0,80,0,0
117247,-100,4,1,0,90,0,0
139316,-100,4,1,0,90,0,0
139397,-100,4,1,0,40,0,0
162074,-100,4,1,0,35,0,0
162764,-100,4,1,0,30,0,0
163454,-100,4,1,0,25,0,0
164143,-100,4,1,0,20,0,0
164833,-100,4,1,0,15,0,0
165523,-100,4,1,0,10,0,0
166212,-100,4,1,0,5,0,0

[HitObjects]
256,192,1385,5,0,0:0:0:0:
256,192,1729,1,0,0:0:0:0:
256,192,2074,1,8,0:0:0:0:
256,192,2419,1,0,0:0:0:0:
256,192,3798,1,8,0:0:0:0:
256,192,4143,1,0,0:0:0:0:
256,192,5522,1,0,0:0:0:0:
256,192,6212,1,8,0:0:0:0:
256,192,6902,1,0,0:0:0:0:
256,192,7247,1,8,0:0:0:0:
256,192,7591,1,0,0:0:0:0:
256,192,7936,1,8,0:0:0:0:
256,192,8971,1,8,0:0:0:0:
256,192,9660,1,0,0:0:0:0:
256,192,11040,1,0,0:0:0:0:
256,192,11729,1,8,0:0:0:0:
256,192,12419,1,0,0:0:0:0:
256,192,12764,1,0,0:0:0:0:
256,192,13109,1,8,0:0:0:0:
256,192,13453,1,8,0:0:0:0:
256,192,14488,1,0,0:0:0:0:
256,192,15178,1,8,0:0:0:0:
256,192,16557,1,8,0:0:0:0:
256,192,17247,1,0,0:0:0:0:
256,192,17936,1,8,0:0:0:0:
256,192,18281,1,8,0:0:0:0:
256,192,18626,1,0,0:0:0:0:
256,192,18971,1,8,0:0:0:0:
256,192,20005,1,0,0:0:0:0:
256,192,20695,1,8,0:0:0:0:
256,192,22074,1,0,0:0:0:0:
256,192,22764,1,8,0:0:0:0:
512,0,23453,1,4,0:0:0:0:
256,192,24143,1,0,0:0:0:0:
256,192,24488,1,8,0:0:0:0:
256,192,25178,1,8,0:0:0:0:
256,192,25522,1,8,0:0:0:0:
256,192,25867,1,0,0:0:0:0:
256,192,26212,1,8,0:0:0:0:
256,192,26902,1,0,0:0:0:0:
256,192,27247,1,0,0:0:0:0:
256,192,27592,1,8,0:0:0:0:
256,192,27937,1,0,0:0:0:0:
256,192,28109,1,0,0:0:0:0:
256,192,28281,1,8,0:0:0:0:
256,192,28971,1,0,0:0:0:0:
256,192,29661,1,8,0:0:0:0:
256,192,30006,1,0,0:0:0:0:
256,192,30696,1,8,0:0:0:0:
256,192,31040,1,8,0:0:0:0:
256,192,31385,1,0,0:0:0:0:
256,192,31730,1,0,0:0:0:0:
256,192,32420,1,8,0:0:0:0:
256,192,32765,1,8,0:0:0:0:
256,192,33110,1,0,0:0:0:0:
256,192,33453,1,8,0:0:0:0:
256,192,33627,1,8,0:0:0:0:
256,192,33798,1,0,0:0:0:0:
256,192,34488,1,8,0:0:0:0:
256,192,35178,1,0,0:0:0:0:
256,192,35523,1,8,0:0:0:0:
256,192,35867,1,0,0:0:0:0:
256,192,36557,1,8,0:0:0:0:
256,192,36902,1,8,0:0:0:0:
256,192,37247,1,0,0:0:0:0:
256,192,37937,1,0,0:0:0:0:
256,192,38282,1,8,0:0:0:0:
256,192,38453,1,0,0:0:0:0:
256,192,38627,1,8,0:0:0:0:
256,192,38972,1,0,0:0:0:0:
256,192,39316,1,8,0:0:0:0:
256,192,40005,1,0,0:0:0:0:
256,192,40695,1,8,0:0:0:0:
256,192,41040,1,8,0:0:0:0:
256,192,41384,1,0,0:0:0:0:
256,192,42074,1,8,0:0:0:0:
256,192,42419,1,0,0:0:0:0:
256,192,42764,1,8,0:0:0:0:
256,192,43454,1,0,0:0:0:0:
256,192,43799,1,0,0:0:0:0:
256,192,43970,1,0,0:0:0:0:
256,192,44143,1,8,0:0:0:0:
256,192,44833,1,0,0:0:0:0:
256,192,45178,1,8,0:0:0:0:
256,192,45522,1,0,0:0:0:0:
256,192,46212,1,0,0:0:0:0:
256,192,46557,1,8,0:0:0:0:
256,192,46729,1,0,0:0:0:0:
256,192,46902,1,8,0:0:0:0:
256,192,47247,1,0,0:0:0:0:
256,192,47936,1,8,0:0:0:0:
256,192,48281,1,0,0:0:0:0:
256,192,48971,1,8,0:0:0:0:
256,192,49316,1,8,0:0:0:0:
256,192,49661,1,0,0:0:0:0:
256,192,50005,1,8,0:0:0:0:
256,192,50178,1,0,0:0:0:0:
256,192,50350,1,8,0:0:0:0:
256,192,51040,1,0,0:0:0:0:
256,192,51730,1,8,0:0:0:0:
256,192,52075,1,0,0:0:0:0:
256,192,52420,1,8,0:0:0:0:
256,192,53109,1,0,0:0:0:0:
256,192,53454,1,0,0:0:0:0:
256,192,53626,1,0,0:0:0:0:
256,192,53799,1,8,0:0:0:0:
256,192,54489,1,0,0:0:0:0:
256,192,54834,1,8,0:0:0:0:
256,192,55179,1,0,0:0:0:0:
256,192,55523,1,8,0:0:0:0:
256,192,55696,1,8,0:0:0:0:
256,192,55868,1,0,0:0:0:0:
256,192,56557,1,8,0:0:0:0:
256,192,57247,1,0,0:0:0:0:
256,192,57592,1,8,0:0:0:0:
256,192,57764,1,8,0:0:0:0:
256,192,57937,1,0,0:0:0:0:
256,192,58282,1,8,0:0:0:0:
256,192,58453,1,8,0:0:0:0:
256,192,58626,1,8,0:0:0:0:
256,192,58971,1,0,0:0:0:0:
256,192,59316,1,8,0:0:0:0:
256,192,60005,1,8,0:0:0:0:
256,192,60351,1,0,0:0:0:0:
256,192,60696,1,8,0:0:0:0:
256,192,60867,1,8,0:0:0:0:
256,192,61040,1,0,0:0:0:0:
256,192,61385,1,8,0:0:0:0:
256,192,62074,1,0,0:0:0:0:
256,192,62764,1,8,0:0:0:0:
256,192,63109,1,0,0:0:0:0:
256,192,63281,1,0,0:0:0:0:
256,192,63454,1,8,0:0:0:0:
256,192,63799,1,0,0:0:0:0:
256,192,63972,1,0,0:0:0:0:
256,192,64143,1,0,0:0:0:0:
256,192,64488,1,8,0:0:0:0:
256,192,64833,1,0,0:0:0:0:
256,192,65522,1,8,0:0:0:0:
256,192,65868,1,8,0:0:0:0:
256,192,66213,1,0,0:0:0:0:
256,192,66385,1,8,0:0:0:0:
256,192,66557,1,0,0:0:0:0:
256,192,66902,1,8,0:0:0:0:
256,192,67591,1,0,0:0:0:0:
256,192,70350,1,8,0:0:0:0:
256,192,73109,1,0,0:0:0:0:
256,192,75867,1,8,0:0:0:0:
256,192,78626,1,0,0:0:0:0:
256,192,79316,1,0,0:0:0:0:
256,192,80005,1,0,0:0:0:0:
256,192,80695,1,0,0:0:0:0:
256,192,81385,1,8,0:0:0:0:
256,192,82074,1,8,0:0:0:0:
256,192,82764,1,8,0:0:0:0:
256,192,83453,1,8,0:0:0:0:
256,192,84143,1,0,0:0:0:0:
256,192,84833,1,0,0:0:0:0:
256,192,85522,1,0,0:0:0:0:
256,192,86212,1,0,0:0:0:0:
256,192,86902,1,8,0:0:0:0:
256,192,87591,1,8,0:0:0:0:
256,192,88281,1,0,0:0:0:0:
256,192,88970,1,0,0:0:0:0:
512,0,95178,5,12,0:0:0:0:
256,192,95867,1,0,0:0:0:0:
256,192,96040,1,0,0:0:0:0:
256,192,96212,1,8,0:0:0:0:
256,192,96557,1,0,0:0:0:0:
256,192,96901,1,8,0:0:0:0:
256,192,97074,1,8,0:0:0:0:
256,192,97246,1,8,0:0:0:0:
256,192,97591,1,0,0:0:0:0:
256,192,97936,1,8,0:0:0:0:
256,192,98626,1,8,0:0:0:0:
256,192,98971,1,0,0:0:0:0:
256,192,99316,1,8,0:0:0:0:
256,192,99660,1,0,0:0:0:0:
256,192,99833,1,0,0:0:0:0:
256,192,100005,1,8,0:0:0:0:
256,192,100695,1,0,0:0:0:0:
256,192,101384,1,8,0:0:0:0:
256,192,101557,1,8,0:0:0:0:
256,192,101729,1,8,0:0:0:0:
256,192,102074,1,0,0:0:0:0:
256,192,102418,1,8,0:0:0:0:
256,192,102591,1,8,0:0:0:0:
256,192,102763,1,0,0:0:0:0:
256,192,103108,1,8,0:0:0:0:
256,192,103453,1,0,0:0:0:0:
256,192,104143,1,0,0:0:0:0:
256,192,104488,1,0,0:0:0:0:
256,192,104833,1,8,0:0:0:0:
256,192,105177,1,0,0:0:0:0:
256,192,105350,1,0,0:0:0:0:
256,192,105522,1,8,0:0:0:0:
256,192,106212,1,0,0:0:0:0:
256,192,106901,1,8,0:0:0:0:
256,192,107246,1,0,0:0:0:0:
256,192,107419,1,0,0:0:0:0:
256,192,107591,1,0,0:0:0:0:
256,192,107935,1,8,0:0:0:0:
256,192,108109,1,8,0:0:0:0:
256,192,108280,1,0,0:0:0:0:
256,192,108625,1,8,0:0:0:0:
256,192,108970,1,0,0:0:0:0:
256,192,109660,1,8,0:0:0:0:
256,192,110005,1,8,0:0:0:0:
256,192,110350,1,0,0:0:0:0:
256,192,110694,1,0,0:0:0:0:
256,192,110867,1,8,0:0:0:0:
256,192,111039,1,0,0:0:0:0:
256,192,111729,1,8,0:0:0:0:
256,192,112418,1,0,0:0:0:0:
256,192,112764,1,8,0:0:0:0:
256,192,112936,1,8,0:0:0:0:
256,192,113109,1,0,0:0:0:0:
256,192,113452,1,8,0:0:0:0:
256,192,113625,1,8,0:0:0:0:
256,192,113797,1,8,0:0:0:0:
256,192,114142,1,0,0:0:0:0:
256,192,114487,1,8,0:0:0:0:
256,192,115177,1,0,0:0:0:0:
256,192,115522,1,0,0:0:0:0:
256,192,115867,1,8,0:0:0:0:
256,192,116556,1,8,0:0:0:0:
256,192,116902,1,0,0:0:0:0:
512,0,117247,1,12,0:0:0:0:
256,192,117937,1,0,0:0:0:0:
256,192,118282,1,8,0:0:0:0:
256,192,118453,1,8,0:0:0:0:
256,192,118627,1,0,0:0:0:0:
256,192,118972,1,0,0:0:0:0:
256,192,119316,1,8,0:0:0:0:
256,192,119661,1,0,0:0:0:0:
256,192,119833,1,0,0:0:0:0:
256,192,120006,1,8,0:0:0:0:
256,192,120696,1,8,0:0:0:0:
256,192,121041,1,0,0:0:0:0:
256,192,121386,1,8,0:0:0:0:
256,192,121730,1,0,0:0:0:0:
256,192,121902,1,0,0:0:0:0:
256,192,122075,1,0,0:0:0:0:
256,192,122419,1,8,0:0:0:0:
256,192,122764,1,0,0:0:0:0:
256,192,123454,1,8,0:0:0:0:
256,192,123799,1,0,0:0:0:0:
256,192,123970,1,0,0:0:0:0:
256,192,124144,1,8,0:0:0:0:
256,192,124489,1,0,0:0:0:0:
256,192,124833,1,8,0:0:0:0:
256,192,125178,1,0,0:0:0:0:
256,192,125350,1,8,0:0:0:0:
256,192,125523,1,0,0:0:0:0:
256,192,126213,1,8,0:0:0:0:
256,192,126558,1,8,0:0:0:0:
256,192,126903,1,0,0:0:0:0:
256,192,127247,1,0,0:0:0:0:
256,192,127419,1,0,0:0:0:0:
256,192,127592,1,0,0:0:0:0:
256,192,127936,1,8,0:0:0:0:
256,192,128281,1,0,0:0:0:0:
256,192,128971,1,0,0:0:0:0:
256,192,129316,1,8,0:0:0:0:
256,192,129487,1,8,0:0:0:0:
256,192,129661,1,0,0:0:0:0:
256,192,130006,1,0,0:0:0:0:
256,192,130178,1,0,0:0:0:0:
256,192,130350,1,8,0:0:0:0:
256,192,130695,1,0,0:0:0:0:
256,192,131040,1,8,0:0:0:0:
256,192,131730,1,8,0:0:0:0:
256,192,132075,1,8,0:0:0:0:
256,192,132420,1,0,0:0:0:0:
256,192,132591,1,0,0:0:0:0:
256,192,132764,1,0,0:0:0:0:
256,192,133109,1,0,0:0:0:0:
256,192,133453,1,8,0:0:0:0:
256,192,133798,1,0,0:0:0:0:
256,192,134488,1,0,0:0:0:0:
256,192,134833,1,8,0:0:0:0:
256,192,135004,1,8,0:0:0:0:
256,192,135178,1,0,0:0:0:0:
256,192,135523,1,8,0:0:0:0:
256,192,135695,1,0,0:0:0:0:
256,192,135867,1,8,0:0:0:0:
256,192,136212,1,8,0:0:0:0:
256,192,136557,1,0,0:0:0:0:
256,192,137247,1,0,0:0:0:0:
256,192,137591,1,0,0:0:0:0:
256,192,137937,1,8,0:0:0:0:
256,192,138108,1,8,0:0:0:0:
256,192,138281,1,8,0:0:0:0:
256,192,138626,1,0,0:0:0:0:
256,192,138970,1,8,0:0:0:0:
256,192,139316,1,0,0:0:0:0:
256,192,140695,1,8,0:0:0:0:
256,192,141729,1,8,0:0:0:0:
256,192,142074,1,0,0:0:0:0:
256,192,143453,1,0,0:0:0:0:
256,192,144143,1,0,0:0:0:0:
256,192,144833,1,8,0:0:0:0:
256,192,146212,1,0,0:0:0:0:
256,192,147591,1,8,0:0:0:0:
256,192,148971,1,0,0:0:0:0:
256,192,150350,1,8,0:0:0:0:
256,192,150695,1,8,0:0:0:0:
256,192,151040,1,0,0:0:0:0:
256,192,151385,1,8,0:0:0:0:
256,192,152419,1,0,0:0:0:0:
256,192,153109,1,8,0:0:0:0:
256,192,154488,1,0,0:0:0:0:
256,192,155178,1,8,0:0:0:0:
256,192,155867,1,0,0:0:0:0:
256,192,156212,1,0,0:0:0:0:
256,192,156557,1,8,0:0:0:0:
256,192,156902,1,0,0:0:0:0:
256,192,157936,1,8,0:0:0:0:
256,192,158626,1,0,0:0:0:0:
256,192,160005,1,8,0:0:0:0:
256,192,160695,1,8,0:0:0:0:
256,192,161385,1,0,0:0:0:0:
256,192,161557,8,0,168281,0:0:0:0:
