osu file format v14

[General]
AudioFilename: DDR EXTREME - Speed Over Beethoven.mp3
AudioLeadIn: 1985
PreviewTime: -1
Countdown: 1
SampleSet: None
StackLeniency: 0.7
Mode: 0
LetterboxInBreaks: 1
EpilepsyWarning: 1
WidescreenStoryboard: 0

[Editor]
Bookmarks: 17085,27026,28446,34126,36434,45487,47617,51168,73890
DistanceSpacing: 1
BeatDivisor: 2
GridSize: 8
TimelineZoom: 1

[Metadata]
Title:Speed Over Beethoven
TitleUnicode:Speed Over Beethoven
Artist:Rose
ArtistUnicode:Rose
Creator:Bass
Version:Standard
Source:DDR Extreme
Tags:
BeatmapID:1315870
BeatmapSetID:624307

[Difficulty]
HPDrainRate:3
CircleSize:4
OverallDifficulty:5
ApproachRate:5
SliderMultiplier:1.5
SliderTickRate:2

[Events]
//Background and Video events
0,0,"beethoven_radio_1024x768.jpg",0,0
//Break Periods
//Storyboard Layer 0 (Background)
//Storyboard Layer 1 (Fail)
//Storyboard Layer 2 (Pass)
//Storyboard Layer 3 (Foreground)
//Storyboard Sound Samples

[TimingPoints]
1464,355.029585798817,4,2,0,100,1,0
89511,-100,4,2,0,0,0,0

[Colours]
Combo1 : 105,21,181
Combo2 : 43,5,92

[HitObjects]
32,192,1464,6,0,B|32:112,2,75
32,264,1996,2,0,B|32:352,2,75
104,264,2529,2,0,B|240:264,2,75,0|0|4,0:0|0:0|0:0,0:0:0:0:
480,264,3771,5,0,0:0:0:0:
480,192,3949,1,0,0:0:0:0:
480,120,4126,1,0,0:0:0:0:
480,48,4304,1,4,0:0:0:0:
104,48,5191,1,0,0:0:0:0:
104,120,5369,1,0,0:0:0:0:
104,192,5546,1,0,0:0:0:0:
104,264,5724,1,4,0:0:0:0:
488,192,7144,5,4,0:0:0:0:
336,192,7499,1,4,0:0:0:0:
184,192,7854,2,0,B|184:64,2,112.5,0|4|0,0:0|0:0|0:0,0:0:0:0:
184,264,8564,1,4,0:0:0:0:
32,48,9452,5,0,0:0:0:0:
56,120,9629,1,0,0:0:0:0:
112,168,9807,1,0,0:0:0:0:
176,208,9984,1,4,0:0:0:0:
480,48,10872,5,0,0:0:0:0:
456,120,11049,1,0,0:0:0:0:
400,168,11227,1,0,0:0:0:0:
336,208,11404,1,4,0:0:0:0:
32,192,12824,6,0,B|144:192,1,75,4|0,0:0|0:0,0:0:0:0:
184,192,13179,2,0,B|280:192,1,75
336,192,13535,2,0,B|336:80,3,75
408,120,14245,2,0,B|520:120,1,75,4|0,0:0|0:0,0:0:0:0:
488,192,14600,2,0,B|488:280,1,75
488,344,14955,2,0,B|368:344,3,75
336,336,15665,1,4,0:0:0:0:
280,288,15842,1,4,0:0:0:0:
224,336,16020,1,4,0:0:0:0:
168,288,16197,1,4,0:0:0:0:
112,336,16375,1,4,0:0:0:0:
56,288,16552,1,4,0:0:0:0:
56,216,16730,1,4,0:0:0:0:
56,144,16907,1,4,0:0:0:0:
56,72,17085,1,4,0:0:0:0:
432,72,17972,6,0,B|432:208,1,75
432,224,18327,2,0,B|296:224,1,75
208,224,18860,1,4,0:0:0:0:
432,224,19392,1,0,0:0:0:0:
432,296,19570,1,0,0:0:0:0:
360,296,19748,1,0,0:0:0:0:
288,296,19925,1,4,0:0:0:0:
32,192,21345,6,0,B|32:112,2,75,4|0|0,0:0|0:0|0:0,0:0:0:0:
32,264,21878,2,0,B|32:360,2,75,4|0|0,0:0|0:0|0:0,0:0:0:0:
104,264,22410,2,0,B|184:264,2,75,4|0|0,0:0|0:0|0:0,0:0:0:0:
480,264,23653,1,0,0:0:0:0:
480,192,23830,1,0,0:0:0:0:
480,120,24008,1,0,0:0:0:0:
480,48,24185,1,4,0:0:0:0:
104,48,25073,1,0,0:0:0:0:
104,120,25250,1,0,0:0:0:0:
104,192,25428,1,0,0:0:0:0:
104,264,25606,1,4,0:0:0:0:
256,192,27026,12,0,28446,0:0:0:0:
32,192,28801,5,0,0:0:0:0:
184,192,29156,1,4,0:0:0:0:
184,120,29333,1,4,0:0:0:0:
184,48,29511,1,0,0:0:0:0:
312,120,29866,1,0,0:0:0:0:
456,72,30221,1,0,0:0:0:0:
456,224,30576,1,4,0:0:0:0:
392,264,30753,1,4,0:0:0:0:
328,224,30931,1,0,0:0:0:0:
200,296,31286,5,0,0:0:0:0:
56,240,31641,1,0,0:0:0:0:
56,88,31996,2,0,B|56:8,2,75,4|4|0,0:0|0:0|0:0,0:0:0:0:
208,88,32706,1,0,0:0:0:0:
344,32,33061,1,0,0:0:0:0:
480,88,33416,1,4,0:0:0:0:
480,160,33594,1,4,0:0:0:0:
480,232,33771,1,0,0:0:0:0:
328,232,34126,5,0,0:0:0:0:
256,96,34481,1,0,0:0:0:0:
192,232,34836,1,4,0:0:0:0:
256,96,35191,1,0,0:0:0:0:
328,232,35546,1,4,0:0:0:0:
256,96,35901,1,4,0:0:0:0:
192,232,36256,1,4,0:0:0:0:
256,192,36966,12,0,39097,0:0:0:0:
32,192,39452,6,0,B|56:136|120:136|152:200,1,150
296,192,40162,1,0,0:0:0:0:
424,112,40517,1,4,0:0:0:0:
496,112,40694,1,4,0:0:0:0:
496,184,40872,1,0,0:0:0:0:
488,336,41227,1,0,0:0:0:0:
344,304,41582,1,0,0:0:0:0:
200,328,41937,1,4,0:0:0:0:
144,280,42114,1,4,0:0:0:0:
136,208,42292,1,0,0:0:0:0:
136,56,42647,5,0,0:0:0:0:
288,56,43002,1,0,0:0:0:0:
440,56,43357,1,4,0:0:0:0:
440,128,43535,1,4,0:0:0:0:
440,200,43712,1,0,0:0:0:0:
440,352,44067,2,0,B|384:376|352:376|288:352,1,150
152,320,44777,1,0,0:0:0:0:
120,256,44955,1,0,0:0:0:0:
152,192,45132,1,0,0:0:0:0:
152,40,45487,5,0,0:0:0:0:
304,40,45842,1,0,0:0:0:0:
456,40,46197,1,4,0:0:0:0:
304,40,46552,1,0,0:0:0:0:
304,192,46907,1,4,0:0:0:0:
304,344,47262,1,4,0:0:0:0:
456,344,47617,1,4,0:0:0:0:
456,120,48150,5,0,0:0:0:0:
384,120,48327,2,0,B|352:40|312:152|232:80,2,150
384,192,49215,1,0,0:0:0:0:
280,304,49570,1,0,0:0:0:0:
176,192,49925,1,0,0:0:0:0:
176,120,50103,1,0,0:0:0:0:
104,120,50280,1,0,0:0:0:0:
32,120,50458,1,0,0:0:0:0:
32,272,50813,1,0,0:0:0:0:
32,120,51168,1,0,0:0:0:0:
32,48,51345,5,4,0:0:0:0:
104,64,51523,1,4,0:0:0:0:
176,80,51700,1,4,0:0:0:0:
248,96,51878,2,0,B|408:96,2,150
208,160,52765,1,4,0:0:0:0:
184,232,52943,1,4,0:0:0:0:
224,296,53120,1,4,0:0:0:0:
296,320,53298,2,0,B|376:256|264:224|352:168,2,150
368,336,54185,5,4,0:0:0:0:
440,312,54363,1,4,0:0:0:0:
480,248,54540,1,4,0:0:0:0:
480,176,54718,2,0,B|448:136|392:136|344:184,2,150
488,104,55606,5,4,0:0:0:0:
440,48,55783,1,4,0:0:0:0:
368,48,55961,1,4,0:0:0:0:
296,48,56138,1,0,0:0:0:0:
144,64,56493,1,0,0:0:0:0:
64,192,56848,5,0,0:0:0:0:
64,344,57203,1,0,0:0:0:0:
216,344,57558,1,4,0:0:0:0:
368,344,57913,1,0,0:0:0:0:
368,192,58268,1,4,0:0:0:0:
368,40,58623,1,4,0:0:0:0:
216,40,58978,1,4,0:0:0:0:
256,192,59688,12,0,61819,0:0:0:0:
40,192,62174,6,0,B|208:192,1,150
264,192,62706,1,4,0:0:0:0:
336,192,62884,1,4,0:0:0:0:
408,192,63061,1,4,0:0:0:0:
480,192,63239,1,4,0:0:0:0:
480,40,63594,1,0,0:0:0:0:
328,40,63949,1,0,0:0:0:0:
256,40,64126,1,4,0:0:0:0:
184,40,64304,1,4,0:0:0:0:
112,40,64481,1,4,0:0:0:0:
40,40,64659,1,4,0:0:0:0:
80,184,65014,5,0,0:0:0:0:
152,320,65369,1,0,0:0:0:0:
208,272,65546,1,4,0:0:0:0:
264,320,65724,1,4,0:0:0:0:
320,272,65901,1,4,0:0:0:0:
376,320,66079,1,4,0:0:0:0:
440,184,66434,1,0,0:0:0:0:
384,48,66789,1,0,0:0:0:0:
312,48,66966,1,4,0:0:0:0:
240,48,67144,1,4,0:0:0:0:
168,48,67321,1,4,0:0:0:0:
96,48,67499,1,4,0:0:0:0:
96,200,67854,5,0,0:0:0:0:
96,352,68209,1,0,0:0:0:0:
232,280,68564,1,0,0:0:0:0:
232,128,68919,1,4,0:0:0:0:
360,200,69274,1,0,0:0:0:0:
360,48,69629,1,4,0:0:0:0:
360,200,69984,1,4,0:0:0:0:
360,48,70339,1,4,0:0:0:0:
136,48,70872,5,0,0:0:0:0:
96,112,71049,1,0,0:0:0:0:
152,248,71404,1,0,0:0:0:0:
304,248,71759,1,0,0:0:0:0:
344,184,71937,1,0,0:0:0:0:
344,32,72292,1,0,0:0:0:0:
192,32,72647,1,0,0:0:0:0:
128,64,72824,1,0,0:0:0:0:
104,136,73002,1,0,0:0:0:0:
104,208,73179,1,0,0:0:0:0:
408,216,73890,5,0,0:0:0:0:
408,64,74245,1,0,0:0:0:0:
408,216,74600,1,0,0:0:0:0:
256,216,74955,2,0,B|176:216,2,75,0|0|4,0:0|0:0|0:0,0:0:0:0:
32,216,76197,1,0,0:0:0:0:
32,144,76375,1,0,0:0:0:0:
104,144,76552,1,0,0:0:0:0:
104,72,76730,1,4,0:0:0:0:
480,80,77617,1,0,0:0:0:0:
480,152,77795,1,0,0:0:0:0:
408,152,77972,1,0,0:0:0:0:
408,224,78150,2,0,B|376:264|312:264|256:224,4,150,4|4|4|4|4,0:0|0:0|0:0|0:0|0:0,0:0:0:0:
352,168,79748,5,0,0:0:0:0:
280,144,79925,1,0,0:0:0:0:
208,152,80103,1,0,0:0:0:0:
136,176,80280,1,0,0:0:0:0:
88,232,80458,1,0,0:0:0:0:
80,304,80635,1,0,0:0:0:0:
144,344,80813,1,0,0:0:0:0:
216,344,80990,1,4,0:0:0:0:
456,56,81878,1,0,0:0:0:0:
456,128,82055,1,0,0:0:0:0:
456,200,82233,1,0,0:0:0:0:
456,272,82410,1,4,0:0:0:0:
152,56,83298,1,0,0:0:0:0:
152,128,83475,1,0,0:0:0:0:
152,200,83653,1,0,0:0:0:0:
152,272,83830,5,4,0:0:0:0:
376,280,84363,1,0,0:0:0:0:
376,208,84540,1,0,0:0:0:0:
376,136,84718,1,4,0:0:0:0:
224,136,85073,1,0,0:0:0:0:
224,208,85250,1,0,0:0:0:0:
224,280,85428,1,4,0:0:0:0:
72,280,85783,1,0,0:0:0:0:
72,208,85961,1,0,0:0:0:0:
72,136,86138,1,4,0:0:0:0:
256,192,86671,12,0,89511,0:0:0:0:
