osu file format v14

[General]
AudioFilename: DDR EXTREME - Speed Over Beethoven.mp3
AudioLeadIn: 1985
PreviewTime: -1
Countdown: 1
SampleSet: None
StackLeniency: 0.7
Mode: 0
LetterboxInBreaks: 1
EpilepsyWarning: 1
WidescreenStoryboard: 0

[Editor]
Bookmarks: 17085,27026,28446,34126,36434,45487,47617,51168,73890
DistanceSpacing: 0.8
BeatDivisor: 2
GridSize: 16
TimelineZoom: 1

[Metadata]
Title:Speed Over Beethoven
TitleUnicode:Speed Over Beethoven
Artist:Rose
ArtistUnicode:Rose
Creator:Bass
Version:Light
Source:DDR Extreme
Tags:
BeatmapID:1315869
BeatmapSetID:624307

[Difficulty]
HPDrainRate:1
CircleSize:3
OverallDifficulty:3
ApproachRate:3
SliderMultiplier:0.999999999999999
SliderTickRate:2

[Events]
//Background and Video events
0,0,"beethoven_radio_1024x768.jpg",0,0
//Break Periods
//Storyboard Layer 0 (Background)
//Storyboard Layer 1 (Fail)
//Storyboard Layer 2 (Pass)
//Storyboard Layer 3 (Foreground)
//Storyboard Sound Samples

[TimingPoints]
1464,355.029585798817,4,2,0,100,1,0
89511,-100,4,2,0,0,0,0

[Colours]
Combo1 : 105,21,181
Combo2 : 43,5,92

[HitObjects]
256,32,1464,6,0,B|32:32|32:320,1,399.999999999999,0|4,0:0|0:0,0:0:0:0:
272,352,3949,2,0,B|400:352,1,99.9999999999999,0|4,0:0|0:0,0:0:0:0:
368,112,5369,2,0,B|264:112,1,99.9999999999999,0|4,0:0|0:0,0:0:0:0:
48,352,7144,6,0,B|48:248,4,99.9999999999999,4|4|4|4|4,0:0|0:0|0:0|0:0|0:0,0:0:0:0:
48,112,9629,2,0,B|176:112,1,99.9999999999999,0|4,0:0|0:0,0:0:0:0:
384,112,11049,2,0,B|384:240,1,99.9999999999999,0|4,0:0|0:0,0:0:0:0:
64,208,12824,6,0,B|280:208,1,200
272,48,14245,2,0,B|64:48,1,200
64,208,15665,2,4,B|64:336,4,99.9999999999999,4|4|4|4|4,0:0|0:0|0:0|0:0|0:0,0:0:0:0:
304,208,18150,6,0,B|304:336,1,99.9999999999999
304,64,19570,2,0,B|168:64,1,99.9999999999999,0|4,0:0|0:0,0:0:0:0:
32,336,21345,2,0,B|32:16,1,300
112,32,22765,1,4,0:0:0:0:
352,32,23830,5,0,0:0:0:0:
352,112,24185,1,0,0:0:0:0:
112,112,25250,1,0,0:0:0:0:
112,32,25606,1,4,0:0:0:0:
256,192,27026,12,0,28446,0:0:0:0:
256,192,28801,6,0,B|256:72,1,99.9999999999999,0|4,0:0|0:0,0:0:0:0:
496,96,30221,1,0,0:0:0:0:
496,176,30576,1,0,0:0:0:0:
256,176,31641,2,0,B|144:176,1,99.9999999999999,0|4,0:0|0:0,0:0:0:0:
400,176,33061,1,0,0:0:0:0:
400,96,33416,1,0,0:0:0:0:
256,192,34126,12,0,36611,0:0:0:0:
256,192,36966,6,0,B|256:80,1,99.9999999999999
336,96,37677,2,0,B|336:216,1,99.9999999999999
416,192,38387,2,0,B|528:136|368:72|456:16,1,200
208,32,40162,5,0,0:0:0:0:
128,32,40517,1,4,0:0:0:0:
128,272,41582,2,0,B|248:272,1,99.9999999999999
464,272,43002,1,0,0:0:0:0:
464,192,43357,1,4,0:0:0:0:
224,192,44422,2,0,B|104:192,1,99.9999999999999
256,192,45487,12,0,47617,0:0:0:0:
32,192,48150,6,0,B|352:192,1,300
416,192,49570,1,0,0:0:0:0:
416,112,49925,2,0,B|416:32,3,50
336,64,50813,6,0,B|192:64,1,99.9999999999999
160,64,51523,2,0,B|160:200,1,99.9999999999999,4|0,0:0|0:0,0:0:0:0:
160,240,52233,2,0,B|304:240,1,99.9999999999999
336,240,52943,2,0,B|480:240,1,99.9999999999999,4|0,0:0|0:0,0:0:0:0:
448,160,53653,2,0,B|448:56,3,99.9999999999999,0|0|4|0,0:0|0:0|0:0|0:0,0:0:0:0:
368,48,55073,2,0,B|232:48,3,99.9999999999999,0|0|4|0,0:0|0:0|0:0|0:0,0:0:0:0:
256,192,56848,12,0,58978,0:0:0:0:
40,192,59688,6,0,B|168:192,1,99.9999999999999
224,192,60398,2,0,B|224:56,1,99.9999999999999
304,96,61108,2,0,B|304:320,1,200
384,304,62174,6,0,B|512:304,3,99.9999999999999,0|0|4|0,0:0|0:0|0:0|0:0,0:0:0:0:
480,224,63594,2,0,B|480:104,3,99.9999999999999,0|0|4|0,0:0|0:0|0:0|0:0,0:0:0:0:
480,48,65014,2,0,B|352:48,3,99.9999999999999,0|0|4|0,0:0|0:0|0:0|0:0,0:0:0:0:
304,80,66434,2,0,B|304:8,2,50,0|0|4,0:0|0:0|0:0,0:0:0:0:
304,160,67144,2,0,B|304:240,2,50,0|0|4,0:0|0:0|0:0,0:0:0:0:
256,192,68209,12,0,70339,0:0:0:0:
32,192,70872,6,0,B|112:192,1,50
128,192,71227,2,0,B|208:192,1,50
224,192,71582,2,0,B|312:192,1,50
400,192,72292,1,0,0:0:0:0:
400,112,72647,2,0,B|400:48,3,50
240,112,73890,6,0,B|64:112|64:336,1,300
144,320,75310,1,4,0:0:0:0:
384,320,76375,1,0,0:0:0:0:
384,240,76730,1,4,0:0:0:0:
144,240,77795,1,0,0:0:0:0:
144,320,78150,1,4,0:0:0:0:
464,320,79570,2,0,B|464:208,1,99.9999999999999,4|0,0:0|0:0,0:0:0:0:
464,144,80280,2,0,B|464:24,1,99.9999999999999,4|0,0:0|0:0,0:0:0:0:
384,48,80990,1,4,0:0:0:0:
144,48,82055,5,0,0:0:0:0:
144,128,82410,1,0,0:0:0:0:
256,336,83475,1,0,0:0:0:0:
256,256,83830,5,4,0:0:0:0:
256,96,84540,1,0,0:0:0:0:
416,96,85250,1,4,0:0:0:0:
416,256,85961,1,0,0:0:0:0:
256,192,86671,12,0,89511,0:0:0:0:
