osu file format v14

[General]
AudioFilename: audio.ogg
AudioLeadIn: 0
PreviewTime: 486
Countdown: 0
SampleSet: Soft
StackLeniency: 0.7
Mode: 3
LetterboxInBreaks: 0
SpecialStyle: 0
WidescreenStoryboard: 0

[Editor]
Bookmarks: 486,11152,21819,37819,43152,48485,53819,64485,69819,75152
DistanceSpacing: 1.1
BeatDivisor: 4
GridSize: 16
TimelineZoom: 1.4

[Metadata]
Title:Da Da Is Tape To And U U U
TitleUnicode:Da Da Is Tape To And U U U
Artist:Rory in early 20s
ArtistUnicode:Rory in early 20s
Creator:keksikosu
Version:Mental Hospital Patient
Source:
Tags:Tomo Me Nyado breakcore брейккор lolicore лоликор лоли instrumental loli in early lolinearly20s rorynearly20s twenties electronic lo-fi dnb днб drum & and bass d&b d'n'b drumnbass drum'n'bass russian русский jumpstream jumpstreams jump stream streams js tech Nicknem_ Flade
BeatmapID:3658132
BeatmapSetID:1785559

[Difficulty]
HPDrainRate:8.5
CircleSize:4
OverallDifficulty:8
ApproachRate:5
SliderMultiplier:1.4
SliderTickRate:1

[Events]
//Background and Video events
0,0,"lolya.jpg",0,0
//Break Periods
//Storyboard Layer 0 (Background)
//Storyboard Layer 1 (Fail)
//Storyboard Layer 2 (Pass)
//Storyboard Layer 3 (Foreground)
//Storyboard Layer 4 (Overlay)
//Storyboard Sound Samples

[TimingPoints]
486,333.333333333333,4,2,1,35,1,0
11152,-100,4,2,1,35,0,1
29819,-100,4,2,1,35,0,0
75152,-100,4,2,1,35,0,1
80485,-100,4,2,1,35,0,0

[HitObjects]
448,192,486,128,0,569:0:0:0:0:
192,192,652,1,0,0:0:0:0:
64,192,735,1,0,0:0:0:0:
192,192,819,128,0,902:0:0:0:0:
448,192,985,1,0,0:0:0:0:
192,192,1069,1,0,0:0:0:0:
320,192,1152,128,0,1235:0:0:0:0:
448,192,1152,1,0,0:0:0:0:
64,192,1319,1,0,0:0:0:0:
320,192,1402,1,0,0:0:0:0:
64,192,1485,1,0,0:0:0:0:
192,192,1485,128,0,1569:0:0:0:0:
448,192,1652,1,0,0:0:0:0:
320,192,1735,1,0,0:0:0:0:
64,192,1819,1,0,0:0:0:0:
448,192,1819,1,0,0:0:0:0:
192,192,1874,1,0,0:0:0:0:
320,192,1930,1,0,0:0:0:0:
64,192,1985,1,0,0:0:0:0:
448,192,2152,1,0,0:0:0:0:
192,192,2152,128,0,2235:0:0:0:0:
192,192,2319,1,0,0:0:0:0:
64,192,2402,1,0,0:0:0:0:
320,192,2485,1,0,0:0:0:0:
448,192,2506,1,0,0:0:0:0:
448,192,2652,1,0,0:0:0:0:
320,192,2673,1,0,0:0:0:0:
320,192,2819,1,0,0:0:0:0:
448,192,2840,1,0,0:0:0:0:
448,192,2985,1,0,0:0:0:0:
320,192,3006,1,0,0:0:0:0:
192,192,3152,1,0,0:0:0:0:
64,192,3152,128,0,3235:0:0:0:0:
448,192,3319,1,0,0:0:0:0:
320,192,3485,1,0,0:0:0:0:
448,192,3485,128,0,3569:0:0:0:0:
192,192,3652,1,0,0:0:0:0:
320,192,3735,1,0,0:0:0:0:
192,192,3819,1,0,0:0:0:0:
64,192,3819,128,0,3902:0:0:0:0:
448,192,3985,1,0,0:0:0:0:
64,192,4069,1,0,0:0:0:0:
320,192,4152,1,0,0:0:0:0:
448,192,4152,128,0,4235:0:0:0:0:
64,192,4319,1,0,0:0:0:0:
192,192,4402,1,0,0:0:0:0:
64,192,4485,1,0,0:0:0:0:
320,192,4485,128,0,4541:0:0:0:0:
192,192,4652,1,0,0:0:0:0:
320,192,4819,1,0,0:0:0:0:
448,192,4819,128,0,4902:0:0:0:0:
64,192,4985,1,0,0:0:0:0:
448,192,5069,1,0,0:0:0:0:
192,192,5152,128,0,5215:0:0:0:0:
320,192,5173,128,0,5235:0:0:0:0:
320,192,5319,128,0,5381:0:0:0:0:
192,192,5340,128,0,5402:0:0:0:0:
192,192,5485,128,0,5548:0:0:0:0:
320,192,5506,128,0,5569:0:0:0:0:
320,192,5652,128,0,5715:0:0:0:0:
192,192,5673,128,0,5735:0:0:0:0:
448,192,5819,1,0,0:0:0:0:
320,192,5819,128,0,5902:0:0:0:0:
64,192,5985,1,0,0:0:0:0:
320,192,6069,1,0,0:0:0:0:
192,192,6152,1,0,0:0:0:0:
448,192,6152,128,0,6235:0:0:0:0:
64,192,6319,1,0,0:0:0:0:
320,192,6402,1,0,0:0:0:0:
192,192,6485,1,0,0:0:0:0:
64,192,6485,128,0,6569:0:0:0:0:
448,192,6652,1,0,0:0:0:0:
192,192,6735,1,0,0:0:0:0:
320,192,6819,1,0,0:0:0:0:
448,192,6819,128,0,6902:0:0:0:0:
64,192,6985,1,0,0:0:0:0:
192,192,7069,1,0,0:0:0:0:
448,192,7152,1,0,0:0:0:0:
64,192,7152,1,0,0:0:0:0:
320,192,7208,1,0,0:0:0:0:
192,192,7263,1,0,0:0:0:0:
448,192,7319,1,0,0:0:0:0:
64,192,7485,1,0,0:0:0:0:
320,192,7485,128,0,7569:0:0:0:0:
320,192,7652,1,0,0:0:0:0:
448,192,7735,1,0,0:0:0:0:
192,192,7819,1,0,0:0:0:0:
64,192,7840,1,0,0:0:0:0:
64,192,7985,1,0,0:0:0:0:
192,192,8006,1,0,0:0:0:0:
192,192,8152,1,0,0:0:0:0:
64,192,8173,1,0,0:0:0:0:
64,192,8319,1,0,0:0:0:0:
192,192,8340,1,0,0:0:0:0:
448,192,8485,128,0,10735:0:0:0:0:
320,192,8485,1,0,0:0:0:0:
64,192,9819,128,0,10735:0:0:0:0:
320,192,10735,1,0,0:0:0:0:
192,192,10819,1,0,0:0:0:0:
320,192,10902,1,0,0:0:0:0:
192,192,10985,1,0,0:0:0:0:
320,192,11069,1,0,0:0:0:0:
192,192,11152,1,0,0:0:0:0:
64,192,11152,1,0,0:0:0:0:
448,192,11152,1,0,0:0:0:0:
320,192,11235,1,0,0:0:0:0:
448,192,11319,1,0,0:0:0:0:
64,192,11319,1,0,0:0:0:0:
192,192,11402,1,0,0:0:0:0:
320,192,11485,1,0,0:0:0:0:
448,192,11485,1,0,0:0:0:0:
64,192,11597,1,0,0:0:0:0:
320,192,11652,1,0,0:0:0:0:
192,192,11708,1,0,0:0:0:0:
448,192,11763,1,0,0:0:0:0:
320,192,11819,1,0,0:0:0:0:
64,192,11819,1,0,0:0:0:0:
192,192,11902,1,0,0:0:0:0:
320,192,11985,1,0,0:0:0:0:
448,192,12069,1,0,0:0:0:0:
192,192,12152,1,0,0:0:0:0:
64,192,12152,1,0,0:0:0:0:
320,192,12235,1,0,0:0:0:0:
192,192,12319,1,0,0:0:0:0:
64,192,12374,1,0,0:0:0:0:
320,192,12430,1,0,0:0:0:0:
192,192,12485,1,0,0:0:0:0:
448,192,12485,1,0,0:0:0:0:
64,192,12569,1,0,0:0:0:0:
320,192,12652,1,0,0:0:0:0:
192,192,12735,1,0,0:0:0:0:
64,192,12819,1,0,0:0:0:0:
448,192,12819,1,0,0:0:0:0:
320,192,12930,1,0,0:0:0:0:
448,192,12985,1,0,0:0:0:0:
192,192,13041,1,0,0:0:0:0:
320,192,13097,1,0,0:0:0:0:
64,192,13152,1,0,0:0:0:0:
448,192,13152,1,0,0:0:0:0:
192,192,13235,1,0,0:0:0:0:
320,192,13319,1,0,0:0:0:0:
64,192,13319,1,0,0:0:0:0:
192,192,13402,1,0,0:0:0:0:
320,192,13485,1,0,0:0:0:0:
448,192,13485,1,0,0:0:0:0:
64,192,13569,1,0,0:0:0:0:
448,192,13652,1,0,0:0:0:0:
192,192,13652,1,0,0:0:0:0:
64,192,13735,1,0,0:0:0:0:
448,192,13819,1,0,0:0:0:0:
320,192,13819,1,0,0:0:0:0:
192,192,13902,1,0,0:0:0:0:
320,192,13985,1,0,0:0:0:0:
192,192,14069,1,0,0:0:0:0:
320,192,14152,1,0,0:0:0:0:
64,192,14152,1,0,0:0:0:0:
192,192,14235,1,0,0:0:0:0:
320,192,14319,1,0,0:0:0:0:
192,192,14402,1,0,0:0:0:0:
448,192,14485,1,0,0:0:0:0:
64,192,14485,1,0,0:0:0:0:
320,192,14569,1,0,0:0:0:0:
448,192,14652,1,0,0:0:0:0:
320,192,14735,1,0,0:0:0:0:
448,192,14819,1,0,0:0:0:0:
192,192,14819,1,0,0:0:0:0:
320,192,14902,1,0,0:0:0:0:
64,192,14985,1,0,0:0:0:0:
192,192,15069,1,0,0:0:0:0:
64,192,15152,1,0,0:0:0:0:
448,192,15152,1,0,0:0:0:0:
192,192,15235,1,0,0:0:0:0:
320,192,15319,1,0,0:0:0:0:
192,192,15402,1,0,0:0:0:0:
64,192,15485,1,0,0:0:0:0:
320,192,15485,1,0,0:0:0:0:
448,192,15569,1,0,0:0:0:0:
320,192,15652,1,0,0:0:0:0:
448,192,15735,1,0,0:0:0:0:
192,192,15819,1,0,0:0:0:0:
64,192,15819,1,0,0:0:0:0:
320,192,15902,1,0,0:0:0:0:
448,192,15985,1,0,0:0:0:0:
192,192,15985,1,0,0:0:0:0:
64,192,16069,1,0,0:0:0:0:
448,192,16152,1,0,0:0:0:0:
320,192,16152,1,0,0:0:0:0:
192,192,16235,1,0,0:0:0:0:
64,192,16319,1,0,0:0:0:0:
320,192,16319,1,0,0:0:0:0:
192,192,16402,1,0,0:0:0:0:
320,192,16485,1,0,0:0:0:0:
448,192,16485,1,0,0:0:0:0:
192,192,16569,1,0,0:0:0:0:
64,192,16652,1,0,0:0:0:0:
448,192,16735,1,0,0:0:0:0:
64,192,16819,1,0,0:0:0:0:
192,192,16819,1,0,0:0:0:0:
320,192,16874,1,0,0:0:0:0:
448,192,16930,1,0,0:0:0:0:
192,192,16985,1,0,0:0:0:0:
320,192,17041,1,0,0:0:0:0:
64,192,17097,1,0,0:0:0:0:
192,192,17152,1,0,0:0:0:0:
448,192,17152,1,0,0:0:0:0:
320,192,17235,1,0,0:0:0:0:
192,192,17319,1,0,0:0:0:0:
64,192,17402,1,0,0:0:0:0:
448,192,17485,1,0,0:0:0:0:
320,192,17485,1,0,0:0:0:0:
64,192,17569,1,0,0:0:0:0:
192,192,17652,1,0,0:0:0:0:
320,192,17708,1,0,0:0:0:0:
448,192,17763,1,0,0:0:0:0:
192,192,17819,1,0,0:0:0:0:
64,192,17819,1,0,0:0:0:0:
320,192,17902,1,0,0:0:0:0:
448,192,17985,1,0,0:0:0:0:
64,192,18069,1,0,0:0:0:0:
448,192,18152,1,0,0:0:0:0:
320,192,18152,1,0,0:0:0:0:
192,192,18208,1,0,0:0:0:0:
64,192,18263,1,0,0:0:0:0:
320,192,18319,1,0,0:0:0:0:
192,192,18374,1,0,0:0:0:0:
448,192,18430,1,0,0:0:0:0:
64,192,18485,1,0,0:0:0:0:
320,192,18485,1,0,0:0:0:0:
192,192,18569,1,0,0:0:0:0:
448,192,18652,1,0,0:0:0:0:
320,192,18652,1,0,0:0:0:0:
64,192,18735,1,0,0:0:0:0:
192,192,18819,1,0,0:0:0:0:
448,192,18819,1,0,0:0:0:0:
320,192,18902,1,0,0:0:0:0:
448,192,18985,1,0,0:0:0:0:
64,192,18985,1,0,0:0:0:0:
192,192,19069,1,0,0:0:0:0:
320,192,19152,1,0,0:0:0:0:
64,192,19152,1,0,0:0:0:0:
448,192,19235,1,0,0:0:0:0:
320,192,19319,1,0,0:0:0:0:
448,192,19402,1,0,0:0:0:0:
320,192,19485,1,0,0:0:0:0:
64,192,19485,1,0,0:0:0:0:
448,192,19569,1,0,0:0:0:0:
320,192,19652,1,0,0:0:0:0:
448,192,19735,1,0,0:0:0:0:
192,192,19819,1,0,0:0:0:0:
64,192,19819,1,0,0:0:0:0:
320,192,19902,1,0,0:0:0:0:
64,192,19985,1,0,0:0:0:0:
320,192,20069,1,0,0:0:0:0:
448,192,20152,1,0,0:0:0:0:
64,192,20152,1,0,0:0:0:0:
192,192,20235,1,0,0:0:0:0:
320,192,20319,1,0,0:0:0:0:
64,192,20402,1,0,0:0:0:0:
448,192,20485,1,0,0:0:0:0:
320,192,20485,1,0,0:0:0:0:
192,192,20569,1,0,0:0:0:0:
320,192,20652,1,0,0:0:0:0:
192,192,20735,1,0,0:0:0:0:
64,192,20819,1,0,0:0:0:0:
448,192,20819,1,0,0:0:0:0:
320,192,20902,1,0,0:0:0:0:
448,192,20985,1,0,0:0:0:0:
320,192,21069,1,0,0:0:0:0:
192,192,21152,1,0,0:0:0:0:
64,192,21152,1,0,0:0:0:0:
448,192,21235,1,0,0:0:0:0:
64,192,21319,1,0,0:0:0:0:
320,192,21319,1,0,0:0:0:0:
192,192,21402,1,0,0:0:0:0:
64,192,21485,1,0,0:0:0:0:
448,192,21485,1,0,0:0:0:0:
320,192,21569,1,0,0:0:0:0:
192,192,21652,1,0,0:0:0:0:
64,192,21652,1,0,0:0:0:0:
320,192,21735,1,0,0:0:0:0:
64,192,21819,1,0,0:0:0:0:
448,192,21819,1,0,0:0:0:0:
192,192,21902,1,0,0:0:0:0:
320,192,21985,1,0,0:0:0:0:
448,192,22069,1,0,0:0:0:0:
320,192,22152,1,0,0:0:0:0:
192,192,22152,1,0,0:0:0:0:
64,192,22152,1,0,0:0:0:0:
448,192,22235,1,0,0:0:0:0:
192,192,22319,1,0,0:0:0:0:
64,192,22319,1,0,0:0:0:0:
320,192,22402,1,0,0:0:0:0:
448,192,22485,1,0,0:0:0:0:
64,192,22485,1,0,0:0:0:0:
192,192,22569,1,0,0:0:0:0:
320,192,22652,1,0,0:0:0:0:
192,192,22735,1,0,0:0:0:0:
448,192,22819,1,0,0:0:0:0:
64,192,22819,1,0,0:0:0:0:
320,192,22819,1,0,0:0:0:0:
192,192,22902,1,0,0:0:0:0:
64,192,22985,1,0,0:0:0:0:
448,192,23069,1,0,0:0:0:0:
320,192,23152,1,0,0:0:0:0:
192,192,23152,1,0,0:0:0:0:
64,192,23235,1,0,0:0:0:0:
448,192,23319,1,0,0:0:0:0:
320,192,23402,1,0,0:0:0:0:
448,192,23485,1,0,0:0:0:0:
64,192,23485,1,0,0:0:0:0:
192,192,23485,1,0,0:0:0:0:
320,192,23569,1,0,0:0:0:0:
192,192,23652,1,0,0:0:0:0:
448,192,23652,1,0,0:0:0:0:
64,192,23735,1,0,0:0:0:0:
320,192,23819,1,0,0:0:0:0:
192,192,23902,1,0,0:0:0:0:
448,192,23985,1,0,0:0:0:0:
320,192,23985,1,0,0:0:0:0:
64,192,24069,1,0,0:0:0:0:
320,192,24152,1,0,0:0:0:0:
448,192,24152,1,0,0:0:0:0:
192,192,24152,1,0,0:0:0:0:
64,192,24235,1,0,0:0:0:0:
448,192,24319,1,0,0:0:0:0:
320,192,24402,1,0,0:0:0:0:
448,192,24485,1,0,0:0:0:0:
192,192,24485,1,0,0:0:0:0:
64,192,24569,1,0,0:0:0:0:
192,192,24652,1,0,0:0:0:0:
64,192,24735,1,0,0:0:0:0:
192,192,24819,1,0,0:0:0:0:
448,192,24819,1,0,0:0:0:0:
64,192,24902,1,0,0:0:0:0:
192,192,24985,1,0,0:0:0:0:
64,192,25069,1,0,0:0:0:0:
320,192,25152,1,0,0:0:0:0:
448,192,25152,1,0,0:0:0:0:
192,192,25235,1,0,0:0:0:0:
448,192,25319,1,0,0:0:0:0:
192,192,25402,1,0,0:0:0:0:
64,192,25485,1,0,0:0:0:0:
448,192,25485,1,0,0:0:0:0:
320,192,25569,1,0,0:0:0:0:
192,192,25652,1,0,0:0:0:0:
448,192,25735,1,0,0:0:0:0:
64,192,25819,1,0,0:0:0:0:
192,192,25819,1,0,0:0:0:0:
320,192,25902,1,0,0:0:0:0:
192,192,25985,1,0,0:0:0:0:
320,192,26069,1,0,0:0:0:0:
64,192,26152,1,0,0:0:0:0:
448,192,26152,1,0,0:0:0:0:
192,192,26235,1,0,0:0:0:0:
448,192,26319,1,0,0:0:0:0:
192,192,26402,1,0,0:0:0:0:
320,192,26485,1,0,0:0:0:0:
448,192,26569,1,0,0:0:0:0:
192,192,26652,1,0,0:0:0:0:
64,192,26652,1,0,0:0:0:0:
320,192,26735,1,0,0:0:0:0:
448,192,26819,1,0,0:0:0:0:
64,192,26819,1,0,0:0:0:0:
192,192,26902,1,0,0:0:0:0:
320,192,26985,1,0,0:0:0:0:
192,192,27069,1,0,0:0:0:0:
64,192,27152,1,0,0:0:0:0:
448,192,27152,1,0,0:0:0:0:
320,192,27235,1,0,0:0:0:0:
192,192,27319,1,0,0:0:0:0:
448,192,27402,1,0,0:0:0:0:
320,192,27485,1,0,0:0:0:0:
64,192,27485,1,0,0:0:0:0:
192,192,27485,1,0,0:0:0:0:
448,192,27569,1,0,0:0:0:0:
320,192,27652,1,0,0:0:0:0:
64,192,27652,1,0,0:0:0:0:
192,192,27735,1,0,0:0:0:0:
320,192,27819,1,0,0:0:0:0:
448,192,27819,1,0,0:0:0:0:
64,192,27902,1,0,0:0:0:0:
448,192,27985,1,0,0:0:0:0:
320,192,28069,1,0,0:0:0:0:
192,192,28152,1,0,0:0:0:0:
64,192,28152,1,0,0:0:0:0:
448,192,28152,1,0,0:0:0:0:
320,192,28235,1,0,0:0:0:0:
192,192,28319,1,0,0:0:0:0:
64,192,28402,1,0,0:0:0:0:
320,192,28485,1,0,0:0:0:0:
448,192,28485,1,0,0:0:0:0:
192,192,28569,1,0,0:0:0:0:
320,192,28652,1,0,0:0:0:0:
64,192,28735,1,0,0:0:0:0:
192,192,28819,1,0,0:0:0:0:
320,192,28819,1,0,0:0:0:0:
448,192,28819,1,0,0:0:0:0:
64,192,28902,1,0,0:0:0:0:
192,192,28985,1,0,0:0:0:0:
448,192,28985,1,0,0:0:0:0:
320,192,29069,1,0,0:0:0:0:
192,192,29152,1,0,0:0:0:0:
64,192,29152,1,0,0:0:0:0:
448,192,29235,1,0,0:0:0:0:
64,192,29319,1,0,0:0:0:0:
320,192,29319,1,0,0:0:0:0:
192,192,29402,1,0,0:0:0:0:
64,192,29485,1,0,0:0:0:0:
320,192,29485,1,0,0:0:0:0:
448,192,29485,1,0,0:0:0:0:
192,192,29569,1,0,0:0:0:0:
320,192,29652,1,0,0:0:0:0:
448,192,29735,1,0,0:0:0:0:
192,192,29819,1,0,0:0:0:0:
64,192,29819,128,0,29902:0:0:0:0:
64,192,30319,128,0,30402:0:0:0:0:
64,192,30819,128,0,30902:0:0:0:0:
320,192,31152,128,0,31235:0:0:0:0:
320,192,31652,128,0,31735:0:0:0:0:
192,192,32069,1,0,0:0:0:0:
320,192,32152,1,0,0:0:0:0:
192,192,32235,1,0,0:0:0:0:
320,192,32319,1,0,0:0:0:0:
192,192,32402,1,0,0:0:0:0:
320,192,32485,128,0,37735:0:0:0:0:
64,192,33819,128,0,37735:0:0:0:0:
448,192,35152,128,0,37735:0:0:0:0:
192,192,36485,128,0,37735:0:0:0:0:
64,192,37819,1,0,0:0:0:0:
320,192,37819,1,0,0:0:0:0:
448,192,37819,1,0,0:0:0:0:
192,192,37819,1,0,0:0:0:0:
320,192,37985,1,0,0:0:0:0:
192,192,38152,1,0,0:0:0:0:
64,192,38152,1,0,0:0:0:0:
448,192,38152,1,0,0:0:0:0:
320,192,38319,1,0,0:0:0:0:
448,192,38319,1,0,0:0:0:0:
64,192,38374,1,0,0:0:0:0:
192,192,38430,1,0,0:0:0:0:
320,192,38485,1,0,0:0:0:0:
448,192,38652,1,0,0:0:0:0:
64,192,38652,1,0,0:0:0:0:
320,192,38819,1,0,0:0:0:0:
64,192,38819,1,0,0:0:0:0:
192,192,38819,1,0,0:0:0:0:
448,192,38985,1,0,0:0:0:0:
320,192,39041,1,0,0:0:0:0:
192,192,39097,1,0,0:0:0:0:
64,192,39152,1,0,0:0:0:0:
448,192,39152,1,0,0:0:0:0:
192,192,39319,1,0,0:0:0:0:
448,192,39485,1,0,0:0:0:0:
320,192,39485,1,0,0:0:0:0:
64,192,39485,1,0,0:0:0:0:
192,192,39652,1,0,0:0:0:0:
64,192,39652,1,0,0:0:0:0:
448,192,39708,1,0,0:0:0:0:
320,192,39763,1,0,0:0:0:0:
192,192,39819,1,0,0:0:0:0:
64,192,39985,1,0,0:0:0:0:
448,192,39985,1,0,0:0:0:0:
320,192,40152,1,0,0:0:0:0:
448,192,40152,1,0,0:0:0:0:
192,192,40152,1,0,0:0:0:0:
64,192,40319,1,0,0:0:0:0:
192,192,40374,1,0,0:0:0:0:
320,192,40430,1,0,0:0:0:0:
448,192,40485,1,0,0:0:0:0:
64,192,40485,1,0,0:0:0:0:
320,192,40652,1,0,0:0:0:0:
64,192,40819,1,0,0:0:0:0:
448,192,40819,1,0,0:0:0:0:
192,192,40819,1,0,0:0:0:0:
448,192,40985,1,0,0:0:0:0:
320,192,40985,1,0,0:0:0:0:
192,192,41041,1,0,0:0:0:0:
64,192,41097,1,0,0:0:0:0:
320,192,41152,1,0,0:0:0:0:
192,192,41319,1,0,0:0:0:0:
64,192,41319,1,0,0:0:0:0:
192,192,41485,1,0,0:0:0:0:
448,192,41485,1,0,0:0:0:0:
320,192,41485,1,0,0:0:0:0:
64,192,41652,1,0,0:0:0:0:
192,192,41708,1,0,0:0:0:0:
320,192,41763,1,0,0:0:0:0:
448,192,41819,1,0,0:0:0:0:
64,192,41819,1,0,0:0:0:0:
192,192,41985,1,0,0:0:0:0:
448,192,42152,1,0,0:0:0:0:
64,192,42152,1,0,0:0:0:0:
320,192,42152,1,0,0:0:0:0:
192,192,42319,1,0,0:0:0:0:
64,192,42319,1,0,0:0:0:0:
320,192,42374,1,0,0:0:0:0:
448,192,42430,1,0,0:0:0:0:
192,192,42485,1,0,0:0:0:0:
320,192,42652,1,0,0:0:0:0:
448,192,42652,1,0,0:0:0:0:
192,192,42819,1,0,0:0:0:0:
64,192,42819,1,0,0:0:0:0:
448,192,42819,1,0,0:0:0:0:
320,192,42985,1,0,0:0:0:0:
64,192,43152,128,0,43485:0:0:0:0:
192,192,43152,128,0,43402:0:0:0:0:
320,192,43152,128,0,43319:0:0:0:0:
448,192,43152,128,0,43235:0:0:0:0:
448,192,43485,1,0,0:0:0:0:
320,192,43527,1,0,0:0:0:0:
192,192,43569,1,0,0:0:0:0:
448,192,43610,1,0,0:0:0:0:
320,192,43652,1,0,0:0:0:0:
64,192,43708,1,0,0:0:0:0:
320,192,43881,1,0,0:0:0:0:
192,192,43944,1,0,0:0:0:0:
448,192,44006,1,0,0:0:0:0:
320,192,44048,1,0,0:0:0:0:
192,192,44215,1,0,0:0:0:0:
320,192,44277,1,0,0:0:0:0:
64,192,44340,1,0,0:0:0:0:
192,192,44381,1,0,0:0:0:0:
320,192,44548,1,0,0:0:0:0:
192,192,44610,1,0,0:0:0:0:
448,192,44673,1,0,0:0:0:0:
320,192,44715,1,0,0:0:0:0:
64,192,44881,1,0,0:0:0:0:
192,192,44944,1,0,0:0:0:0:
320,192,45006,1,0,0:0:0:0:
64,192,45048,1,0,0:0:0:0:
448,192,45215,1,0,0:0:0:0:
320,192,45277,1,0,0:0:0:0:
192,192,45340,1,0,0:0:0:0:
448,192,45381,1,0,0:0:0:0:
64,192,45548,1,0,0:0:0:0:
192,192,45610,1,0,0:0:0:0:
320,192,45694,1,0,0:0:0:0:
192,192,45777,1,0,0:0:0:0:
64,192,45819,1,0,0:0:0:0:
448,192,45819,1,0,0:0:0:0:
320,192,45860,1,0,0:0:0:0:
192,192,45944,1,0,0:0:0:0:
320,192,46006,1,0,0:0:0:0:
448,192,46048,1,0,0:0:0:0:
192,192,46215,1,0,0:0:0:0:
64,192,46277,1,0,0:0:0:0:
320,192,46340,1,0,0:0:0:0:
192,192,46381,1,0,0:0:0:0:
320,192,46548,1,0,0:0:0:0:
448,192,46610,1,0,0:0:0:0:
192,192,46673,1,0,0:0:0:0:
320,192,46715,1,0,0:0:0:0:
192,192,46881,1,0,0:0:0:0:
320,192,46944,1,0,0:0:0:0:
64,192,47006,1,0,0:0:0:0:
192,192,47048,1,0,0:0:0:0:
448,192,47152,1,0,0:0:0:0:
64,192,47152,1,0,0:0:0:0:
320,192,47180,1,0,0:0:0:0:
192,192,47215,1,0,0:0:0:0:
192,192,47419,1,0,0:0:0:0:
320,192,47485,1,0,0:0:0:0:
448,192,47552,1,0,0:0:0:0:
192,192,47619,1,0,0:0:0:0:
320,192,47708,1,0,0:0:0:0:
64,192,47771,1,0,0:0:0:0:
448,192,47819,1,0,0:0:0:0:
192,192,47866,1,0,0:0:0:0:
64,192,47914,1,0,0:0:0:0:
320,192,47962,1,0,0:0:0:0:
192,192,48009,1,0,0:0:0:0:
448,192,48057,1,0,0:0:0:0:
320,192,48105,1,0,0:0:0:0:
64,192,48152,1,0,0:0:0:0:
448,192,48194,1,0,0:0:0:0:
192,192,48235,1,0,0:0:0:0:
320,192,48277,1,0,0:0:0:0:
64,192,48319,1,0,0:0:0:0:
192,192,48360,1,0,0:0:0:0:
448,192,48402,1,0,0:0:0:0:
320,192,48485,128,0,48548:0:0:0:0:
64,192,48485,128,0,48652:0:0:0:0:
192,192,48485,128,0,48590:0:0:0:0:
320,192,48652,1,0,0:0:0:0:
320,192,48819,1,0,0:0:0:0:
64,192,48819,1,0,0:0:0:0:
448,192,48819,1,0,0:0:0:0:
192,192,48985,1,0,0:0:0:0:
320,192,48985,128,0,49048:0:0:0:0:
320,192,49152,1,0,0:0:0:0:
320,192,49319,1,0,0:0:0:0:
64,192,49485,1,0,0:0:0:0:
448,192,49485,1,0,0:0:0:0:
192,192,49485,128,0,49548:0:0:0:0:
192,192,49652,1,0,0:0:0:0:
64,192,49819,128,0,49881:0:0:0:0:
448,192,49819,128,0,49985:0:0:0:0:
320,192,49819,128,0,49923:0:0:0:0:
64,192,49985,1,0,0:0:0:0:
64,192,50152,1,0,0:0:0:0:
192,192,50152,1,0,0:0:0:0:
448,192,50152,1,0,0:0:0:0:
320,192,50319,1,0,0:0:0:0:
64,192,50319,128,0,50381:0:0:0:0:
64,192,50485,1,0,0:0:0:0:
192,192,50652,1,0,0:0:0:0:
448,192,50652,128,0,50715:0:0:0:0:
448,192,50819,1,0,0:0:0:0:
320,192,50819,1,0,0:0:0:0:
64,192,50819,1,0,0:0:0:0:
192,192,50985,128,0,51048:0:0:0:0:
448,192,50985,1,0,0:0:0:0:
320,192,51152,128,0,51215:0:0:0:0:
64,192,51152,128,0,51319:0:0:0:0:
192,192,51152,128,0,51256:0:0:0:0:
320,192,51319,1,0,0:0:0:0:
448,192,51485,1,0,0:0:0:0:
320,192,51485,1,0,0:0:0:0:
192,192,51485,1,0,0:0:0:0:
64,192,51652,1,0,0:0:0:0:
320,192,51652,128,0,51715:0:0:0:0:
320,192,51819,1,0,0:0:0:0:
320,192,51985,1,0,0:0:0:0:
64,192,52152,1,0,0:0:0:0:
448,192,52152,1,0,0:0:0:0:
192,192,52152,128,0,52215:0:0:0:0:
192,192,52319,1,0,0:0:0:0:
448,192,52485,128,0,52902:0:0:0:0:
64,192,52485,128,0,52597:0:0:0:0:
320,192,52485,128,0,52902:0:0:0:0:
192,192,52597,128,0,52708:0:0:0:0:
64,192,52708,128,0,52902:0:0:0:0:
64,192,53019,1,0,0:0:0:0:
192,192,53085,1,0,0:0:0:0:
320,192,53152,1,0,0:0:0:0:
64,192,53200,1,0,0:0:0:0:
192,192,53247,1,0,0:0:0:0:
448,192,53295,1,0,0:0:0:0:
320,192,53343,1,0,0:0:0:0:
192,192,53390,1,0,0:0:0:0:
64,192,53438,1,0,0:0:0:0:
320,192,53485,1,0,0:0:0:0:
448,192,53527,1,0,0:0:0:0:
192,192,53569,1,0,0:0:0:0:
64,192,53610,1,0,0:0:0:0:
320,192,53652,1,0,0:0:0:0:
192,192,53694,1,0,0:0:0:0:
448,192,53735,1,0,0:0:0:0:
320,192,53777,1,0,0:0:0:0:
64,192,53819,1,0,0:0:0:0:
192,192,53819,1,0,0:0:0:0:
320,192,53985,1,0,0:0:0:0:
448,192,54069,1,0,0:0:0:0:
192,192,54152,1,0,0:0:0:0:
64,192,54152,1,0,0:0:0:0:
448,192,54235,1,0,0:0:0:0:
320,192,54319,1,0,0:0:0:0:
192,192,54485,1,0,0:0:0:0:
64,192,54485,1,0,0:0:0:0:
320,192,54569,1,0,0:0:0:0:
320,192,54735,1,0,0:0:0:0:
448,192,54819,1,0,0:0:0:0:
64,192,54819,1,0,0:0:0:0:
448,192,54985,1,0,0:0:0:0:
320,192,55152,1,0,0:0:0:0:
448,192,55152,1,0,0:0:0:0:
192,192,55235,1,0,0:0:0:0:
192,192,55402,1,0,0:0:0:0:
448,192,55485,1,0,0:0:0:0:
64,192,55485,1,0,0:0:0:0:
64,192,55652,1,0,0:0:0:0:
64,192,55819,1,0,0:0:0:0:
192,192,55819,1,0,0:0:0:0:
320,192,55902,1,0,0:0:0:0:
320,192,56069,1,0,0:0:0:0:
448,192,56152,1,0,0:0:0:0:
64,192,56152,1,0,0:0:0:0:
192,192,56152,1,0,0:0:0:0:
448,192,56319,1,0,0:0:0:0:
192,192,56319,1,0,0:0:0:0:
64,192,56319,1,0,0:0:0:0:
192,192,56485,1,0,0:0:0:0:
448,192,56485,1,0,0:0:0:0:
64,192,56485,1,0,0:0:0:0:
192,192,56652,1,0,0:0:0:0:
64,192,56735,1,0,0:0:0:0:
320,192,56819,1,0,0:0:0:0:
448,192,56819,1,0,0:0:0:0:
64,192,56902,1,0,0:0:0:0:
192,192,56985,1,0,0:0:0:0:
320,192,57152,1,0,0:0:0:0:
448,192,57152,1,0,0:0:0:0:
192,192,57235,1,0,0:0:0:0:
192,192,57402,1,0,0:0:0:0:
64,192,57485,1,0,0:0:0:0:
448,192,57485,1,0,0:0:0:0:
64,192,57652,1,0,0:0:0:0:
192,192,57819,1,0,0:0:0:0:
64,192,57819,1,0,0:0:0:0:
320,192,57902,1,0,0:0:0:0:
320,192,58069,1,0,0:0:0:0:
64,192,58152,1,0,0:0:0:0:
448,192,58152,1,0,0:0:0:0:
448,192,58319,1,0,0:0:0:0:
320,192,58485,1,0,0:0:0:0:
448,192,58485,1,0,0:0:0:0:
64,192,58485,1,0,0:0:0:0:
192,192,58569,1,0,0:0:0:0:
320,192,58652,1,0,0:0:0:0:
448,192,58652,1,0,0:0:0:0:
64,192,58652,1,0,0:0:0:0:
192,192,58735,1,0,0:0:0:0:
320,192,58819,1,0,0:0:0:0:
192,192,58985,1,0,0:0:0:0:
64,192,58985,1,0,0:0:0:0:
448,192,58985,1,0,0:0:0:0:
64,192,59152,1,0,0:0:0:0:
448,192,59152,1,0,0:0:0:0:
320,192,59152,1,0,0:0:0:0:
192,192,59319,1,0,0:0:0:0:
320,192,59402,1,0,0:0:0:0:
192,192,59485,128,0,59652:0:0:0:0:
64,192,59485,1,0,0:0:0:0:
448,192,59569,1,0,0:0:0:0:
320,192,59652,1,0,0:0:0:0:
64,192,59819,1,0,0:0:0:0:
448,192,59819,1,0,0:0:0:0:
192,192,59902,1,0,0:0:0:0:
320,192,60069,1,0,0:0:0:0:
192,192,60152,128,0,60319:0:0:0:0:
64,192,60152,1,0,0:0:0:0:
448,192,60319,1,0,0:0:0:0:
320,192,60485,1,0,0:0:0:0:
64,192,60485,1,0,0:0:0:0:
192,192,60569,1,0,0:0:0:0:
64,192,60735,1,0,0:0:0:0:
448,192,60819,1,0,0:0:0:0:
320,192,60819,128,0,60985:0:0:0:0:
192,192,60985,1,0,0:0:0:0:
448,192,61152,1,0,0:0:0:0:
64,192,61152,1,0,0:0:0:0:
320,192,61235,1,0,0:0:0:0:
192,192,61402,1,0,0:0:0:0:
320,192,61485,128,0,61652:0:0:0:0:
64,192,61485,1,0,0:0:0:0:
448,192,61652,1,0,0:0:0:0:
192,192,61652,1,0,0:0:0:0:
448,192,61819,1,0,0:0:0:0:
192,192,61819,1,0,0:0:0:0:
64,192,61985,1,0,0:0:0:0:
320,192,62069,1,0,0:0:0:0:
64,192,62152,128,0,62319:0:0:0:0:
192,192,62152,1,0,0:0:0:0:
448,192,62235,1,0,0:0:0:0:
320,192,62319,1,0,0:0:0:0:
192,192,62485,1,0,0:0:0:0:
448,192,62485,1,0,0:0:0:0:
320,192,62569,1,0,0:0:0:0:
192,192,62735,1,0,0:0:0:0:
64,192,62819,128,0,62985:0:0:0:0:
320,192,62819,1,0,0:0:0:0:
192,192,62985,1,0,0:0:0:0:
448,192,63152,1,0,0:0:0:0:
320,192,63152,1,0,0:0:0:0:
64,192,63235,1,0,0:0:0:0:
320,192,63402,1,0,0:0:0:0:
448,192,63485,128,0,63652:0:0:0:0:
192,192,63485,1,0,0:0:0:0:
64,192,63652,1,0,0:0:0:0:
320,192,63819,1,0,0:0:0:0:
448,192,63819,1,0,0:0:0:0:
192,192,63902,1,0,0:0:0:0:
320,192,63985,1,0,0:0:0:0:
64,192,63985,1,0,0:0:0:0:
192,192,64069,1,0,0:0:0:0:
448,192,64152,128,0,64319:0:0:0:0:
320,192,64152,1,0,0:0:0:0:
192,192,64319,1,0,0:0:0:0:
64,192,64319,1,0,0:0:0:0:
320,192,64485,1,0,0:0:0:0:
64,192,64485,1,0,0:0:0:0:
192,192,64485,1,0,0:0:0:0:
448,192,64652,1,0,0:0:0:0:
320,192,64735,1,0,0:0:0:0:
64,192,64819,1,0,0:0:0:0:
448,192,64819,1,0,0:0:0:0:
192,192,64819,1,0,0:0:0:0:
192,192,64985,1,0,0:0:0:0:
448,192,65069,1,0,0:0:0:0:
320,192,65152,1,0,0:0:0:0:
64,192,65152,1,0,0:0:0:0:
192,192,65235,1,0,0:0:0:0:
64,192,65319,1,0,0:0:0:0:
448,192,65319,1,0,0:0:0:0:
320,192,65319,1,0,0:0:0:0:
192,192,65485,1,0,0:0:0:0:
64,192,65485,1,0,0:0:0:0:
320,192,65569,1,0,0:0:0:0:
448,192,65652,1,0,0:0:0:0:
192,192,65652,1,0,0:0:0:0:
448,192,65819,1,0,0:0:0:0:
64,192,65819,1,0,0:0:0:0:
192,192,65902,1,0,0:0:0:0:
320,192,65985,1,0,0:0:0:0:
64,192,66069,1,0,0:0:0:0:
448,192,66152,1,0,0:0:0:0:
320,192,66152,1,0,0:0:0:0:
192,192,66152,1,0,0:0:0:0:
192,192,66319,1,0,0:0:0:0:
64,192,66485,1,0,0:0:0:0:
448,192,66485,1,0,0:0:0:0:
192,192,66569,1,0,0:0:0:0:
320,192,66652,1,0,0:0:0:0:
448,192,66652,1,0,0:0:0:0:
192,192,66735,1,0,0:0:0:0:
448,192,66819,1,0,0:0:0:0:
64,192,66819,1,0,0:0:0:0:
320,192,66902,1,0,0:0:0:0:
448,192,66985,1,0,0:0:0:0:
192,192,66985,1,0,0:0:0:0:
64,192,66985,1,0,0:0:0:0:
320,192,67152,1,0,0:0:0:0:
192,192,67152,1,0,0:0:0:0:
448,192,67319,1,0,0:0:0:0:
64,192,67402,1,0,0:0:0:0:
192,192,67485,1,0,0:0:0:0:
320,192,67485,1,0,0:0:0:0:
448,192,67485,1,0,0:0:0:0:
192,192,67652,1,0,0:0:0:0:
64,192,67819,1,0,0:0:0:0:
320,192,67819,1,0,0:0:0:0:
448,192,67902,1,0,0:0:0:0:
320,192,67985,1,0,0:0:0:0:
192,192,67985,1,0,0:0:0:0:
64,192,67985,1,0,0:0:0:0:
192,192,68152,1,0,0:0:0:0:
448,192,68152,1,0,0:0:0:0:
320,192,68235,1,0,0:0:0:0:
64,192,68319,1,0,0:0:0:0:
192,192,68319,1,0,0:0:0:0:
448,192,68485,1,0,0:0:0:0:
64,192,68485,1,0,0:0:0:0:
320,192,68569,1,0,0:0:0:0:
192,192,68652,1,0,0:0:0:0:
448,192,68735,1,0,0:0:0:0:
320,192,68819,1,0,0:0:0:0:
192,192,68819,1,0,0:0:0:0:
64,192,68819,1,0,0:0:0:0:
320,192,68985,1,0,0:0:0:0:
64,192,69152,1,0,0:0:0:0:
448,192,69152,1,0,0:0:0:0:
192,192,69235,1,0,0:0:0:0:
64,192,69319,1,0,0:0:0:0:
448,192,69319,1,0,0:0:0:0:
192,192,69402,1,0,0:0:0:0:
320,192,69485,128,0,69652:0:0:0:0:
448,192,69819,1,0,0:0:0:0:
192,192,69819,1,0,0:0:0:0:
64,192,69819,1,0,0:0:0:0:
320,192,69902,1,0,0:0:0:0:
64,192,69985,1,0,0:0:0:0:
192,192,69985,1,0,0:0:0:0:
320,192,70069,1,0,0:0:0:0:
448,192,70152,1,0,0:0:0:0:
64,192,70152,1,0,0:0:0:0:
192,192,70235,1,0,0:0:0:0:
320,192,70319,1,0,0:0:0:0:
64,192,70319,1,0,0:0:0:0:
192,192,70402,1,0,0:0:0:0:
320,192,70485,1,0,0:0:0:0:
448,192,70485,1,0,0:0:0:0:
64,192,70569,1,0,0:0:0:0:
320,192,70652,1,0,0:0:0:0:
448,192,70652,1,0,0:0:0:0:
64,192,70735,1,0,0:0:0:0:
448,192,70819,1,0,0:0:0:0:
192,192,70819,1,0,0:0:0:0:
320,192,70902,1,0,0:0:0:0:
192,192,70985,1,0,0:0:0:0:
448,192,70985,1,0,0:0:0:0:
320,192,71069,1,0,0:0:0:0:
192,192,71152,1,0,0:0:0:0:
64,192,71152,1,0,0:0:0:0:
448,192,71235,1,0,0:0:0:0:
64,192,71319,1,0,0:0:0:0:
192,192,71319,1,0,0:0:0:0:
448,192,71402,1,0,0:0:0:0:
320,192,71485,1,0,0:0:0:0:
64,192,71485,1,0,0:0:0:0:
192,192,71569,1,0,0:0:0:0:
64,192,71652,1,0,0:0:0:0:
448,192,71652,1,0,0:0:0:0:
192,192,71735,1,0,0:0:0:0:
320,192,71819,1,0,0:0:0:0:
448,192,71819,1,0,0:0:0:0:
64,192,71902,1,0,0:0:0:0:
320,192,71985,1,0,0:0:0:0:
448,192,71985,1,0,0:0:0:0:
64,192,72069,1,0,0:0:0:0:
192,192,72152,1,0,0:0:0:0:
320,192,72152,1,0,0:0:0:0:
448,192,72235,1,0,0:0:0:0:
64,192,72319,1,0,0:0:0:0:
320,192,72319,1,0,0:0:0:0:
448,192,72402,1,0,0:0:0:0:
64,192,72485,1,0,0:0:0:0:
192,192,72485,1,0,0:0:0:0:
320,192,72569,1,0,0:0:0:0:
64,192,72652,1,0,0:0:0:0:
192,192,72652,1,0,0:0:0:0:
320,192,72735,1,0,0:0:0:0:
192,192,72819,1,0,0:0:0:0:
448,192,72819,1,0,0:0:0:0:
64,192,72902,1,0,0:0:0:0:
320,192,72985,1,0,0:0:0:0:
192,192,72985,1,0,0:0:0:0:
64,192,73069,1,0,0:0:0:0:
448,192,73152,1,0,0:0:0:0:
320,192,73152,1,0,0:0:0:0:
192,192,73235,1,0,0:0:0:0:
448,192,73319,1,0,0:0:0:0:
320,192,73319,1,0,0:0:0:0:
192,192,73402,1,0,0:0:0:0:
64,192,73485,1,0,0:0:0:0:
448,192,73485,1,0,0:0:0:0:
320,192,73569,1,0,0:0:0:0:
448,192,73652,1,0,0:0:0:0:
64,192,73652,1,0,0:0:0:0:
320,192,73735,1,0,0:0:0:0:
192,192,73819,1,0,0:0:0:0:
64,192,73819,1,0,0:0:0:0:
448,192,73902,1,0,0:0:0:0:
192,192,73985,1,0,0:0:0:0:
64,192,73985,1,0,0:0:0:0:
448,192,74069,1,0,0:0:0:0:
320,192,74152,1,0,0:0:0:0:
64,192,74152,1,0,0:0:0:0:
192,192,74235,1,0,0:0:0:0:
64,192,74319,1,0,0:0:0:0:
448,192,74319,1,0,0:0:0:0:
192,192,74402,1,0,0:0:0:0:
448,192,74485,1,0,0:0:0:0:
320,192,74485,1,0,0:0:0:0:
64,192,74569,1,0,0:0:0:0:
448,192,74652,1,0,0:0:0:0:
320,192,74652,1,0,0:0:0:0:
64,192,74735,1,0,0:0:0:0:
192,192,74819,1,0,0:0:0:0:
448,192,74819,1,0,0:0:0:0:
320,192,74902,1,0,0:0:0:0:
448,192,74985,1,0,0:0:0:0:
64,192,74985,1,0,0:0:0:0:
320,192,75069,1,0,0:0:0:0:
64,192,75152,1,0,0:0:0:0:
448,192,75152,1,0,0:0:0:0:
192,192,75152,1,0,0:0:0:0:
192,192,75319,1,0,0:0:0:0:
64,192,75319,1,0,0:0:0:0:
320,192,75319,1,0,0:0:0:0:
64,192,75485,1,0,0:0:0:0:
448,192,75485,1,0,0:0:0:0:
320,192,75541,1,0,0:0:0:0:
192,192,75597,1,0,0:0:0:0:
64,192,75652,1,0,0:0:0:0:
448,192,75652,1,0,0:0:0:0:
192,192,75819,1,0,0:0:0:0:
320,192,75819,1,0,0:0:0:0:
448,192,75819,1,0,0:0:0:0:
64,192,75985,1,0,0:0:0:0:
192,192,75985,1,0,0:0:0:0:
320,192,76041,1,0,0:0:0:0:
448,192,76097,1,0,0:0:0:0:
192,192,76152,1,0,0:0:0:0:
320,192,76235,1,0,0:0:0:0:
448,192,76319,1,0,0:0:0:0:
64,192,76319,1,0,0:0:0:0:
192,192,76402,1,0,0:0:0:0:
64,192,76485,1,0,0:0:0:0:
320,192,76485,1,0,0:0:0:0:
64,192,76652,1,0,0:0:0:0:
448,192,76652,1,0,0:0:0:0:
192,192,76652,1,0,0:0:0:0:
448,192,76819,1,0,0:0:0:0:
320,192,76819,1,0,0:0:0:0:
192,192,76874,1,0,0:0:0:0:
64,192,76930,1,0,0:0:0:0:
448,192,76985,1,0,0:0:0:0:
320,192,76985,1,0,0:0:0:0:
64,192,77152,1,0,0:0:0:0:
320,192,77152,1,0,0:0:0:0:
192,192,77152,1,0,0:0:0:0:
64,192,77319,1,0,0:0:0:0:
448,192,77319,1,0,0:0:0:0:
192,192,77402,1,0,0:0:0:0:
448,192,77485,1,0,0:0:0:0:
320,192,77485,1,0,0:0:0:0:
64,192,77485,1,0,0:0:0:0:
192,192,77652,1,0,0:0:0:0:
64,192,77652,1,0,0:0:0:0:
320,192,77708,1,0,0:0:0:0:
192,192,77763,1,0,0:0:0:0:
320,192,77819,1,0,0:0:0:0:
448,192,77819,1,0,0:0:0:0:
192,192,77985,1,0,0:0:0:0:
64,192,77985,1,0,0:0:0:0:
448,192,77985,1,0,0:0:0:0:
320,192,78152,1,0,0:0:0:0:
64,192,78152,1,0,0:0:0:0:
192,192,78208,1,0,0:0:0:0:
448,192,78263,1,0,0:0:0:0:
64,192,78319,1,0,0:0:0:0:
320,192,78319,1,0,0:0:0:0:
448,192,78485,1,0,0:0:0:0:
192,192,78485,1,0,0:0:0:0:
320,192,78485,1,0,0:0:0:0:
448,192,78652,1,0,0:0:0:0:
64,192,78652,1,0,0:0:0:0:
192,192,78708,1,0,0:0:0:0:
320,192,78763,1,0,0:0:0:0:
64,192,78819,1,0,0:0:0:0:
192,192,78902,1,0,0:0:0:0:
64,192,78985,1,0,0:0:0:0:
320,192,78985,1,0,0:0:0:0:
192,192,79069,1,0,0:0:0:0:
320,192,79152,1,0,0:0:0:0:
448,192,79152,1,0,0:0:0:0:
448,192,79319,5,0,0:0:0:0:
192,192,79319,1,0,0:0:0:0:
64,192,79319,1,0,0:0:0:0:
320,192,79485,1,0,0:0:0:0:
192,192,79485,1,0,0:0:0:0:
64,192,79541,1,0,0:0:0:0:
448,192,79597,1,0,0:0:0:0:
192,192,79652,1,0,0:0:0:0:
320,192,79652,1,0,0:0:0:0:
448,192,79819,1,0,0:0:0:0:
320,192,79819,1,0,0:0:0:0:
64,192,79819,1,0,0:0:0:0:
192,192,79985,1,0,0:0:0:0:
448,192,79985,1,0,0:0:0:0:
320,192,80069,1,0,0:0:0:0:
448,192,80152,1,0,0:0:0:0:
192,192,80152,1,0,0:0:0:0:
64,192,80152,1,0,0:0:0:0:
320,192,80319,1,0,0:0:0:0:
448,192,80360,1,0,0:0:0:0:
192,192,80402,1,0,0:0:0:0:
320,192,80444,1,0,0:0:0:0:
64,192,80485,128,0,80652:0:0:0:0:
64,192,80777,128,0,80902:0:0:0:0:
448,192,81006,128,0,81110:0:0:0:0:
64,192,81256,128,0,81360:0:0:0:0:
448,192,81506,128,0,81590:0:0:0:0:
64,192,81756,128,0,81840:0:0:0:0:
