osu file format v14

[General]
AudioFilename: audio.ogg
AudioLeadIn: 0
PreviewTime: 486
Countdown: 0
SampleSet: Soft
StackLeniency: 0.7
Mode: 3
LetterboxInBreaks: 0
SpecialStyle: 0
WidescreenStoryboard: 1

[Editor]
Bookmarks: 486,11152,21819,37819,43152,48485,53819,64485,69819,75152
DistanceSpacing: 1.1
BeatDivisor: 4
GridSize: 16
TimelineZoom: 1.4

[Metadata]
Title:Da Da Is Tape To And U U U
TitleUnicode:Da Da Is Tape To And U U U
Artist:Rory in early 20s
ArtistUnicode:Rory in early 20s
Creator:keksikosu
Version:Advanced
Source:
Tags:Tomo Me Nyado breakcore брейккор lolicore лоликор лоли instrumental loli in early lolinearly20s rorynearly20s twenties electronic lo-fi dnb днб drum & and bass d&b d'n'b drumnbass drum'n'bass russian русский jumpstream jumpstreams jump stream streams js tech Nicknem_ Flade
BeatmapID:4372716
BeatmapSetID:1785559

[Difficulty]
HPDrainRate:7
CircleSize:4
OverallDifficulty:7
ApproachRate:5
SliderMultiplier:1.4
SliderTickRate:1

[Events]
//Background and Video events
0,0,"lolya.jpg",0,0
//Break Periods
//Storyboard Layer 0 (Background)
//Storyboard Layer 1 (Fail)
//Storyboard Layer 2 (Pass)
//Storyboard Layer 3 (Foreground)
//Storyboard Layer 4 (Overlay)
//Storyboard Sound Samples

[TimingPoints]
486,333.333333333333,4,2,1,35,1,0
11152,-100,4,2,1,35,0,1
29819,-100,4,2,1,35,0,0
75152,-100,4,2,1,35,0,1
80485,-100,4,2,1,35,0,0

[HitObjects]
64,192,486,5,0,0:0:0:0:
448,192,819,1,0,0:0:0:0:
192,192,1152,1,0,0:0:0:0:
64,192,1319,1,0,0:0:0:0:
448,192,1485,1,0,0:0:0:0:
64,192,1652,1,0,0:0:0:0:
320,192,1819,1,0,0:0:0:0:
192,192,1985,1,0,0:0:0:0:
448,192,2152,1,0,0:0:0:0:
192,192,2319,1,0,0:0:0:0:
320,192,2485,1,0,0:0:0:0:
320,192,2652,1,0,0:0:0:0:
320,192,2819,1,0,0:0:0:0:
320,192,2985,1,0,0:0:0:0:
64,192,3152,1,0,0:0:0:0:
192,192,3319,1,0,0:0:0:0:
448,192,3485,1,0,0:0:0:0:
192,192,3652,1,0,0:0:0:0:
64,192,3819,1,0,0:0:0:0:
320,192,3985,1,0,0:0:0:0:
448,192,4152,1,0,0:0:0:0:
192,192,4319,1,0,0:0:0:0:
320,192,4485,1,0,0:0:0:0:
64,192,4652,1,0,0:0:0:0:
448,192,4819,1,0,0:0:0:0:
320,192,4985,1,0,0:0:0:0:
192,192,5152,1,0,0:0:0:0:
192,192,5319,1,0,0:0:0:0:
192,192,5485,1,0,0:0:0:0:
192,192,5652,1,0,0:0:0:0:
320,192,5819,1,0,0:0:0:0:
448,192,5985,1,0,0:0:0:0:
64,192,6152,1,0,0:0:0:0:
448,192,6319,1,0,0:0:0:0:
192,192,6485,1,0,0:0:0:0:
320,192,6652,1,0,0:0:0:0:
64,192,6819,1,0,0:0:0:0:
320,192,6985,1,0,0:0:0:0:
192,192,7152,1,0,0:0:0:0:
448,192,7319,1,0,0:0:0:0:
64,192,7485,1,0,0:0:0:0:
192,192,7652,1,0,0:0:0:0:
448,192,7819,1,0,0:0:0:0:
448,192,7985,1,0,0:0:0:0:
448,192,8152,1,0,0:0:0:0:
448,192,8319,1,0,0:0:0:0:
64,192,8485,128,0,9819:0:0:0:0:
320,192,9819,128,0,10735:0:0:0:0:
448,192,10735,1,0,0:0:0:0:
64,192,10819,1,0,0:0:0:0:
192,192,10902,1,0,0:0:0:0:
320,192,10985,1,0,0:0:0:0:
448,192,11069,1,0,0:0:0:0:
192,192,11152,1,0,0:0:0:0:
64,192,11152,1,0,0:0:0:0:
320,192,11319,1,0,0:0:0:0:
64,192,11485,1,0,0:0:0:0:
448,192,11485,1,0,0:0:0:0:
192,192,11652,1,0,0:0:0:0:
320,192,11819,1,0,0:0:0:0:
448,192,11819,1,0,0:0:0:0:
192,192,11985,1,0,0:0:0:0:
64,192,12152,1,0,0:0:0:0:
448,192,12152,1,0,0:0:0:0:
320,192,12319,1,0,0:0:0:0:
192,192,12485,1,0,0:0:0:0:
448,192,12485,1,0,0:0:0:0:
320,192,12652,1,0,0:0:0:0:
192,192,12819,1,0,0:0:0:0:
64,192,12819,1,0,0:0:0:0:
448,192,12985,1,0,0:0:0:0:
192,192,13152,1,0,0:0:0:0:
192,192,13319,1,0,0:0:0:0:
448,192,13319,1,0,0:0:0:0:
320,192,13485,1,0,0:0:0:0:
64,192,13485,1,0,0:0:0:0:
320,192,13652,1,0,0:0:0:0:
64,192,13819,128,0,14485:0:0:0:0:
192,192,13819,1,0,0:0:0:0:
448,192,14152,1,0,0:0:0:0:
320,192,14152,1,0,0:0:0:0:
320,192,14485,128,0,15152:0:0:0:0:
192,192,14485,1,0,0:0:0:0:
64,192,14819,1,0,0:0:0:0:
448,192,14819,1,0,0:0:0:0:
192,192,15152,128,0,15819:0:0:0:0:
64,192,15152,1,0,0:0:0:0:
320,192,15485,1,0,0:0:0:0:
448,192,15485,1,0,0:0:0:0:
448,192,15819,1,0,0:0:0:0:
448,192,15985,1,0,0:0:0:0:
64,192,15985,1,0,0:0:0:0:
320,192,16152,1,0,0:0:0:0:
192,192,16152,1,0,0:0:0:0:
192,192,16319,1,0,0:0:0:0:
64,192,16485,1,0,0:0:0:0:
448,192,16485,1,0,0:0:0:0:
320,192,16652,1,0,0:0:0:0:
192,192,16819,1,0,0:0:0:0:
448,192,16819,1,0,0:0:0:0:
64,192,16985,1,0,0:0:0:0:
320,192,17152,1,0,0:0:0:0:
448,192,17152,1,0,0:0:0:0:
192,192,17319,1,0,0:0:0:0:
64,192,17485,1,0,0:0:0:0:
320,192,17485,1,0,0:0:0:0:
448,192,17652,1,0,0:0:0:0:
192,192,17819,1,0,0:0:0:0:
64,192,17819,1,0,0:0:0:0:
320,192,17985,1,0,0:0:0:0:
64,192,18152,1,0,0:0:0:0:
448,192,18152,1,0,0:0:0:0:
192,192,18319,1,0,0:0:0:0:
320,192,18485,1,0,0:0:0:0:
320,192,18652,1,0,0:0:0:0:
64,192,18652,1,0,0:0:0:0:
192,192,18819,1,0,0:0:0:0:
448,192,18819,1,0,0:0:0:0:
192,192,18985,1,0,0:0:0:0:
320,192,19152,1,0,0:0:0:0:
448,192,19152,128,0,19819:0:0:0:0:
192,192,19485,1,0,0:0:0:0:
64,192,19485,1,0,0:0:0:0:
192,192,19819,128,0,20485:0:0:0:0:
320,192,19819,1,0,0:0:0:0:
64,192,20152,1,0,0:0:0:0:
448,192,20152,1,0,0:0:0:0:
448,192,20485,1,0,0:0:0:0:
320,192,20485,128,0,21152:0:0:0:0:
192,192,20819,1,0,0:0:0:0:
64,192,20819,1,0,0:0:0:0:
64,192,21152,1,0,0:0:0:0:
64,192,21319,1,0,0:0:0:0:
448,192,21319,1,0,0:0:0:0:
192,192,21485,1,0,0:0:0:0:
320,192,21485,1,0,0:0:0:0:
320,192,21652,1,0,0:0:0:0:
448,192,21819,1,0,0:0:0:0:
64,192,21819,1,0,0:0:0:0:
192,192,21902,1,0,0:0:0:0:
320,192,21985,1,0,0:0:0:0:
64,192,22069,1,0,0:0:0:0:
192,192,22152,1,0,0:0:0:0:
448,192,22152,1,0,0:0:0:0:
320,192,22319,1,0,0:0:0:0:
64,192,22485,1,0,0:0:0:0:
192,192,22485,1,0,0:0:0:0:
448,192,22569,1,0,0:0:0:0:
320,192,22652,1,0,0:0:0:0:
192,192,22735,1,0,0:0:0:0:
64,192,22819,1,0,0:0:0:0:
448,192,22819,1,0,0:0:0:0:
320,192,22985,1,0,0:0:0:0:
192,192,23152,1,0,0:0:0:0:
448,192,23152,1,0,0:0:0:0:
64,192,23235,1,0,0:0:0:0:
320,192,23319,1,0,0:0:0:0:
448,192,23402,1,0,0:0:0:0:
192,192,23485,1,0,0:0:0:0:
64,192,23485,1,0,0:0:0:0:
320,192,23652,1,0,0:0:0:0:
64,192,23819,1,0,0:0:0:0:
192,192,23902,1,0,0:0:0:0:
320,192,23985,1,0,0:0:0:0:
448,192,23985,1,0,0:0:0:0:
192,192,24152,1,0,0:0:0:0:
64,192,24152,1,0,0:0:0:0:
448,192,24319,1,0,0:0:0:0:
320,192,24485,1,0,0:0:0:0:
64,192,24485,128,0,25152:0:0:0:0:
192,192,24819,1,0,0:0:0:0:
448,192,24819,1,0,0:0:0:0:
320,192,25152,1,0,0:0:0:0:
448,192,25152,128,0,25819:0:0:0:0:
192,192,25485,1,0,0:0:0:0:
64,192,25485,1,0,0:0:0:0:
192,192,25819,128,0,26485:0:0:0:0:
320,192,25819,1,0,0:0:0:0:
64,192,26152,1,0,0:0:0:0:
448,192,26152,1,0,0:0:0:0:
320,192,26485,1,0,0:0:0:0:
448,192,26569,1,0,0:0:0:0:
192,192,26652,1,0,0:0:0:0:
64,192,26652,1,0,0:0:0:0:
320,192,26819,1,0,0:0:0:0:
448,192,26819,1,0,0:0:0:0:
192,192,26985,1,0,0:0:0:0:
64,192,27152,1,0,0:0:0:0:
448,192,27152,1,0,0:0:0:0:
320,192,27235,1,0,0:0:0:0:
192,192,27319,1,0,0:0:0:0:
448,192,27402,1,0,0:0:0:0:
320,192,27485,1,0,0:0:0:0:
64,192,27485,1,0,0:0:0:0:
192,192,27652,1,0,0:0:0:0:
448,192,27819,1,0,0:0:0:0:
320,192,27819,1,0,0:0:0:0:
64,192,27902,1,0,0:0:0:0:
192,192,27985,1,0,0:0:0:0:
320,192,28069,1,0,0:0:0:0:
448,192,28152,1,0,0:0:0:0:
64,192,28152,1,0,0:0:0:0:
192,192,28319,1,0,0:0:0:0:
320,192,28485,1,0,0:0:0:0:
64,192,28485,1,0,0:0:0:0:
448,192,28569,1,0,0:0:0:0:
192,192,28652,1,0,0:0:0:0:
64,192,28735,1,0,0:0:0:0:
320,192,28819,1,0,0:0:0:0:
448,192,28819,1,0,0:0:0:0:
192,192,28985,1,0,0:0:0:0:
448,192,29152,1,0,0:0:0:0:
320,192,29235,1,0,0:0:0:0:
192,192,29319,1,0,0:0:0:0:
64,192,29319,1,0,0:0:0:0:
320,192,29485,1,0,0:0:0:0:
448,192,29485,1,0,0:0:0:0:
64,192,29652,1,0,0:0:0:0:
192,192,29819,1,0,0:0:0:0:
448,192,29819,1,0,0:0:0:0:
192,192,30319,1,0,0:0:0:0:
192,192,30819,1,0,0:0:0:0:
448,192,31152,1,0,0:0:0:0:
448,192,31652,1,0,0:0:0:0:
64,192,32069,1,0,0:0:0:0:
448,192,32152,1,0,0:0:0:0:
320,192,32235,1,0,0:0:0:0:
192,192,32319,1,0,0:0:0:0:
64,192,32402,1,0,0:0:0:0:
320,192,32485,128,0,33819:0:0:0:0:
64,192,33819,128,0,35152:0:0:0:0:
448,192,35152,128,0,36485:0:0:0:0:
192,192,36485,128,0,37819:0:0:0:0:
64,192,37819,1,0,0:0:0:0:
448,192,37819,1,0,0:0:0:0:
448,192,38152,1,0,0:0:0:0:
320,192,38152,1,0,0:0:0:0:
192,192,38319,1,0,0:0:0:0:
64,192,38319,1,0,0:0:0:0:
192,192,38652,1,0,0:0:0:0:
64,192,38652,1,0,0:0:0:0:
320,192,38819,1,0,0:0:0:0:
448,192,38819,1,0,0:0:0:0:
64,192,39152,1,0,0:0:0:0:
320,192,39152,1,0,0:0:0:0:
192,192,39485,1,0,0:0:0:0:
320,192,39485,1,0,0:0:0:0:
64,192,39652,1,0,0:0:0:0:
448,192,39652,1,0,0:0:0:0:
448,192,39985,1,0,0:0:0:0:
64,192,39985,1,0,0:0:0:0:
192,192,40152,1,0,0:0:0:0:
320,192,40152,1,0,0:0:0:0:
448,192,40485,1,0,0:0:0:0:
320,192,40485,1,0,0:0:0:0:
320,192,40819,1,0,0:0:0:0:
64,192,40819,1,0,0:0:0:0:
192,192,40985,1,0,0:0:0:0:
448,192,40985,1,0,0:0:0:0:
448,192,41319,1,0,0:0:0:0:
192,192,41319,1,0,0:0:0:0:
320,192,41485,1,0,0:0:0:0:
64,192,41485,1,0,0:0:0:0:
192,192,41819,1,0,0:0:0:0:
64,192,41819,1,0,0:0:0:0:
64,192,42152,1,0,0:0:0:0:
448,192,42152,1,0,0:0:0:0:
192,192,42319,1,0,0:0:0:0:
320,192,42319,1,0,0:0:0:0:
192,192,42652,1,0,0:0:0:0:
320,192,42652,1,0,0:0:0:0:
64,192,42819,1,0,0:0:0:0:
448,192,42819,1,0,0:0:0:0:
448,192,43152,1,0,0:0:0:0:
320,192,43152,1,0,0:0:0:0:
192,192,43506,1,0,0:0:0:0:
320,192,43631,1,0,0:0:0:0:
64,192,43881,1,0,0:0:0:0:
192,192,44006,1,0,0:0:0:0:
448,192,44215,1,0,0:0:0:0:
320,192,44340,1,0,0:0:0:0:
64,192,44548,1,0,0:0:0:0:
448,192,44673,1,0,0:0:0:0:
192,192,44881,1,0,0:0:0:0:
64,192,45006,1,0,0:0:0:0:
320,192,45215,1,0,0:0:0:0:
192,192,45340,1,0,0:0:0:0:
448,192,45548,1,0,0:0:0:0:
64,192,45694,1,0,0:0:0:0:
192,192,45819,1,0,0:0:0:0:
320,192,45944,1,0,0:0:0:0:
64,192,46215,1,0,0:0:0:0:
448,192,46340,1,0,0:0:0:0:
192,192,46548,1,0,0:0:0:0:
64,192,46673,1,0,0:0:0:0:
320,192,46881,1,0,0:0:0:0:
448,192,47006,1,0,0:0:0:0:
192,192,47152,1,0,0:0:0:0:
64,192,47152,1,0,0:0:0:0:
320,192,47485,128,0,48485:0:0:0:0:
64,192,47819,128,0,48485:0:0:0:0:
192,192,48485,1,0,0:0:0:0:
448,192,48485,1,0,0:0:0:0:
320,192,48652,1,0,0:0:0:0:
192,192,48819,1,0,0:0:0:0:
64,192,48819,1,0,0:0:0:0:
448,192,48985,1,0,0:0:0:0:
192,192,49152,1,0,0:0:0:0:
320,192,49319,1,0,0:0:0:0:
64,192,49485,1,0,0:0:0:0:
448,192,49485,1,0,0:0:0:0:
192,192,49652,1,0,0:0:0:0:
64,192,49819,1,0,0:0:0:0:
320,192,49819,1,0,0:0:0:0:
192,192,49985,1,0,0:0:0:0:
320,192,50152,1,0,0:0:0:0:
448,192,50152,1,0,0:0:0:0:
64,192,50319,1,0,0:0:0:0:
320,192,50485,1,0,0:0:0:0:
192,192,50652,1,0,0:0:0:0:
448,192,50819,1,0,0:0:0:0:
64,192,50819,1,0,0:0:0:0:
320,192,50985,1,0,0:0:0:0:
192,192,51152,1,0,0:0:0:0:
448,192,51152,1,0,0:0:0:0:
320,192,51319,1,0,0:0:0:0:
192,192,51485,1,0,0:0:0:0:
64,192,51485,1,0,0:0:0:0:
448,192,51652,1,0,0:0:0:0:
192,192,51819,1,0,0:0:0:0:
320,192,51985,1,0,0:0:0:0:
64,192,52152,1,0,0:0:0:0:
448,192,52152,1,0,0:0:0:0:
192,192,52319,1,0,0:0:0:0:
448,192,52485,128,0,52819:0:0:0:0:
320,192,52485,1,0,0:0:0:0:
448,192,52985,128,0,53819:0:0:0:0:
64,192,53319,128,0,53819:0:0:0:0:
320,192,53819,1,0,0:0:0:0:
192,192,53819,1,0,0:0:0:0:
64,192,53985,1,0,0:0:0:0:
320,192,54069,1,0,0:0:0:0:
192,192,54152,1,0,0:0:0:0:
448,192,54235,1,0,0:0:0:0:
320,192,54319,1,0,0:0:0:0:
64,192,54485,1,0,0:0:0:0:
448,192,54569,1,0,0:0:0:0:
448,192,54735,1,0,0:0:0:0:
64,192,54819,1,0,0:0:0:0:
192,192,54985,1,0,0:0:0:0:
320,192,55152,1,0,0:0:0:0:
64,192,55235,1,0,0:0:0:0:
64,192,55402,1,0,0:0:0:0:
320,192,55485,1,0,0:0:0:0:
448,192,55652,1,0,0:0:0:0:
192,192,55819,1,0,0:0:0:0:
320,192,55902,1,0,0:0:0:0:
320,192,56069,1,0,0:0:0:0:
192,192,56152,1,0,0:0:0:0:
448,192,56319,1,0,0:0:0:0:
192,192,56485,1,0,0:0:0:0:
320,192,56652,1,0,0:0:0:0:
448,192,56735,1,0,0:0:0:0:
192,192,56819,1,0,0:0:0:0:
320,192,56902,1,0,0:0:0:0:
64,192,56985,1,0,0:0:0:0:
448,192,57152,1,0,0:0:0:0:
192,192,57235,1,0,0:0:0:0:
192,192,57402,1,0,0:0:0:0:
448,192,57485,1,0,0:0:0:0:
320,192,57652,1,0,0:0:0:0:
64,192,57819,1,0,0:0:0:0:
448,192,57902,1,0,0:0:0:0:
448,192,58069,1,0,0:0:0:0:
64,192,58152,1,0,0:0:0:0:
192,192,58319,1,0,0:0:0:0:
320,192,58485,1,0,0:0:0:0:
64,192,58569,1,0,0:0:0:0:
320,192,58652,1,0,0:0:0:0:
64,192,58735,1,0,0:0:0:0:
320,192,58985,1,0,0:0:0:0:
64,192,59152,1,0,0:0:0:0:
448,192,59152,1,0,0:0:0:0:
192,192,59319,1,0,0:0:0:0:
64,192,59402,1,0,0:0:0:0:
320,192,59485,1,0,0:0:0:0:
192,192,59569,1,0,0:0:0:0:
448,192,59652,1,0,0:0:0:0:
64,192,59819,1,0,0:0:0:0:
320,192,59902,1,0,0:0:0:0:
320,192,60069,1,0,0:0:0:0:
64,192,60152,1,0,0:0:0:0:
192,192,60319,1,0,0:0:0:0:
448,192,60485,1,0,0:0:0:0:
64,192,60569,1,0,0:0:0:0:
64,192,60735,1,0,0:0:0:0:
448,192,60819,1,0,0:0:0:0:
320,192,60985,1,0,0:0:0:0:
192,192,61152,1,0,0:0:0:0:
448,192,61235,1,0,0:0:0:0:
448,192,61402,1,0,0:0:0:0:
192,192,61485,1,0,0:0:0:0:
320,192,61652,1,0,0:0:0:0:
192,192,61819,1,0,0:0:0:0:
64,192,61985,1,0,0:0:0:0:
320,192,62069,1,0,0:0:0:0:
192,192,62152,1,0,0:0:0:0:
448,192,62235,1,0,0:0:0:0:
320,192,62319,1,0,0:0:0:0:
64,192,62485,1,0,0:0:0:0:
448,192,62569,1,0,0:0:0:0:
448,192,62735,1,0,0:0:0:0:
64,192,62819,1,0,0:0:0:0:
192,192,62985,1,0,0:0:0:0:
320,192,63152,1,0,0:0:0:0:
64,192,63235,1,0,0:0:0:0:
64,192,63402,1,0,0:0:0:0:
320,192,63485,1,0,0:0:0:0:
448,192,63652,1,0,0:0:0:0:
192,192,63819,1,0,0:0:0:0:
320,192,63902,1,0,0:0:0:0:
192,192,63985,1,0,0:0:0:0:
320,192,64069,1,0,0:0:0:0:
192,192,64319,1,0,0:0:0:0:
64,192,64485,1,0,0:0:0:0:
448,192,64485,1,0,0:0:0:0:
320,192,64652,1,0,0:0:0:0:
192,192,64819,1,0,0:0:0:0:
64,192,64819,1,0,0:0:0:0:
448,192,65152,1,0,0:0:0:0:
64,192,65319,1,0,0:0:0:0:
320,192,65319,1,0,0:0:0:0:
192,192,65485,1,0,0:0:0:0:
320,192,65652,1,0,0:0:0:0:
64,192,65819,1,0,0:0:0:0:
192,192,65985,1,0,0:0:0:0:
320,192,66152,1,0,0:0:0:0:
448,192,66152,1,0,0:0:0:0:
320,192,66485,1,0,0:0:0:0:
192,192,66652,1,0,0:0:0:0:
320,192,66819,1,0,0:0:0:0:
64,192,66985,1,0,0:0:0:0:
448,192,66985,1,0,0:0:0:0:
192,192,67152,1,0,0:0:0:0:
320,192,67319,1,0,0:0:0:0:
64,192,67485,1,0,0:0:0:0:
192,192,67485,1,0,0:0:0:0:
448,192,67819,1,0,0:0:0:0:
320,192,67985,1,0,0:0:0:0:
192,192,67985,1,0,0:0:0:0:
64,192,68152,1,0,0:0:0:0:
320,192,68319,1,0,0:0:0:0:
192,192,68485,1,0,0:0:0:0:
448,192,68652,1,0,0:0:0:0:
320,192,68819,1,0,0:0:0:0:
64,192,68819,1,0,0:0:0:0:
192,192,69152,1,0,0:0:0:0:
320,192,69319,1,0,0:0:0:0:
64,192,69485,1,0,0:0:0:0:
448,192,69819,1,0,0:0:0:0:
320,192,69819,1,0,0:0:0:0:
192,192,69985,1,0,0:0:0:0:
64,192,70152,1,0,0:0:0:0:
448,192,70152,1,0,0:0:0:0:
320,192,70319,1,0,0:0:0:0:
192,192,70485,1,0,0:0:0:0:
64,192,70652,1,0,0:0:0:0:
320,192,70652,1,0,0:0:0:0:
448,192,70819,1,0,0:0:0:0:
192,192,70985,1,0,0:0:0:0:
320,192,71152,1,0,0:0:0:0:
64,192,71319,1,0,0:0:0:0:
192,192,71485,1,0,0:0:0:0:
448,192,71485,1,0,0:0:0:0:
320,192,71652,1,0,0:0:0:0:
192,192,71819,1,0,0:0:0:0:
64,192,71985,1,0,0:0:0:0:
448,192,72152,1,0,0:0:0:0:
64,192,72319,1,0,0:0:0:0:
320,192,72319,1,0,0:0:0:0:
192,192,72485,1,0,0:0:0:0:
320,192,72652,1,0,0:0:0:0:
64,192,72819,1,0,0:0:0:0:
448,192,72819,1,0,0:0:0:0:
192,192,72985,1,0,0:0:0:0:
320,192,73152,1,0,0:0:0:0:
448,192,73319,1,0,0:0:0:0:
192,192,73319,1,0,0:0:0:0:
64,192,73485,1,0,0:0:0:0:
320,192,73652,1,0,0:0:0:0:
192,192,73819,1,0,0:0:0:0:
448,192,73985,1,0,0:0:0:0:
320,192,74152,1,0,0:0:0:0:
64,192,74152,1,0,0:0:0:0:
192,192,74319,1,0,0:0:0:0:
320,192,74485,1,0,0:0:0:0:
448,192,74652,1,0,0:0:0:0:
64,192,74819,1,0,0:0:0:0:
448,192,74985,1,0,0:0:0:0:
320,192,74985,1,0,0:0:0:0:
192,192,75152,1,0,0:0:0:0:
64,192,75152,1,0,0:0:0:0:
448,192,75319,1,0,0:0:0:0:
320,192,75319,1,0,0:0:0:0:
192,192,75485,1,0,0:0:0:0:
192,192,75652,1,0,0:0:0:0:
448,192,75819,1,0,0:0:0:0:
320,192,75819,1,0,0:0:0:0:
64,192,75985,1,0,0:0:0:0:
320,192,76152,1,0,0:0:0:0:
192,192,76319,1,0,0:0:0:0:
448,192,76485,1,0,0:0:0:0:
64,192,76652,1,0,0:0:0:0:
192,192,76652,1,0,0:0:0:0:
320,192,76819,1,0,0:0:0:0:
320,192,76985,1,0,0:0:0:0:
64,192,77152,1,0,0:0:0:0:
192,192,77152,1,0,0:0:0:0:
448,192,77319,1,0,0:0:0:0:
192,192,77485,1,0,0:0:0:0:
64,192,77485,1,0,0:0:0:0:
320,192,77652,1,0,0:0:0:0:
64,192,77819,1,0,0:0:0:0:
448,192,77985,1,0,0:0:0:0:
320,192,77985,1,0,0:0:0:0:
192,192,78152,1,0,0:0:0:0:
192,192,78319,1,0,0:0:0:0:
448,192,78485,1,0,0:0:0:0:
320,192,78485,1,0,0:0:0:0:
64,192,78652,1,0,0:0:0:0:
320,192,78819,1,0,0:0:0:0:
192,192,78985,1,0,0:0:0:0:
448,192,79152,1,0,0:0:0:0:
64,192,79319,1,0,0:0:0:0:
192,192,79319,1,0,0:0:0:0:
320,192,79485,1,0,0:0:0:0:
320,192,79652,1,0,0:0:0:0:
64,192,79819,1,0,0:0:0:0:
192,192,79819,1,0,0:0:0:0:
448,192,79985,1,0,0:0:0:0:
192,192,80152,1,0,0:0:0:0:
64,192,80152,1,0,0:0:0:0:
320,192,80319,1,0,0:0:0:0:
64,192,80485,1,0,0:0:0:0:
448,192,80777,1,0,0:0:0:0:
64,192,81006,1,0,0:0:0:0:
448,192,81256,1,0,0:0:0:0:
64,192,81506,1,0,0:0:0:0:
448,192,81756,1,0,0:0:0:0:
