osu file format v14

[General]
AudioFilename: audio.mp3
AudioLeadIn: 0
PreviewTime: 14874
Countdown: 0
SampleSet: Soft
StackLeniency: 0.7
Mode: 2
LetterboxInBreaks: 0
WidescreenStoryboard: 1

[Editor]
Bookmarks: 15027,23027
DistanceSpacing: 1
BeatDivisor: 4
GridSize: 32
TimelineZoom: 2.6

[Metadata]
Title:Home Depot TV Theme Song
TitleUnicode:Home Depot TV Theme Song
Artist:Rory Doggett
ArtistUnicode:Rory Doggett
Creator:radar
Version:rascenjae's Cup
Source:
Tags:wanpachi ascendance wonjae paranoid grapes instrumental novelty american commercial home improvement department store retail
BeatmapID:2755760
BeatmapSetID:1136610

[Difficulty]
HPDrainRate:3
CircleSize:3
OverallDifficulty:5.8
ApproachRate:5.8
SliderMultiplier:1.5
SliderTickRate:1

[Events]
//Background and Video events
0,0,"HOMEDEPOTTTTTTTTTT.jpg",0,0
//Break Periods
//Storyboard Layer 0 (Background)
//Storyboard Layer 1 (Fail)
//Storyboard Layer 2 (Pass)
//Storyboard Layer 3 (Foreground)
//Storyboard Layer 4 (Overlay)
//Storyboard Sound Samples

[TimingPoints]
999,500,4,2,7,40,1,0
14999,-100,4,2,7,60,0,0
29999,-100,4,2,7,40,0,0

[Colours]
Combo1 : 253,255,255
Combo2 : 255,128,0

[HitObjects]
105,292,999,6,0,L|283:292,1,150,2|2,0:0|0:0,0:0:0:0:
329,290,1749,1,0,0:0:0:0:
185,251,2249,1,2,0:0:0:0:
326,200,2749,2,0,L|326:112,1,75,2|2,0:0|0:0,0:0:0:0:
263,84,3249,5,2,0:0:0:0:
127,148,3749,1,2,0:0:0:0:
266,202,4249,2,0,L|373:202,2,75,2|2|2,0:0|0:0|0:0,0:0:0:0:
182,243,4999,6,0,L|16:242,1,150,2|2,3:2|0:0,0:0:0:0:
98,277,5749,1,2,0:0:0:0:
246,274,6249,1,2,0:0:0:0:
374,196,6749,1,2,0:0:0:0:
305,165,6999,6,0,L|124:164,1,150,2|0,3:2|0:0,0:0:0:0:
215,208,7749,1,2,0:0:0:0:
359,167,8249,2,0,L|462:167,2,75,2|2|2,0:0|0:0|0:0,0:0:0:0:
254,254,8999,6,0,L|179:254,2,75,2|0|2,0:0|3:2|0:0,0:0:0:0:
314,201,9749,2,0,L|164:201,1,150,2|2,3:2|0:0,0:0:0:0:
322,296,10749,1,2,0:0:0:0:
234,240,10999,6,0,L|234:139,1,75,2|2,3:2|3:2,0:0:0:0:
130,102,11749,1,2,0:0:0:0:
278,103,12249,2,0,L|369:103,2,75,2|2|2,0:0|0:0|0:0,0:0:0:0:
173,145,12999,6,0,L|7:145,2,150,2|2|2,3:2|0:0|3:2,0:0:0:0:
412,151,14749,1,2,0:0:0:0:
337,154,14999,6,0,L|229:154,1,75,6|2,3:2|0:0,0:0:0:0:
169,166,15499,2,0,L|325:166,1,150,10|2,0:0|3:2,0:0:0:0:
185,174,16499,2,0,L|264:174,1,75,8|2,0:0|0:0,0:0:0:0:
186,189,16999,6,0,L|82:189,1,75,0|2,3:2|0:0,0:0:0:0:
36,195,17499,2,0,L|201:195,1,150,10|2,0:0|3:2,0:0:0:0:
334,214,18499,2,0,L|428:214,1,75,8|2,0:0|0:0,0:0:0:0:
334,213,18999,6,0,L|224:213,1,75,2|2,3:2|0:0,0:0:0:0:
184,207,19499,2,0,L|361:207,1,150,10|2,0:0|3:2,0:0:0:0:
184,211,20499,2,0,L|93:211,1,75,8|2,0:0|0:0,0:0:0:0:
183,221,20999,6,0,L|273:221,1,75,0|2,3:2|0:0,0:0:0:0:
332,219,21499,2,0,L|173:219,1,150,10|2,0:0|3:2,0:0:0:0:
32,217,22499,2,0,L|133:217,1,75,8|2,0:0|0:0,0:0:0:0:
204,235,22999,6,0,L|207:59,1,150,6|10,3:3|0:0,0:0:0:0:
115,66,23749,1,2,0:0:0:0:
32,43,23999,1,2,3:3:0:0:
183,97,24499,2,0,L|270:109,1,75,8|2,0:0|0:0,0:0:0:0:
352,133,24999,6,0,P|342:233|312:290,1,150,6|10,3:3|0:0,0:0:0:0:
253,298,25749,1,2,0:0:0:0:
181,316,25999,1,2,3:3:0:0:
318,326,26499,2,0,L|392:324,1,75,8|2,0:0|0:0,0:0:0:0:
478,283,26999,6,0,L|479:113,1,150,6|10,3:3|0:0,0:0:0:0:
400,103,27749,1,2,0:0:0:0:
321,72,27999,1,2,3:3:0:0:
185,52,28499,2,0,L|273:48,1,75,8|2,0:0|0:0,0:0:0:0:
347,93,28999,6,0,L|356:198,1,75,6|2,3:3|3:2,0:0:0:0:
253,210,29499,1,10,3:2:0:0:
200,242,29624,1,0,3:2:0:0:
168,288,29749,1,2,3:2:0:0:
291,328,29999,6,0,P|359:324|374:115,1,300
