osu file format v14

[General]
AudioFilename: audio.mp3
AudioLeadIn: 0
PreviewTime: 14874
Countdown: 0
SampleSet: Soft
StackLeniency: 0.7
Mode: 2
LetterboxInBreaks: 0
WidescreenStoryboard: 1

[Editor]
Bookmarks: 15027
DistanceSpacing: 1
BeatDivisor: 4
GridSize: 32
TimelineZoom: 2.2

[Metadata]
Title:Home Depot TV Theme Song
TitleUnicode:Home Depot TV Theme Song
Artist:Rory Doggett
ArtistUnicode:Rory Doggett
Creator:radar
Version:Rain
Source:
Tags:wanpachi ascendance wonjae paranoid grapes instrumental novelty american commercial home improvement department store retail
BeatmapID:2373713
BeatmapSetID:1136610

[Difficulty]
HPDrainRate:5
CircleSize:4.5
OverallDifficulty:8.8
ApproachRate:8.8
SliderMultiplier:2
SliderTickRate:1

[Events]
//Background and Video events
0,0,"HOMEDEPOTTTTTTTTTT.jpg",0,0
//Break Periods
//Storyboard Layer 0 (Background)
//Storyboard Layer 1 (Fail)
//Storyboard Layer 2 (Pass)
//Storyboard Layer 3 (Foreground)
//Storyboard Layer 4 (Overlay)
//Storyboard Sound Samples

[TimingPoints]
999,500,4,2,7,40,1,0
14999,-100,4,2,7,60,0,0
29999,-88.8888888888889,4,2,7,40,0,0

[Colours]
Combo1 : 253,255,255
Combo2 : 255,128,64

[HitObjects]
80,186,999,6,0,L|214:186,1,100,2|2,0:0|0:0,0:0:0:0:
307,147,1499,2,0,L|441:147,1,100,2|2,0:0|0:0,0:0:0:0:
179,206,2249,1,2,0:0:0:0:
407,203,2749,2,0,L|282:203,1,100,2|2,0:0|0:0,0:0:0:0:
391,222,3249,1,2,0:0:0:0:
163,230,3749,1,2,0:0:0:0:
391,230,4249,1,2,0:0:0:0:
262,215,4499,2,0,L|381:214,1,100,2|2,0:0|0:0,0:0:0:0:
117,368,4999,6,0,L|117:243,1,100,2|2,3:2|3:2,0:0:0:0:
302,384,5499,2,0,L|177:384,1,100,2|2,0:0|0:0,0:0:0:0:
292,355,5999,1,0,3:2:0:0:
96,322,6249,2,0,L|212:322,1,100,2|0,0:0|0:0,0:0:0:0:
70,249,6749,1,2,0:0:0:0:
275,156,6999,6,0,L|281:31,1,100,2|2,3:2|3:2,0:0:0:0:
196,175,7499,1,0,0:0:0:0:
362,192,7749,2,0,L|476:189,1,100,2|0,0:0|3:2,0:0:0:0:
355,218,8249,2,0,L|236:218,2,100,2|2|2,0:0|0:0|0:0,0:0:0:0:
123,330,8999,6,0,L|123:214,1,100,2|2,3:2|3:2,0:0:0:0:
324,381,9499,2,0,L|208:381,1,100,2|2,0:0|0:0,0:0:0:0:
340,354,9999,1,0,3:2:0:0:
107,285,10249,2,0,L|229:285,1,100,2|0,0:0|0:0,0:0:0:0:
405,248,10749,1,2,0:0:0:0:
179,176,10999,6,0,L|172:45,1,100,2|2,3:2|3:2,0:0:0:0:
258,194,11499,1,0,0:0:0:0:
76,209,11749,2,0,L|184:210,1,100,2|0,0:0|3:2,0:0:0:0:
387,252,12249,2,0,L|501:265,2,100,2|2|2,0:0|0:0|0:0,0:0:0:0:
144,362,12999,6,0,L|137:235,1,100,2|2,3:2|3:2,0:0:0:0:
337,173,13499,2,0,L|466:164,1,100,2|2,0:0|0:0,0:0:0:0:
190,243,13999,1,2,3:2:0:0:
9,207,14749,1,2,0:0:0:0:
319,78,14999,6,0,L|180:78,2,100,6|2|10,3:2|0:0|0:0,0:0:0:0:
471,122,15749,1,2,0:0:0:0:
252,230,15999,2,0,L|110:237,1,100,2|0,3:2|0:0,0:0:0:0:
384,356,16499,2,0,L|497:362,1,100,8|2,0:0|0:0,0:0:0:0:
136,91,16999,6,0,L|275:91,2,100,0|2|10,3:2|0:0|0:0,0:0:0:0:
16,138,17749,1,2,0:0:0:0:
223,195,17999,2,0,L|230:300,1,100,2|0,3:2|0:0,0:0:0:0:
420,31,18499,2,0,L|427:136,1,100,8|2,3:2|0:0,0:0:0:0:
119,204,18999,6,0,L|6:204,2,100,2|2|10,3:2|0:0|0:0,0:0:0:0:
232,274,19749,1,2,0:0:0:0:
16,121,19999,2,0,L|139:111,1,100,2|0,3:2|0:0,0:0:0:0:
368,195,20499,2,0,L|467:203,1,100,8|2,0:0|0:0,0:0:0:0:
159,267,20999,6,0,L|20:267,2,100,0|2|10,3:2|0:0|0:0,0:0:0:0:
295,315,21749,1,2,0:0:0:0:
60,239,21999,2,0,L|56:114,1,100,2|0,3:2|0:0,0:0:0:0:
317,285,22499,2,0,L|321:160,1,100,8|2,0:0|0:0,0:0:0:0:
10,39,22999,6,0,L|149:39,1,100,6|2,3:3|0:0,0:0:0:0:
335,78,23499,2,0,L|474:78,1,100,10|2,0:0|0:0,0:0:0:0:
114,154,23999,2,0,L|112:326,1,150,2|0,3:3|0:0,0:0:0:0:
221,101,24499,2,0,L|343:98,1,100,8|2,0:0|0:0,0:0:0:0:
0,344,24999,6,0,L|121:348,1,100,6|2,3:3|0:0,0:0:0:0:
307,178,25499,2,0,L|186:182,1,100,10|2,0:0|0:0,0:0:0:0:
512,369,25999,2,0,L|512:191,1,150,2|0,3:3|0:0,0:0:0:0:
419,144,26499,2,0,L|314:140,1,100,8|2,0:0|0:0,0:0:0:0:
14,356,26999,6,0,L|8:238,1,100,6|2,3:3|0:0,0:0:0:0:
237,384,27499,2,0,L|125:382,1,100,10|2,0:0|0:0,0:0:0:0:
467,113,27999,2,0,L|289:120,1,150,2|0,3:3|0:0,0:0:0:0:
437,167,28499,2,0,L|316:161,1,100,8|2,0:0|0:0,0:0:0:0:
20,285,28999,5,6,3:3:0:0:
242,322,29249,1,2,3:2:0:0:
13,278,29499,1,10,3:2:0:0:
60,173,29624,1,0,3:2:0:0:
131,88,29749,1,2,3:2:0:0:
209,25,29874,1,0,3:2:0:0:
463,237,29999,6,0,P|506:204|459:238,1,450,6|0,3:3|0:0,0:0:0:0:
