osu file format v14

[General]
AudioFilename: audio.mp3
AudioLeadIn: 0
PreviewTime: 14874
Countdown: 0
SampleSet: Soft
StackLeniency: 0.7
Mode: 2
LetterboxInBreaks: 0
WidescreenStoryboard: 0

[Editor]
Bookmarks: 15027
DistanceSpacing: 1.2
BeatDivisor: 4
GridSize: 32
TimelineZoom: 2.6

[Metadata]
Title:Home Depot TV Theme Song
TitleUnicode:Home Depot TV Theme Song
Artist:Rory Doggett
ArtistUnicode:Rory Doggett
Creator:radar
Version:Ascendance's Salad
Source:
Tags:wanpachi ascendance wonjae paranoid grapes instrumental novelty american commercial home improvement department store retail
BeatmapID:2392121
BeatmapSetID:1136610

[Difficulty]
HPDrainRate:4
CircleSize:3.5
OverallDifficulty:6.8
ApproachRate:6.8
SliderMultiplier:1.7
SliderTickRate:1

[Events]
//Background and Video events
0,0,"HOMEDEPOTTTTTTTTTT.jpg",0,0
//Break Periods
//Storyboard Layer 0 (Background)
//Storyboard Layer 1 (Fail)
//Storyboard Layer 2 (Pass)
//Storyboard Layer 3 (Foreground)
//Storyboard Layer 4 (Overlay)
//Storyboard Sound Samples

[TimingPoints]
999,500,4,2,7,40,1,0
14999,-100,4,2,7,60,0,0
29999,-100,4,2,7,40,0,0
30749,-100,4,2,7,20,0,0

[Colours]
Combo1 : 253,255,255
Combo2 : 255,128,64

[HitObjects]
153,220,999,6,0,L|53:220,1,85,2|2,0:0|0:0,0:0:0:0:
160,209,1499,2,0,L|253:208,1,85,2|2,0:0|0:0,0:0:0:0:
431,209,2249,2,0,L|238:208,1,170,2|2,0:0|0:0,0:0:0:0:
167,214,2999,6,0,L|291:214,1,85,2|2,0:0|0:0,0:0:0:0:
438,215,3749,2,0,L|253:215,1,170,2|2,0:0|0:0,0:0:0:0:
175,205,4499,2,0,L|83:205,1,85,2|2,0:0|0:0,0:0:0:0:
287,142,4999,6,0,L|392:142,1,85,2|2,3:2|3:2,0:0:0:0:
280,123,5499,2,0,L|180:123,1,85,2|2,0:0|0:0,0:0:0:0:
101,124,5999,1,0,3:2:0:0:
194,123,6249,2,0,L|380:122,1,170,2|2,0:0|0:0,0:0:0:0:
272,141,6999,6,0,L|171:142,1,85,2|2,3:2|3:2,0:0:0:0:
397,187,7749,2,0,L|494:187,2,85,2|0|2,0:0|3:2|0:0,0:0:0:0:
303,188,8499,2,0,L|210:188,1,85,2|2,0:0|0:0,0:0:0:0:
16,237,8999,6,0,L|16:140,1,85,2|2,3:2|3:2,0:0:0:0:
108,142,9499,2,0,L|205:141,1,85,2|2,0:0|0:0,0:0:0:0:
286,138,9999,1,0,3:2:0:0:
192,139,10249,2,0,P|114:187|138:275,1,170,2|2,0:0|0:0,0:0:0:0:
213,269,10999,6,0,L|299:269,1,85,2|2,3:2|3:2,0:0:0:0:
482,298,11749,2,0,L|275:298,1,170,2|2,0:0|0:0,0:0:0:0:
219,281,12499,2,0,L|130:282,1,85,2|2,0:0|0:0,0:0:0:0:
327,227,12999,6,0,L|331:138,1,85,2|2,3:2|3:2,0:0:0:0:
212,146,13499,2,0,L|215:47,1,85,2|2,0:0|0:0,0:0:0:0:
330,37,13999,1,2,3:2:0:0:
330,37,14749,1,2,0:0:0:0:
146,36,14999,6,0,L|36:37,1,85,6|2,3:2|0:0,0:0:0:0:
254,136,15499,2,0,L|358:136,1,85,10|2,0:0|0:0,0:0:0:0:
230,133,15999,2,0,P|177:177|228:248,1,170,2|8,3:2|0:0,0:0:0:0:
441,257,16749,1,2,0:0:0:0:
314,257,16999,6,0,L|202:257,1,85,0|2,3:2|0:0,0:0:0:0:
10,262,17499,2,0,L|102:261,1,85,10|2,0:0|0:0,0:0:0:0:
213,261,17999,2,0,P|290:214|244:134,1,170,2|8,3:2|0:0,0:0:0:0:
55,149,18749,1,2,0:0:0:0:
156,150,18999,6,0,L|269:149,1,85,2|2,3:2|0:0,0:0:0:0:
445,191,19499,2,0,L|443:86,1,85,10|2,0:0|0:0,0:0:0:0:
342,90,19999,2,0,B|391:108|391:108|508:74,1,170,2|8,3:2|0:0,0:0:0:0:
279,21,20749,1,2,0:0:0:0:
168,33,20999,6,0,L|158:135,1,85,0|2,3:2|0:0,0:0:0:0:
350,246,21499,2,0,L|247:247,1,85,10|2,0:0|0:0,0:0:0:0:
163,246,21999,2,0,P|101:207|158:129,1,170,2|8,3:2|0:0,0:0:0:0:
238,129,22749,1,2,0:0:0:0:
54,115,22999,6,0,L|80:220,1,85,6|2,3:3|0:0,0:0:0:0:
285,226,23499,2,0,L|376:227,1,85,10|2,0:0|0:0,0:0:0:0:
267,227,23999,2,0,L|145:227,2,85,2|0|8,3:3|0:0|0:0,0:0:0:0:
453,231,24749,1,2,0:0:0:0:
267,227,24999,6,0,L|154:227,1,85,6|2,3:3|0:0,0:0:0:0:
389,146,25499,2,0,L|470:98,1,85,10|2,0:0|0:0,0:0:0:0:
369,101,25999,1,2,3:3:0:0:
267,101,26249,1,0,0:0:0:0:
165,101,26499,1,8,0:0:0:0:
375,50,26749,1,2,0:0:0:0:
158,68,26999,6,0,L|49:66,1,85,6|2,3:3|0:0,0:0:0:0:
288,255,27499,2,0,L|287:153,1,85,10|2,0:0|0:0,0:0:0:0:
184,170,27999,2,0,L|71:170,2,85,2|0|8,3:3|0:0|0:0,0:0:0:0:
393,172,28749,1,2,0:0:0:0:
172,173,28999,6,0,L|58:173,1,85,6|2,3:3|3:2,0:0:0:0:
283,339,29499,1,10,3:2:0:0:
317,317,29624,1,0,3:2:0:0:
317,276,29749,1,2,3:2:0:0:
282,255,29874,1,0,3:2:0:0:
135,250,29999,6,0,P|48:175|157:7,1,340,6|0,3:3|0:0,0:0:0:0:
