osu file format v14

[General]
AudioFilename: audio.mp3
AudioLeadIn: 0
PreviewTime: 0
Countdown: 0
SampleSet: Soft
StackLeniency: 0.7
Mode: 0
LetterboxInBreaks: 0
WidescreenStoryboard: 1

[Editor]
Bookmarks: 4924,9584,9875,14244,18904,19196,23564,28225,28516,32594,32885,33904,35215
DistanceSpacing: 0.1
BeatDivisor: 4
GridSize: 32
TimelineZoom: 3.399999

[Metadata]
Title:sweets parade
TitleUnicode:sweets parade
Artist:Roromiya Karuta(Hanazawa Kana)
ArtistUnicode:髏々宮カルタ(花澤香菜)
Creator:gary00737
Version:Walao's Extra
Source:妖狐×僕SS
Tags:Inu boku secret service ending ed DreaM117er walaowey cut version
BeatmapID:1303587
BeatmapSetID:609311

[Difficulty]
HPDrainRate:6
CircleSize:4.5
OverallDifficulty:8.5
ApproachRate:9.5
SliderMultiplier:1.7
SliderTickRate:1

[Events]
//Background and Video events
0,0,"cropped-1920-1080-227211.jpg",0,0
//Break Periods
//Storyboard Layer 0 (Background)
//Storyboard Layer 1 (Fail)
//Storyboard Layer 2 (Pass)
//Storyboard Layer 3 (Foreground)
//Storyboard Sound Samples

[TimingPoints]
264,291.26213592233,4,2,17,70,1,0

[Colours]
Combo1 : 255,55,255
Combo2 : 255,119,187
Combo3 : 255,77,77

[HitObjects]
83,79,264,6,0,P|125:44|208:71,1,127.5,4|0,0:0|0:0,0:0:0:0:
196,130,555,2,0,P|228:158|282:161,1,85,8|0,0:0|0:0,0:0:0:0:
423,96,846,1,2,0:0:0:0:
259,88,992,1,0,1:0:0:0:
259,88,1064,1,0,1:0:0:0:
259,88,1137,1,8,1:2:0:0:
418,235,1283,6,0,P|461:166|422:95,1,170,2|2,0:0|0:0,0:0:0:0:
258,175,1720,1,8,0:0:0:0:
365,294,1865,1,0,0:0:0:0:
336,122,2011,2,0,L|248:83,1,85,2|0,0:0|1:0,0:0:0:0:
196,130,2230,1,0,1:0:0:0:
196,130,2302,2,0,P|181:171|206:230,1,85,8|0,1:2|0:0,0:0:0:0:
365,294,2594,6,0,B|294:221,1,85,2|0,0:0|0:0,0:0:0:0:
409,128,2885,2,0,B|381:225,1,85,8|0,0:0|0:0,0:0:0:0:
280,311,3176,1,2,0:0:0:0:
247,170,3322,1,0,1:0:0:0:
247,170,3395,1,0,1:0:0:0:
247,170,3467,1,8,1:2:0:0:
444,267,3613,6,0,P|425:351|336:375,1,170,2|2,0:0|0:0,0:0:0:0:
222,250,4050,1,8,0:0:0:0:
329,151,4196,1,8,0:0:0:0:
365,294,4341,1,2,0:0:0:0:
247,170,4487,1,0,1:0:0:0:
247,170,4560,1,0,1:0:0:0:
247,170,4632,1,8,1:2:0:0:
385,209,4778,1,0,0:0:0:0:
139,268,4924,6,0,L|73:201,1,85,4|0,0:0|0:0,0:0:0:0:
131,52,5215,2,0,L|197:119,1,85,8|0,0:0|0:0,0:0:0:0:
222,250,5506,1,2,0:0:0:0:
105,132,5652,1,0,1:0:0:0:
105,132,5725,1,0,1:0:0:0:
105,132,5797,1,8,1:2:0:0:
329,151,5943,6,0,P|394:135|412:29,1,170,2|2,0:0|0:0,0:0:0:0:
267,95,6380,1,8,0:0:0:0:
305,229,6526,1,8,0:0:0:0:
346,72,6671,1,2,0:0:0:0:
247,170,6817,1,0,1:0:0:0:
247,170,6890,1,0,1:0:0:0:
247,170,6963,1,8,1:2:0:0:
387,211,7108,1,8,0:0:0:0:
282,18,7254,6,0,P|234:24|203:51,1,85,2|0,0:0|0:0,0:0:0:0:
171,198,7545,2,0,P|219:192|250:165,1,85,8|0,0:0|0:0,0:0:0:0:
104,145,7836,1,2,0:0:0:0:
121,264,7982,1,0,1:0:0:0:
121,264,8055,1,0,1:0:0:0:
121,264,8128,1,8,1:2:0:0:
185,116,8273,6,0,P|130:61|34:93,1,170,2|2,0:0|0:0,0:0:0:0:
54,212,8710,1,8,0:0:0:0:
171,198,8856,1,0,0:0:0:0:
11,142,9001,1,2,0:0:0:0:
41,293,9147,1,0,1:0:0:0:
41,293,9220,1,0,1:0:0:0:
41,293,9293,1,8,1:2:0:0:
104,145,9438,1,8,0:0:0:0:
257,300,9584,6,0,L|397:320,1,127.5,4|0,0:0|0:0,0:0:0:0:
453,301,9875,2,0,P|422:288|394:246,1,85,8|0,0:0|0:0,0:0:0:0:
423,91,10166,1,2,0:0:0:0:
466,228,10312,1,0,1:0:0:0:
466,228,10384,1,0,1:0:0:0:
466,228,10457,1,8,1:2:0:0:
308,108,10603,6,0,P|242:93|133:150,1,170,2|2,0:0|0:0,0:0:0:0:
109,269,11040,1,8,0:0:0:0:
248,235,11185,1,8,0:0:0:0:
86,185,11331,2,0,P|42:214|23:266,1,85,2|0,0:0|1:0,0:0:0:0:
39,313,11550,1,0,1:0:0:0:
39,313,11623,2,0,L|117:355,1,85,8|8,1:2|0:0,0:0:0:0:
284,198,11914,6,0,B|200:214,1,85,2|0,0:0|0:0,0:0:0:0:
340,264,12205,2,0,B|367:183,1,85,8|0,0:0|0:0,0:0:0:0:
259,276,12496,1,2,0:0:0:0:
394,323,12642,1,0,1:0:0:0:
394,323,12715,1,0,1:0:0:0:
394,323,12787,1,8,1:2:0:0:
315,121,12933,6,0,P|252:124|293:197,1,170,2|2,0:0|0:0,0:0:0:0:
419,209,13370,1,8,0:0:0:0:
315,121,13516,1,0,0:0:0:0:
345,252,13661,1,2,0:0:0:0:
400,127,13807,1,0,1:0:0:0:
400,127,13880,1,0,1:0:0:0:
400,127,13953,1,8,1:2:0:0:
283,197,14098,1,0,0:0:0:0:
511,323,14244,6,0,L|491:233,1,85,4|0,0:0|0:0,0:0:0:0:
324,333,14535,2,0,P|287:313|265:277,1,85,8|0,0:0|0:0,0:0:0:0:
230,132,14826,1,2,0:0:0:0:
345,252,14972,1,0,1:0:0:0:
345,252,15045,1,0,1:0:0:0:
345,252,15117,1,8,1:2:0:0:
130,265,15263,6,0,P|101:190|138:101,1,170,2|2,0:0|0:0,0:0:0:0:
316,71,15700,1,8,0:0:0:0:
272,235,15846,1,8,0:0:0:0:
212,131,15992,1,2,0:0:0:0:
398,93,16137,1,0,1:0:0:0:
398,93,16210,1,0,1:0:0:0:
398,93,16283,1,8,1:2:0:0:
354,257,16428,1,0,0:0:0:0:
233,49,16574,6,0,P|190:49|143:82,1,85,2|0,0:0|0:0,0:0:0:0:
191,216,16865,2,0,P|234:216|281:183,1,85,8|8,0:0|0:0,0:0:0:0:
398,93,17156,1,2,0:0:0:0:
212,131,17302,1,0,1:0:0:0:
212,131,17375,1,0,1:0:0:0:
212,131,17448,1,8,1:2:0:0:
354,257,17593,6,0,L|398:93,1,170,2|2,0:0|0:0,0:0:0:0:
272,235,18030,1,8,0:0:0:0:
458,197,18176,1,8,0:0:0:0:
316,71,18321,1,2,0:0:0:0:
354,257,18467,5,0,1:0:0:0:
354,257,18540,1,0,1:0:0:0:
354,257,18613,1,8,1:2:0:0:
482,117,18758,1,8,0:0:0:0:
233,49,18904,6,0,P|170:53|129:100,1,127.5,4|0,0:0|0:0,0:0:0:0:
149,184,19196,2,0,P|104:182|60:147,1,85,8|0,0:0|0:0,0:0:0:0:
211,129,19486,1,2,0:0:0:0:
171,273,19632,1,0,1:0:0:0:
171,273,19704,1,0,1:0:0:0:
171,273,19777,1,8,1:2:0:0:
11,217,19923,6,0,P|15:136|74:176,1,170,2|2,0:0|0:0,0:0:0:0:
97,326,20360,1,8,0:0:0:0:
149,184,20505,1,0,0:0:0:0:
29,297,20651,2,0,P|25:341|43:379,1,85,2|0,0:0|1:0,0:0:0:0:
97,326,20870,1,0,1:0:0:0:
97,326,20943,2,0,P|140:318|212:342,1,85,8|0,1:2|0:0,0:0:0:0:
336,188,21234,6,0,P|292:195|221:172,1,85,2|0,0:0|0:0,0:0:0:0:
221,69,21525,2,0,L|295:111,1,85,8|0,0:0|0:0,0:0:0:0:
297,267,21816,1,2,0:0:0:0:
178,145,21962,1,0,1:0:0:0:
178,145,22035,1,0,1:0:0:0:
178,145,22107,1,8,1:2:0:0:
380,109,22253,6,0,P|421:155|376:265,1,170,2|2,0:0|0:0,0:0:0:0:
254,310,22690,1,8,0:0:0:0:
336,188,22836,1,8,0:0:0:0:
347,333,22981,1,2,0:0:0:0:
250,219,23127,1,0,1:0:0:0:
250,219,23200,1,0,1:0:0:0:
250,219,23272,1,8,1:2:0:0:
396,252,23418,1,8,0:0:0:0:
135,318,23564,6,0,P|103:338|84:391,1,85,4|0,0:0|0:0,0:0:0:0:
216,326,23856,2,0,P|208:282|171:244,1,85,8|0,0:0|0:0,0:0:0:0:
51,128,24146,1,2,0:0:0:0:
246,148,24292,1,0,1:0:0:0:
246,148,24365,1,0,1:0:0:0:
246,148,24437,1,8,1:2:0:0:
40,270,24583,6,0,P|6:202|79:120,1,170,2|2,0:0|0:0,0:0:0:0:
175,185,25020,1,8,0:0:0:0:
112,71,25166,1,8,0:0:0:0:
88,202,25311,1,2,0:0:0:0:
187,103,25457,1,0,1:0:0:0:
187,103,25530,1,0,1:0:0:0:
187,103,25603,1,8,1:2:0:0:
51,128,25748,1,8,0:0:0:0:
237,240,25894,6,0,L|313:201,1,85,2|0,0:0|0:0,0:0:0:0:
332,40,26185,2,0,P|314:78|318:119,1,85,8|8,0:0|0:0,0:0:0:0:
468,217,26476,1,2,0:0:0:0:
392,91,26622,1,0,1:0:0:0:
392,91,26695,1,0,1:0:0:0:
392,91,26768,1,8,1:2:0:0:
305,285,26913,6,0,P|226:322|157:256,1,170,2|2,0:0|0:0,0:0:0:0:
91,144,27350,1,8,0:0:0:0:
237,240,27496,1,8,0:0:0:0:
78,179,27641,1,2,0:0:0:0:
282,169,27788,1,0,1:0:0:0:
282,169,27860,1,0,1:0:0:0:
282,169,27933,1,8,1:2:0:0:
65,209,28078,1,8,0:0:0:0:
326,97,28225,6,0,P|361:142|354:215,1,127.5,4|0,0:0|0:0,0:0:0:0:
290,247,28516,2,0,P|329:281|379:283,1,85,8|0,0:0|0:0,0:0:0:0:
505,237,28807,1,2,0:0:0:0:
384,142,28953,1,0,1:0:0:0:
384,142,29025,1,0,1:0:0:0:
384,142,29098,1,8,1:2:0:0:
393,358,29244,6,0,P|305:355|234:304,1,170,2|2,0:0|0:0,0:0:0:0:
179,140,29681,1,8,0:0:0:0:
270,200,29826,1,8,0:0:0:0:
88,205,29972,2,0,P|68:166|70:118,1,85,2|0,0:0|1:0,0:0:0:0:
122,76,30191,1,0,1:0:0:0:
122,76,30263,2,0,L|192:155,1,85,8|0,1:2|0:0,0:0:0:0:
113,307,30555,6,0,P|71:311|24:289,1,85,2|0,0:0|0:0,0:0:0:0:
188,236,30846,2,0,P|230:232|277:254,1,85,8|0,0:0|0:0,0:0:0:0:
352,358,31137,1,2,0:0:0:0:
214,339,31283,1,0,1:0:0:0:
214,339,31356,1,0,1:0:0:0:
214,339,31428,1,8,1:2:0:0:
415,158,31574,6,0,L|431:355,1,170,2|2,0:0|0:0,0:0:0:0:
268,247,32011,1,8,0:0:0:0:
415,132,32157,1,8,0:0:0:0:
258,133,32302,1,2,0:0:0:0:
485,243,32448,1,0,1:0:0:0:
485,243,32521,1,0,1:0:0:0:
485,243,32594,1,4,0:0:0:0:
344,287,32739,1,0,0:0:0:0:
504,130,32885,6,0,P|491:85|449:51,1,85,2|0,0:0|0:0,0:0:0:0:
258,133,33176,2,0,P|271:178|313:212,1,85,8|8,0:0|0:0,0:0:0:0:
485,243,33467,1,2,0:0:0:0:
345,132,33613,1,0,1:0:0:0:
345,132,33686,5,0,1:0:0:0:
345,132,33758,1,8,1:2:0:0:
346,333,33904,6,0,P|303:338|234:330,1,85,2|0,0:0|0:0,0:0:0:0:
103,223,34196,1,2,0:0:0:0:
299,219,34341,1,0,0:0:0:0:
133,337,34487,1,8,0:0:0:0:
204,155,34632,1,8,0:3:0:0:
261,336,34778,1,8,0:3:0:0:
103,223,34924,1,4,0:3:0:0:
299,219,35069,1,4,0:3:0:0:
0,313,35215,5,2,0:0:0:0:
315,88,35506,1,2,0:0:0:0:
261,336,35797,1,2,0:0:0:0:
204,155,35943,5,2,0:0:0:0:
205,143,36234,1,8,0:0:0:0:
206,132,36526,5,10,0:0:0:0:
453,188,36671,1,10,0:0:0:0:
216,284,36817,1,10,0:0:0:0:
355,69,36963,1,10,0:0:0:0:
