osu file format v14

[General]
AudioFilename: audio.mp3
AudioLeadIn: 0
PreviewTime: 0
Countdown: 0
SampleSet: Soft
StackLeniency: 0.7
Mode: 0
LetterboxInBreaks: 0
WidescreenStoryboard: 0

[Editor]
Bookmarks: 9584,18904,28225,34632
DistanceSpacing: 1
BeatDivisor: 4
GridSize: 16
TimelineZoom: 1.5

[Metadata]
Title:sweets parade
TitleUnicode:sweets parade
Artist:Roromiya Karuta(Hanazawa Kana)
ArtistUnicode:髏々宮カルタ(花澤香菜)
Creator:gary00737
Version:Normal
Source:妖狐×僕SS
Tags:Inu boku secret service ending ed DreaM117er walaowey cut version
BeatmapID:1286990
BeatmapSetID:609311

[Difficulty]
HPDrainRate:4
CircleSize:3
OverallDifficulty:5
ApproachRate:5
SliderMultiplier:1.1
SliderTickRate:1

[Events]
//Background and Video events
0,0,"cropped-1920-1080-227211.jpg",0,0
//Break Periods
//Storyboard Layer 0 (Background)
//Storyboard Layer 1 (Fail)
//Storyboard Layer 2 (Pass)
//Storyboard Layer 3 (Foreground)
//Storyboard Sound Samples

[TimingPoints]
264,291.26213592233,4,2,17,80,1,0

[Colours]
Combo1 : 255,55,255
Combo2 : 255,119,187
Combo3 : 255,77,77

[HitObjects]
389,174,264,6,0,P|402:121|390:67,1,110,4|8,0:0|0:0,0:0:0:0:
292,119,846,2,0,P|234:130|175:111,1,110,2|8,0:0|0:0,0:0:0:0:
145,78,1283,1,2,0:0:0:0:
57,146,1574,2,0,L|63:269,1,110,2|8,0:0|0:0,0:0:0:0:
67,310,2011,1,2,0:0:0:0:
155,244,2302,1,8,0:0:0:0:
193,348,2594,6,0,P|251:359|310:340,1,110,2|8,0:0|0:0,0:0:0:0:
396,294,3176,2,0,L|402:171,1,110,2|8,0:0|0:0,0:0:0:0:
403,129,3613,1,2,0:0:0:0:
359,28,3904,2,0,P|301:17|242:36,1,110,2|8,0:0|0:0,0:0:0:0:
212,67,4341,1,2,0:0:0:0:
108,29,4632,1,8,0:0:0:0:
16,90,4924,6,0,L|22:213,1,110,6|8,0:0|0:0,0:0:0:0:
130,190,5506,2,0,L|124:313,1,110,2|8,0:0|0:0,0:0:0:0:
122,354,5943,1,2,0:0:0:0:
222,308,6234,2,0,P|280:297|339:316,1,110,2|8,0:0|0:0,0:0:0:0:
368,348,6671,2,0,P|426:359|485:340,1,110,2|8,0:0|0:0,0:0:0:0:
499,238,7254,6,0,L|505:115,1,110,2|8,0:0|0:0,0:0:0:0:
405,177,7836,2,0,L|399:67,1,110,2|8,0:0|0:0,0:0:0:0:
352,36,8273,1,2,0:0:0:0:
298,132,8564,2,0,P|240:143|181:124,1,110,2|8,0:0|0:0,0:0:0:0:
148,96,9001,1,2,0:0:0:0:
139,207,9293,2,0,L|143:277,1,55,8|8,0:0|0:0,0:0:0:0:
165,313,9584,6,0,P|217:299|271:311,1,110,6|8,0:0|0:0,0:0:0:0:
365,366,10166,2,0,P|378:313|366:259,1,110,2|8,0:0|0:0,0:0:0:0:
395,212,10603,2,0,P|453:223|512:204,2,110,2|2|8,0:0|0:0|0:0,0:0:0:0:
362,167,11331,1,2,0:0:0:0:
266,221,11623,1,8,0:0:0:0:
216,122,11914,6,0,L|222:-1,1,110,2|8,0:0|0:0,0:0:0:0:
314,70,12497,2,0,P|367:83|421:72,1,110,2|8,0:0|0:0,0:0:0:0:
461,35,12933,1,2,0:0:0:0:
491,140,13225,2,0,P|505:192|493:246,1,110,2|8,0:0|0:0,0:0:0:0:
453,284,13662,2,0,P|400:271|346:283,1,110,2|8,0:0|0:0,0:0:0:0:
256,345,14244,6,0,L|250:222,1,110,6|8,0:0|0:0,0:0:0:0:
141,251,14827,2,0,L|147:128,1,110,2|8,0:0|0:0,0:0:0:0:
154,87,15263,1,2,0:0:0:0:
246,147,15555,1,2,0:0:0:0:
270,40,15846,1,8,0:0:0:0:
307,80,15992,2,0,P|359:93|413:80,1,110,2|8,0:0|0:0,0:0:0:0:
496,151,16574,6,0,L|490:274,1,110,2|8,0:0|0:0,0:0:0:0:
403,328,17157,2,0,L|397:218,1,110,2|8,0:0|0:0,0:0:0:0:
394,163,17594,1,10,0:0:0:0:
284,161,17885,1,2,0:0:0:0:
258,267,18176,1,8,0:0:0:0:
220,307,18322,2,0,P|167:320|113:307,1,110,2|8,0:0|0:0,0:0:0:0:
51,216,18904,6,0,P|37:163|49:109,1,110,6|8,0:0|0:0,0:0:0:0:
142,50,19486,2,0,P|200:61|259:42,1,110,2|8,0:0|0:0,0:0:0:0:
292,15,19923,1,2,0:0:0:0:
401,23,20215,2,0,L|407:146,1,110,2|8,0:0|0:0,0:0:0:0:
410,187,20651,1,2,0:0:0:0:
416,296,20942,1,8,0:0:0:0:
319,348,21234,6,0,P|261:359|202:340,1,110,2|8,0:0|0:0,0:0:0:0:
110,305,21816,2,0,L|104:182,1,110,2|8,0:0|0:0,0:0:0:0:
102,140,22253,1,2,0:0:0:0:
146,40,22544,2,0,P|204:29|263:48,1,110,2|8,0:0|0:0,0:0:0:0:
296,76,22981,1,2,0:0:0:0:
400,38,23272,1,8,0:0:0:0:
489,102,23564,6,0,L|483:225,1,110,6|8,0:0|0:0,0:0:0:0:
379,176,24146,2,0,L|385:299,1,110,2|8,0:0|0:0,0:0:0:0:
388,340,24583,1,2,0:0:0:0:
285,299,24874,2,0,P|227:288|168:307,1,110,2|8,0:0|0:0,0:0:0:0:
145,345,25311,2,0,P|87:356|28:337,1,110,2|8,0:0|0:0,0:0:0:0:
19,234,25894,6,0,L|13:111,1,110,2|8,0:0|0:0,0:0:0:0:
116,163,26476,2,0,L|121:53,1,110,2|8,0:0|0:0,0:0:0:0:
173,33,26914,1,2,0:0:0:0:
223,130,27205,2,0,P|281:141|340:122,1,110,2|8,0:0|0:0,0:0:0:0:
374,96,27642,1,2,0:0:0:0:
372,207,27933,2,0,L|368:277,1,55,8|8,0:0|0:0,0:0:0:0:
347,313,28224,6,0,P|294:299|240:311,1,110,6|8,0:0|0:0,0:0:0:0:
147,366,28806,2,0,P|133:313|145:259,1,110,2|8,0:0|0:0,0:0:0:0:
117,212,29244,2,0,P|59:223|0:204,2,110,2|2|8,0:0|0:0|0:0,0:0:0:0:
150,167,29972,1,2,0:0:0:0:
246,221,30264,1,8,0:0:0:0:
296,122,30555,6,0,L|290:-1,1,110,2|8,0:0|0:0,0:0:0:0:
198,70,31138,2,0,P|145:83|91:72,1,110,2|8,0:0|0:0,0:0:0:0:
51,35,31574,1,2,0:0:0:0:
10,137,31865,2,0,P|-4:189|8:243,1,110,2|8,0:0|0:0,0:0:0:0:
44,283,32302,2,0,P|97:270|151:282,1,110,2|8,0:0|0:0,0:0:0:0:
237,348,32885,6,0,L|243:225,1,110,6|8,0:0|0:0,0:0:0:0:
351,252,33467,2,0,L|345:129,1,110,2|8,0:0|0:0,0:0:0:0:
340,87,33903,1,2,0:0:0:0:
258,12,34196,1,2,0:0:0:0:
172,87,34487,1,8,0:0:0:0:
129,120,34632,2,0,P|76:133|22:121,1,110,8|4,3:0|3:0,0:0:0:0:
22,231,35215,6,0,L|28:354,1,110,2|2,3:0|3:0,0:0:0:0:
136,349,35797,2,0,L|139:279,1,55,8|2,3:0|3:0,0:0:0:0:
143,183,36234,5,10,0:0:0:0:
240,234,36526,2,0,L|310:231,1,55,10|10,0:0|0:0,0:0:0:0:
318,181,36817,2,0,L|388:184,1,55,10|10,0:0|0:0,0:0:0:0:
