osu file format v14

[General]
AudioFilename: audio.mp3
AudioLeadIn: 0
PreviewTime: 0
Countdown: 0
SampleSet: Soft
StackLeniency: 0.7
Mode: 0
LetterboxInBreaks: 0
WidescreenStoryboard: 0

[Editor]
DistanceSpacing: 0.8
BeatDivisor: 4
GridSize: 16
TimelineZoom: 1.5

[Metadata]
Title:sweets parade
TitleUnicode:sweets parade
Artist:Roromiya Karuta(Hanazawa Kana)
ArtistUnicode:髏々宮カルタ(花澤香菜)
Creator:gary00737
Version:117's Insane
Source:妖狐×僕SS
Tags:Inu boku secret service ending ed DreaM117er walaowey cut version
BeatmapID:1287025
BeatmapSetID:609311

[Difficulty]
HPDrainRate:6
CircleSize:4
OverallDifficulty:7.5
ApproachRate:9
SliderMultiplier:1.5
SliderTickRate:1

[Events]
//Background and Video events
0,0,"cropped-1920-1080-227211.jpg",0,0
//Break Periods
//Storyboard Layer 0 (Background)
//Storyboard Layer 1 (Fail)
//Storyboard Layer 2 (Pass)
//Storyboard Layer 3 (Foreground)
//Storyboard Sound Samples

[TimingPoints]
264,291.26213592233,4,2,17,80,1,0
32302,-133.333333333333,4,2,17,80,0,0
32521,-133.333333333333,4,2,17,10,0,0
32594,-100,4,2,17,80,0,0
32812,-100,4,2,17,10,0,0
32885,-100,4,2,17,80,0,0

[Colours]
Combo1 : 255,55,255
Combo2 : 255,119,187
Combo3 : 255,77,77

[HitObjects]
55,206,264,6,0,P|99:198|128:191,1,75,4|0,0:0|0:0,0:0:0:0:
216,83,555,2,0,P|178:77|141:71,1,75,8|0,0:0|0:0,0:0:0:0:
313,177,846,2,0,P|303:141|293:105,1,75,2|0,0:0|1:0,0:0:0:0:
294,105,1064,1,0,1:0:0:0:
294,105,1137,1,8,1:2:0:0:
208,220,1283,6,0,P|196:287|183:378,1,150,2|2,0:0|0:0,0:0:0:0:
289,263,1720,1,8,0:0:0:0:
147,287,1865,1,0,0:0:0:0:
321,354,2011,2,0,P|319:317|305:283,1,75,2|0,0:0|0:0,0:0:0:0:
110,189,2302,2,0,P|143:206|180:210,1,75,8|0,0:0|0:0,0:0:0:0:
310,115,2594,6,0,B|300:62|291:19,1,75,2|0,0:0|0:0,0:0:0:0:
430,120,2885,2,0,P|422:162|412:213,1,75,8|0,0:0|0:0,0:0:0:0:
366,368,3176,1,2,0:0:0:0:
444,271,3322,2,0,L|492:265,2,37.5,0|0|8,1:0|1:0|1:2,0:0:0:0:
283,322,3613,6,0,P|355:332|412:286,1,150,2|2,0:0|0:0,0:0:0:0:
251,183,4050,1,8,0:0:0:0:
251,183,4196,1,8,0:0:0:0:
206,269,4341,2,0,P|195:305|194:343,1,75,2|0,0:0|1:0,0:0:0:0:
194,342,4560,1,0,1:0:0:0:
194,342,4632,1,8,1:2:0:0:
90,216,4778,1,0,0:0:0:0:
9,326,4924,6,0,P|45:319|92:309,1,75,4|0,0:0|0:0,0:0:0:0:
242,286,5215,2,0,P|210:267|164:264,1,75,8|0,0:0|0:0,0:0:0:0:
179,347,5506,1,2,0:0:0:0:
325,275,5652,2,0,L|376:283,2,37.5,0|0|8,1:0|1:0|1:2,0:0:0:0:
253,195,5943,6,0,P|238:124|224:40,1,150,2|2,0:0|0:0,0:0:0:0:
168,182,6380,1,8,0:0:0:0:
278,107,6526,1,8,0:0:0:0:
343,232,6671,2,0,P|306:224|269:216,1,75,2|0,0:0|0:0,0:0:0:0:
131,274,6963,1,8,0:0:0:0:
250,223,7108,1,8,0:0:0:0:
84,170,7254,6,0,P|85:212|111:251,1,75,2|0,0:0|0:0,0:0:0:0:
229,113,7545,2,0,P|192:92|145:95,1,75,8|0,0:0|0:0,0:0:0:0:
269,216,7836,1,2,0:0:0:0:
395,98,7982,1,0,1:0:0:0:
395,98,8055,1,0,1:0:0:0:
395,98,8128,1,8,1:2:0:0:
370,245,8273,6,0,P|381:170|394:97,1,150,2|2,0:0|0:0,0:0:0:0:
235,180,8710,2,0,P|274:172|315:162,1,75,8|0,0:0|0:0,0:0:0:0:
454,274,9001,1,2,0:0:0:0:
422,177,9147,1,0,1:0:0:0:
422,177,9220,1,0,1:0:0:0:
422,177,9293,1,8,1:2:0:0:
352,332,9438,1,8,0:0:0:0:
505,300,9584,6,0,P|468:291|432:284,1,75,4|0,0:0|0:0,0:0:0:0:
327,234,9875,2,0,P|285:253|247:249,1,75,8|0,0:0|0:0,0:0:0:0:
322,66,10166,2,0,P|329:102|338:139,1,75,2|0,0:0|1:0,0:0:0:0:
338,139,10385,1,0,1:0:0:0:
338,139,10458,1,8,1:2:0:0:
190,295,10603,6,0,P|182:223|235:174,1,150,2|2,0:0|0:0,0:0:0:0:
365,131,11040,1,8,0:0:0:0:
236,94,11186,1,8,0:0:0:0:
380,227,11331,2,0,P|373:191|364:154,1,75,2|0,0:0|0:0,0:0:0:0:
315,28,11623,1,8,0:0:0:0:
315,28,11768,1,8,0:0:0:0:
277,170,11914,6,0,P|205:176|152:126,2,150,2|8|2,0:0|0:0|0:0,0:0:0:0:
391,69,12642,1,0,1:0:0:0:
391,69,12715,1,0,1:0:0:0:
391,69,12788,1,8,1:2:0:0:
437,170,12933,6,0,P|400:161|363:153,1,75,2|0,0:0|0:0,0:0:0:0:
220,22,13225,2,0,P|229:75|244:124,1,75,2|8,0:0|0:0,0:0:0:0:
301,235,13516,1,0,0:0:0:0:
209,193,13662,1,2,0:0:0:0:
326,137,13807,1,0,1:0:0:0:
326,137,13880,1,0,1:0:0:0:
326,137,13953,1,8,1:2:0:0:
223,278,14098,1,0,0:0:0:0:
357,367,14244,6,0,P|373:338|374:276,1,75,4|0,0:0|0:0,0:0:0:0:
253,169,14535,2,0,P|270:197|323:229,1,75,8|0,0:0|0:0,0:0:0:0:
477,181,14827,2,0,P|443:181|389:211,1,75,2|0,0:0|1:0,0:0:0:0:
405,197,15045,1,0,1:0:0:0:
405,197,15118,1,8,1:2:0:0:
287,323,15263,6,0,P|227:283|138:296,1,150,2|2,0:0|0:0,0:0:0:0:
75,345,15700,1,8,0:0:0:0:
75,345,15846,1,8,0:0:0:0:
152,202,15992,2,0,P|147:170|135:115,1,75,2|0,0:0|0:0,0:0:0:0:
217,299,16283,2,0,P|247:310|300:327,1,75,8|0,0:0|0:0,0:0:0:0:
125,289,16574,6,0,P|76:305|-2:250,1,150,2|8,0:0|0:0,0:0:0:0:
138,128,17011,1,8,0:0:0:0:
37,154,17157,1,2,0:0:0:0:
37,154,17302,2,0,P|47:107|54:66,1,75,2|8,0:0|0:0,0:0:0:0:
252,35,17594,6,0,P|234:111|219:197,1,150,2|2,0:0|0:0,0:0:0:0:
266,329,18030,1,8,0:0:0:0:
142,213,18176,1,8,0:0:0:0:
116,300,18322,2,0,P|164:299|200:281,1,75,2|0,0:0|0:0,0:0:0:0:
287,238,18613,1,8,0:0:0:0:
287,238,18759,1,8,0:0:0:0:
213,96,18904,6,0,P|217:133|223:170,1,75,4|0,0:0|0:0,0:0:0:0:
287,334,19196,2,0,P|290:296|305:262,1,75,8|0,0:0|0:0,0:0:0:0:
437,209,19487,2,0,P|400:201|365:190,1,75,2|0,0:0|1:0,0:0:0:0:
364,189,19705,1,0,1:0:0:0:
364,189,19778,1,8,1:2:0:0:
193,250,19924,6,0,P|120:258|59:191,1,150,2|2,0:0|0:0,0:0:0:0:
161,104,20361,2,0,P|154:141|148:178,1,75,8|8,0:0|0:0,0:0:0:0:
278,264,20652,2,0,P|274:225|255:189,1,75,2|0,0:0|0:0,0:0:0:0:
77,96,20943,2,0,P|113:89|153:79,1,75,8|0,0:0|0:0,0:0:0:0:
305,26,21234,6,0,P|290:98|275:197,2,150,2|8|2,0:0|0:0|0:0,0:0:0:0:
173,103,21963,1,0,1:0:0:0:
173,103,22035,1,0,1:0:0:0:
173,103,22108,1,8,1:2:0:0:
258,193,22254,6,0,P|264:231|271:285,1,75,2|0,0:0|0:0,0:0:0:0:
239,359,22545,1,2,0:0:0:0:
361,288,22691,1,8,0:0:0:0:
361,288,22836,1,8,0:0:0:0:
181,245,22982,2,0,L|87:228,1,75,2|0,0:0|1:0,0:0:0:0:
107,231,23200,1,0,1:0:0:0:
107,231,23273,1,8,1:2:0:0:
258,193,23419,1,8,0:0:0:0:
294,340,23564,6,0,P|335:367|414:354,1,112.5,4|0,0:0|0:0,0:0:0:0:
417,356,23856,2,0,P|411:318|405:274,1,75,8|0,0:0|0:0,0:0:0:0:
269,118,24147,2,0,P|263:155|257:192,2,75,2|0|8,0:0|0:0|0:0,0:0:0:0:
302,275,24584,6,0,P|254:287|170:229,1,150,2|2,0:0|0:0,0:0:0:0:
128,119,25021,1,8,0:0:0:0:
78,210,25166,1,8,0:0:0:0:
217,148,25312,2,0,P|254:138|302:130,1,75,2|0,0:0|0:0,0:0:0:0:
128,119,25603,2,0,P|91:111|54:102,1,75,8|8,0:0|0:0,0:0:0:0:
236,42,25895,6,0,P|291:32|402:7,1,150,2|8,0:0|0:0,0:0:0:0:
491,133,26331,1,8,0:0:0:0:
384,183,26477,2,0,P|391:138|398:101,1,75,2|0,0:0|0:0,0:0:0:0:
480,33,26768,1,8,0:0:0:0:
384,183,26914,6,0,P|337:170|240:234,1,150,2|2,0:0|0:0,0:0:0:0:
200,292,27351,1,8,0:0:0:0:
149,156,27497,1,8,0:0:0:0:
46,230,27642,2,0,P|83:236|119:246,1,75,2|0,0:0|1:0,0:0:0:0:
119,246,27861,1,0,1:0:0:0:
119,246,27933,1,8,1:2:0:0:
82,328,28079,1,8,0:0:0:0:
149,156,28225,6,0,P|139:106|124:1,2,150,4|8|2,0:0|0:0|0:0,0:0:0:0:
82,328,28953,1,0,1:0:0:0:
82,328,29026,1,0,1:0:0:0:
82,328,29098,1,8,1:2:0:0:
3,274,29244,6,0,P|59:236|155:267,1,150,2|2,0:0|0:0,0:0:0:0:
236,339,29681,1,8,0:0:0:0:
334,312,29827,1,8,0:0:0:0:
232,246,29972,2,0,P|224:303|220:340,1,75,2|0,0:0|0:0,0:0:0:0:
405,231,30263,2,0,P|367:225|326:211,1,75,8|0,0:0|0:0,0:0:0:0:
206,91,30555,6,0,P|266:43|356:64,2,150,2|8|2,0:0|0:0|0:0,0:0:0:0:
159,212,31283,1,0,1:0:0:0:
159,212,31356,1,0,1:0:0:0:
159,212,31429,1,8,1:2:0:0:
291,131,31574,6,0,P|217:117|144:104,1,150,2|2,0:0|0:0,0:0:0:0:
23,239,32011,1,8,0:0:0:0:
138,191,32157,1,8,0:0:0:0:
50,58,32302,6,0,L|65:152,1,84.3750032186509,2|0,0:0|0:0,0:0:0:0:
59,167,32594,6,0,P|95:204|88:280,1,112.5,4|0,0:0|0:0,0:0:0:0:
81,305,32885,6,0,P|123:271|222:287,1,150,2|8,0:0|0:0,0:0:0:0:
283,346,33322,1,8,0:0:0:0:
435,249,33467,2,0,P|393:215|294:231,1,150,2|8,0:0|0:0,0:0:0:0:
152,128,33904,6,0,P|190:122|236:110,1,75,2|0,0:0|0:0,0:0:0:0:
364,69,34196,1,0,1:0:0:0:
364,69,34268,1,8,0:0:0:0:
364,69,34341,1,0,0:0:0:0:
268,25,34487,1,8,0:0:0:0:
204,208,34632,1,8,0:3:0:0:
304,166,34778,1,8,0:3:0:0:
182,231,34924,1,4,0:3:0:0:
316,275,35069,1,4,0:3:0:0:
225,113,35215,5,10,0:0:0:0:
447,323,35506,1,10,0:0:0:0:
76,199,35797,1,10,0:0:0:0:
157,344,35943,2,0,P|151:305|142:257,1,75,10|0,0:0|0:0,0:0:0:0:
85,46,36234,5,8,0:0:0:0:
85,46,36526,1,10,0:0:0:0:
170,177,36671,1,10,0:0:0:0:
24,121,36817,1,10,0:0:0:0:
173,80,36963,1,10,0:0:0:0:
