osu file format v14

[General]
AudioFilename: audio.mp3
AudioLeadIn: 0
PreviewTime: 0
Countdown: 0
SampleSet: Soft
StackLeniency: 0.7
Mode: 0
LetterboxInBreaks: 0
WidescreenStoryboard: 1

[Editor]
Bookmarks: 4705,9584,18904,28225,34632
DistanceSpacing: 1.2
BeatDivisor: 4
GridSize: 16
TimelineZoom: 1.6

[Metadata]
Title:sweets parade
TitleUnicode:sweets parade
Artist:Roromiya Karuta(Hanazawa Kana)
ArtistUnicode:髏々宮カルタ(花澤香菜)
Creator:gary00737
Version:Light Insane
Source:妖狐×僕SS
Tags:Inu boku secret service ending ed DreaM117er walaowey cut version
BeatmapID:1303586
BeatmapSetID:609311

[Difficulty]
HPDrainRate:5
CircleSize:4
OverallDifficulty:7
ApproachRate:8.5
SliderMultiplier:1.3
SliderTickRate:1

[Events]
//Background and Video events
0,0,"cropped-1920-1080-227211.jpg",0,0
//Break Periods
//Storyboard Layer 0 (Background)
//Storyboard Layer 1 (Fail)
//Storyboard Layer 2 (Pass)
//Storyboard Layer 3 (Foreground)
//Storyboard Sound Samples

[TimingPoints]
264,291.26213592233,4,2,17,80,1,0
8492,-100,4,2,17,5,0,0
8564,-100,4,2,17,80,0,0
10385,-100,4,2,17,5,0,0
10458,-100,4,2,17,80,0,0
19705,-100,4,2,17,5,0,0
19778,-100,4,2,17,80,0,0
24365,-100,4,2,17,5,0,0
24438,-100,4,2,17,80,0,0
29463,-100,4,2,17,5,0,0
29535,-100,4,2,17,80,0,0
33686,-100,4,2,17,5,0,0
33759,-100,4,2,17,80,0,0

[Colours]
Combo1 : 255,55,255
Combo2 : 255,119,187
Combo3 : 255,77,77

[HitObjects]
184,109,264,6,0,P|243:137|317:110,1,130,4|8,0:0|0:0,0:0:0:0:
252,38,700,1,0,0:0:0:0:
252,38,846,2,0,L|242:185,1,130,2|8,0:0|0:0,0:0:0:0:
248,245,1283,2,0,P|281:270|326:274,1,65,2|0,0:0|0:0,0:0:0:0:
373,241,1574,2,0,P|406:216|451:212,1,65,2|8,0:0|0:0,0:0:0:0:
434,288,1865,1,0,0:0:0:0:
373,241,2011,2,0,L|363:94,1,130,2|8,0:0|0:0,0:0:0:0:
133,96,2594,6,0,P|144:159|196:193,1,130,2|8,0:0|0:0,0:0:0:0:
273,198,3030,1,0,0:0:0:0:
209,117,3176,2,0,P|237:60|298:45,1,130,2|8,0:0|0:0,0:0:0:0:
346,106,3613,2,0,P|317:119|285:122,1,65,2|0,0:0|0:0,0:0:0:0:
374,33,3904,2,0,P|410:62|424:97,1,65,2|8,0:0|0:0,0:0:0:0:
410,156,4196,1,0,0:0:0:0:
410,156,4341,2,0,P|386:176|352:189,1,65,2|0,0:0|1:0,0:0:0:0:
354,188,4560,1,0,1:0:0:0:
354,188,4632,1,8,1:0:0:0:
197,194,4924,6,0,P|131:188|82:232,1,130,4|8,0:0|0:0,0:0:0:0:
154,262,5361,1,0,0:0:0:0:
197,194,5506,2,0,P|193:125|154:58,1,130,2|8,0:0|0:0,0:0:0:0:
86,8,5943,2,0,L|79:91,1,65,2|0,0:0|0:0,0:0:0:0:
79,162,6234,2,0,L|86:245,1,65,2|8,0:0|0:0,0:0:0:0:
155,264,6526,1,0,0:0:0:0:
197,194,6671,2,0,P|266:198|333:237,1,130,2|8,0:0|0:0,0:0:0:0:
378,276,7108,1,8,0:0:0:0:
481,196,7254,6,0,P|485:127|493:63,2,130,2|8|2,0:0|0:0|0:0,0:0:0:0:
506,281,7982,1,0,1:0:0:0:
506,281,8055,1,0,1:0:0:0:
506,281,8128,1,8,1:0:0:0:
409,341,8273,6,0,P|359:345|302:349,1,97.5,2|0,0:0|0:0,0:0:0:0:
285,319,8564,2,0,P|257:319|217:317,1,65,2|8,0:0|0:0,0:0:0:0:
143,299,8856,1,0,0:0:0:0:
47,236,9001,2,0,L|50:326,1,65,2|0,0:0|1:0,0:0:0:0:
50,301,9220,1,0,1:0:0:0:
50,301,9293,1,8,1:0:0:0:
140,225,9438,1,8,1:0:0:0:
167,304,9584,6,0,P|211:266|217:195,1,130,4|8,0:0|0:0,0:0:0:0:
140,225,10021,1,0,0:0:0:0:
167,304,10166,2,0,L|285:295,1,97.5,2|0,0:0|0:0,0:0:0:0:
302,285,10458,1,8,0:0:0:0:
377,239,10603,2,0,P|388:271|382:318,1,65,2|0,0:0|0:0,0:0:0:0:
302,285,10895,2,0,P|291:253|297:206,1,65,2|8,0:0|0:0,0:0:0:0:
314,147,11186,1,0,0:0:0:0:
314,147,11331,2,0,P|289:83|215:56,1,130,2|8,0:0|0:0,0:0:0:0:
151,35,11768,1,0,0:0:0:0:
143,117,11914,6,0,L|133:181,1,65,2|0,0:0|0:0,0:0:0:0:
227,144,12205,2,0,L|217:208,1,65,8|0,0:0|0:0,0:0:0:0:
296,208,12497,2,0,P|262:274|200:287,1,130,2|8,0:0|0:0,0:0:0:0:
133,181,12933,2,0,L|143:117,1,65,2|0,0:0|0:0,0:0:0:0:
217,208,13224,2,0,L|227:144,1,65,2|8,0:0|0:0,0:0:0:0:
236,56,13516,1,0,0:0:0:0:
151,35,13662,2,0,P|81:62|61:124,1,130,2|8,0:0|0:0,0:0:0:0:
217,208,14244,6,0,P|282:205|356:199,2,130,4|8|2,0:0|0:0|0:0,0:0:0:0:
138,203,14972,1,0,1:0:0:0:
138,203,15045,1,0,1:0:0:0:
138,203,15118,1,8,1:0:0:0:
119,120,15263,2,0,L|110:55,1,65,2|0,0:0|0:0,0:0:0:0:
231,64,15555,2,0,L|222:128,1,65,2|8,0:0|0:0,0:0:0:0:
217,208,15846,1,0,0:0:0:0:
138,203,15992,2,0,P|75:214|18:259,1,130,2|8,0:0|0:0,0:0:0:0:
4,70,16574,6,0,P|67:81|124:126,1,130,2|8,0:0|0:0,0:0:0:0:
138,203,17011,1,0,0:0:0:0:
225,215,17157,2,0,L|290:224,2,65,2|0|8,0:0|0:0|0:0,0:0:0:0:
281,309,17594,2,0,L|346:300,1,65,2|0,0:0|0:0,0:0:0:0:
433,232,17885,2,0,L|368:223,1,65,2|8,0:0|0:0,0:0:0:0:
445,307,18176,1,0,0:0:0:0:
508,255,18322,2,0,P|496:184|429:153,1,130,2|8,0:0|0:0,0:0:0:0:
368,223,18759,1,8,0:0:0:0:
265,113,18904,6,0,L|248:40,1,65,4|0,0:0|0:0,0:0:0:0:
172,103,19196,2,0,L|186:166,1,65,8|0,0:0|0:0,0:0:0:0:
94,120,19487,2,0,P|99:70|145:27,1,97.5,2|0,0:0|0:0,0:0:0:0:
158,23,19778,1,8,0:0:0:0:
250,49,19924,2,0,L|265:113,1,65,2|0,0:0|0:0,0:0:0:0:
186,166,20216,2,0,L|172:103,1,65,2|8,0:0|0:0,0:0:0:0:
265,113,20506,1,0,0:0:0:0:
260,196,20652,2,0,P|197:245|135:228,1,130,2|8,0:0|0:0,0:0:0:0:
296,295,21234,6,0,P|359:344|421:327,1,130,2|8,0:0|0:0,0:0:0:0:
476,307,21671,1,0,0:0:0:0:
443,237,21817,2,0,P|380:188|318:205,1,130,2|8,0:0|0:0,0:0:0:0:
370,266,22254,2,0,B|383:221|383:221|383:125,1,130,2|2,0:0|0:0,0:0:0:0:
362,62,22691,1,8,0:0:0:0:
303,113,22836,1,0,0:0:0:0:
303,113,22982,2,0,L|235:94,1,65,2|0,0:0|1:0,0:0:0:0:
240,95,23200,1,0,1:0:0:0:
240,95,23273,1,8,1:0:0:0:
164,74,23419,1,0,0:0:0:0:
179,150,23564,6,0,L|172:228,1,65,4|0,0:0|0:0,0:0:0:0:
109,260,23856,2,0,L|116:338,1,65,8|0,0:0|0:0,0:0:0:0:
182,364,24147,2,0,P|230:347|295:361,1,97.5,2|0,0:0|0:0,0:0:0:0:
307,365,24438,1,8,0:0:0:0:
385,363,24584,2,0,L|455:355,1,65,2|0,0:0|0:0,0:0:0:0:
465,273,24875,2,0,L|395:265,1,65,2|8,0:0|0:0,0:0:0:0:
326,257,25166,1,0,0:0:0:0:
326,257,25312,2,0,P|310:211|306:170,1,65,2|0,0:0|1:0,0:0:0:0:
307,195,25530,1,0,1:0:0:0:
307,195,25603,1,8,1:0:0:0:
327,119,25749,1,8,0:0:0:0:
278,57,25895,6,0,P|214:48|136:41,1,130,2|8,0:0|0:0,0:0:0:0:
74,64,26331,1,0,0:0:0:0:
102,137,26477,2,0,P|104:195|80:262,1,130,2|8,0:0|0:0,0:0:0:0:
0,326,26914,2,0,L|81:336,1,65,2|0,0:0|0:0,0:0:0:0:
154,362,27205,2,0,L|235:352,1,65,2|8,0:0|0:0,0:0:0:0:
236,267,27497,1,0,0:0:0:0:
236,267,27642,2,0,L|317:277,1,65,2|0,0:0|1:0,0:0:0:0:
300,274,27861,1,0,1:0:0:0:
300,274,27933,1,8,1:0:0:0:
381,244,28079,1,0,0:0:0:0:
339,177,28225,6,0,P|323:122|317:94,1,65,4|0,0:0|0:0,0:0:0:0:
419,174,28516,2,0,P|464:176|492:180,1,65,8|0,0:0|0:0,0:0:0:0:
381,244,28807,2,0,P|343:257|301:249,1,65,2|0,0:0|1:0,0:0:0:0:
318,255,29026,1,0,1:0:0:0:
318,255,29098,1,8,1:0:0:0:
261,200,29244,2,0,P|240:252|260:309,1,97.5,2|0,0:0|0:0,0:0:0:0:
268,316,29535,2,0,L|201:310,1,65,2|8,0:0|0:0,0:0:0:0:
124,302,29827,1,0,0:0:0:0:
67,248,29972,2,0,P|46:310|81:369,1,130,2|8,0:0|0:0,0:0:0:0:
147,225,30555,6,0,P|168:163|133:104,1,130,2|8,0:0|0:0,0:0:0:0:
62,97,30992,1,0,0:0:0:0:
91,171,31137,2,0,B|145:171|145:171|178:167|178:167|226:167,1,130,2|8,0:0|0:0,0:0:0:0:
297,183,31574,2,0,P|328:193|360:189,1,65,2|0,0:0|0:0,0:0:0:0:
397,123,31865,2,0,P|365:114|333:118,1,65,2|8,0:0|0:0,0:0:0:0:
442,187,32157,1,0,0:0:0:0:
442,187,32302,2,0,P|470:153|473:117,1,65,2|0,0:0|0:0,0:0:0:0:
464,55,32594,1,8,0:0:0:0:
307,34,32885,6,0,P|244:36|165:38,1,130,4|8,0:0|0:0,0:0:0:0:
99,31,33322,1,0,0:0:0:0:
42,84,33467,2,0,P|34:149|46:201,1,97.5,2|0,0:0|0:0,0:0:0:0:
59,213,33759,1,8,0:0:0:0:
152,268,33904,2,0,L|148:341,1,65,2|0,0:0|0:0,0:0:0:0:
247,199,34196,2,0,L|251:272,1,65,2|8,0:0|0:0,0:0:0:0:
308,325,34487,1,8,0:0:0:0:
361,217,34632,2,0,L|364:152,1,65,8|8,3:0|3:0,3:0:0:0:
447,134,34924,2,0,L|443:69,1,65,4|4,3:0|3:0,3:0:0:0:
461,214,35215,6,0,P|438:281|388:315,1,130,2|2,0:0|0:0,0:0:0:0:
247,199,35797,2,0,L|244:135,2,65,2|0|2,0:0|0:0|0:0,0:0:0:0:
212,292,36234,1,10,0:0:0:0:
212,292,36526,5,10,0:0:0:0:
105,218,36671,1,10,0:0:0:0:
121,307,36817,1,10,0:0:0:0:
195,202,36963,1,10,0:0:0:0:
