osu file format v14

[General]
AudioFilename: audio.mp3
AudioLeadIn: 0
PreviewTime: 0
Countdown: 0
SampleSet: Soft
StackLeniency: 0.7
Mode: 0
LetterboxInBreaks: 0
WidescreenStoryboard: 0

[Editor]
Bookmarks: 9584,18904,28225,34632
DistanceSpacing: 1.2
BeatDivisor: 4
GridSize: 16
TimelineZoom: 1.5

[Metadata]
Title:sweets parade
TitleUnicode:sweets parade
Artist:Roromiya Karuta(Hanazawa Kana)
ArtistUnicode:髏々宮カルタ(花澤香菜)
Creator:gary00737
Version:Hard
Source:妖狐×僕SS
Tags:Inu boku secret service ending ed DreaM117er walaowey cut version
BeatmapID:1287016
BeatmapSetID:609311

[Difficulty]
HPDrainRate:5
CircleSize:4
OverallDifficulty:6
ApproachRate:7
SliderMultiplier:1.3
SliderTickRate:1

[Events]
//Background and Video events
0,0,"cropped-1920-1080-227211.jpg",0,0
//Break Periods
//Storyboard Layer 0 (Background)
//Storyboard Layer 1 (Fail)
//Storyboard Layer 2 (Pass)
//Storyboard Layer 3 (Foreground)
//Storyboard Sound Samples

[TimingPoints]
264,291.26213592233,4,2,17,80,1,0

[Colours]
Combo1 : 255,55,255
Combo2 : 255,119,187
Combo3 : 255,77,77

[HitObjects]
344,317,264,6,0,L|482:306,2,130,4|8|2,0:0|0:0|0:0,0:0:0:0:
190,291,1137,1,8,0:0:0:0:
140,230,1283,2,0,L|146:142,1,65,2|0,0:0|0:0,0:0:0:0:
222,159,1574,2,0,L|215:71,1,65,2|8,0:0|0:0,0:0:0:0:
251,24,1865,1,0,0:0:0:0:
296,87,2011,2,0,P|363:110|423:79,1,130,2|8,0:0|0:0,0:0:0:0:
476,231,2594,6,0,L|465:360,1,130,2|8,0:0|0:0,0:0:0:0:
390,223,3176,2,0,L|302:216,1,65,2|0,0:0|0:0,0:0:0:0:
255,181,3467,1,8,0:0:0:0:
247,258,3613,2,0,P|180:281|120:250,1,130,2|2,0:0|0:0,0:0:0:0:
46,125,4196,1,0,0:0:0:0:
33,202,4342,2,0,L|38:266,1,65,2|0,0:0|0:0,0:0:0:0:
84,332,4632,2,0,L|172:339,1,65,8|0,1:0|1:0,0:0:0:0:
227,334,4924,6,0,P|294:311|354:342,1,130,4|8,0:0|0:0,0:0:0:0:
476,248,5506,2,0,L|487:119,1,130,2|8,0:0|0:0,0:0:0:0:
494,40,5943,1,2,0:0:0:0:
356,84,6234,2,0,L|291:78,1,65,2|8,0:0|0:0,0:0:0:0:
225,36,6525,1,0,0:0:0:0:
216,113,6671,2,0,P|149:136|89:105,1,130,2|8,0:0|0:0,0:0:0:0:
60,47,7108,1,0,0:0:0:0:
60,47,7254,6,0,L|49:176,2,130,2|8|2,0:0|0:0|0:0,0:0:0:0:
225,36,8128,1,8,0:0:0:0:
216,113,8273,2,0,P|276:95|300:23,2,130,2|2|0,0:0|0:0|0:0,0:0:0:0:
149,71,9001,2,0,P|138:101|142:139,1,65,2|0,0:0|1:0,0:0:0:0:
197,187,9292,1,8,1:0:0:0:
197,187,9438,1,8,1:0:0:0:
209,264,9584,6,0,P|276:241|336:272,1,130,4|8,0:0|0:0,0:0:0:0:
359,334,10021,1,0,0:0:0:0:
359,334,10166,2,0,L|370:205,1,130,2|8,0:0|0:0,0:0:0:0:
396,131,10603,1,2,0:0:0:0:
247,82,10895,2,0,L|182:87,1,65,2|8,0:0|0:0,0:0:0:0:
105,95,11185,1,0,0:0:0:0:
52,36,11331,2,0,P|26:97|54:155,1,130,2|8,0:0|0:0,0:0:0:0:
112,201,11768,1,0,0:0:0:0:
112,201,11914,6,0,L|241:190,1,130,2|8,0:0|0:0,0:0:0:0:
393,226,12497,2,0,P|416:293|385:353,1,130,2|8,0:0|0:0,0:0:0:0:
320,371,12933,1,2,0:0:0:0:
160,342,13225,2,0,L|154:277,1,65,2|8,0:0|0:0,0:0:0:0:
150,199,13516,1,0,0:0:0:0:
220,165,13662,2,0,P|243:98|212:38,1,130,2|8,0:0|0:0,0:0:0:0:
376,58,14244,6,0,L|505:69,2,130,6|8|2,0:0|0:0|0:0,0:0:0:0:
220,46,15118,1,8,0:0:0:0:
167,103,15263,2,0,L|174:191,1,65,2|0,0:0|0:0,0:0:0:0:
247,191,15555,2,0,L|240:279,1,65,2|8,0:0|0:0,0:0:0:0:
188,312,15846,1,0,0:0:0:0:
263,331,15992,2,0,P|330:354|390:323,1,130,2|8,0:0|0:0,0:0:0:0:
499,229,16574,6,0,L|488:100,1,130,2|8,0:0|0:0,0:0:0:0:
451,30,17011,1,0,0:0:0:0:
451,30,17157,2,0,L|387:25,1,65,2|0,0:0|0:0,0:0:0:0:
308,20,17448,1,8,0:0:0:0:
275,91,17594,2,0,P|208:114|148:83,1,130,2|2,0:0|0:0,0:0:0:0:
23,10,18176,1,0,0:0:0:0:
34,87,18322,2,0,L|40:152,1,65,2|0,0:0|0:0,0:0:0:0:
97,205,18613,2,0,L|102:269,1,65,8|0,1:0|1:0,0:0:0:0:
163,318,18904,6,0,P|104:347|41:318,2,130,6|8|2,0:0|0:0|0:0,0:0:0:0:
176,162,19777,1,8,0:0:0:0:
240,118,19923,2,0,L|328:124,1,65,2|0,0:0|0:0,0:0:0:0:
373,162,20215,2,0,L|461:155,1,65,2|8,0:0|0:0,0:0:0:0:
503,114,20505,1,0,0:0:0:0:
508,192,20652,2,0,L|497:321,1,130,2|8,0:0|0:0,0:0:0:0:
347,366,21234,6,0,L|218:355,1,130,2|8,0:0|0:0,0:0:0:0:
58,337,21817,2,0,L|51:249,1,65,2|0,0:0|0:0,0:0:0:0:
51,194,22107,1,8,0:0:0:0:
118,233,22254,2,0,P|185:256|245:225,1,130,2|2,0:0|0:0,0:0:0:0:
289,176,22690,1,8,0:0:0:0:
289,176,22836,1,0,0:0:0:0:
226,128,22982,2,0,L|161:122,1,65,2|0,0:0|0:0,0:0:0:0:
156,44,23273,2,0,L|244:37,1,65,8|0,1:0|1:0,0:0:0:0:
299,37,23564,6,0,P|366:60|426:29,1,130,6|8,0:0|0:0,0:0:0:0:
483,178,24146,2,0,L|472:307,1,130,2|8,0:0|0:0,0:0:0:0:
414,360,24583,1,2,0:0:0:0:
269,302,24875,2,0,L|204:296,1,65,2|8,0:0|0:0,0:0:0:0:
133,261,25165,1,0,0:0:0:0:
199,219,25311,2,0,P|222:152|191:92,1,130,2|8,0:0|0:0,0:0:0:0:
150,40,25748,1,0,0:0:0:0:
150,40,25894,6,0,L|21:29,2,130,2|8|2,0:0|0:0|0:0,0:0:0:0:
292,103,26768,1,8,0:0:0:0:
244,164,26914,2,0,P|303:180|360:140,2,130,2|2|0,0:0|0:0|0:0,0:0:0:0:
198,100,27642,2,0,P|177:123|166:154,1,65,10|0,0:0|1:0,0:0:0:0:
187,229,27932,1,8,1:0:0:0:
187,229,28078,1,8,1:0:0:0:
152,299,28225,6,0,L|216:305,1,65,4|0,0:0|0:0,0:0:0:0:
258,371,28516,2,0,L|322:366,1,65,8|0,0:0|0:0,0:0:0:0:
339,289,28807,2,0,P|406:266|466:297,1,130,2|8,0:0|0:0,0:0:0:0:
498,354,29243,1,2,0:0:0:0:
494,196,29535,2,0,L|429:190,1,65,2|8,0:0|0:0,0:0:0:0:
352,176,29827,1,0,0:0:0:0:
331,100,29971,2,0,P|271:76|212:99,1,130,2|8,0:0|0:0,0:0:0:0:
146,139,30408,1,0,0:0:0:0:
146,139,30554,6,0,L|139:60,1,65,2|0,0:0|0:0,0:0:0:0:
61,76,30846,2,0,L|54:155,1,65,8|0,0:0|0:0,0:0:0:0:
45,218,31137,2,0,P|22:285|53:345,1,130,2|8,0:0|0:0,0:0:0:0:
122,351,31573,1,2,0:0:0:0:
278,348,31865,2,0,L|342:342,1,65,2|8,0:0|0:0,0:0:0:0:
412,305,32157,1,0,0:0:0:0:
470,251,32302,2,0,P|493:184|462:124,1,130,2|8,0:0|0:0,0:0:0:0:
320,91,32884,6,0,L|191:102,2,130,6|8|2,0:0|0:0|0:0,0:0:0:0:
472,55,33759,1,8,0:0:0:0:
470,132,33904,2,0,L|463:220,1,65,8|0,0:0|0:0,0:0:0:0:
387,209,34196,2,0,L|394:297,1,65,8|8,0:0|0:0,0:0:0:0:
420,346,34487,5,8,2:0:0:0:
342,335,34633,2,0,L|254:328,1,65,8|8,3:0|3:0,0:0:0:0:
247,257,34924,2,0,L|182:262,1,65,4|4,3:0|3:0,0:0:0:0:
118,216,35215,6,0,P|107:280|149:334,2,130,2|8|2,0:0|0:0|0:0,0:0:0:0:
163,152,35944,1,8,0:0:0:0:
290,62,36235,5,10,0:0:0:0:
317,215,36527,2,0,L|323:280,1,65,10|10,0:0|0:0,0:0:0:0:
408,347,36817,2,0,L|414:283,1,65,10|10,0:0|0:0,0:0:0:0:
