osu file format v14

[General]
AudioFilename: audio.mp3
AudioLeadIn: 0
PreviewTime: 0
Countdown: 0
SampleSet: Soft
StackLeniency: 0.7
Mode: 0
LetterboxInBreaks: 0
WidescreenStoryboard: 0

[Editor]
Bookmarks: 9584,18904,28225,34632
DistanceSpacing: 1
BeatDivisor: 4
GridSize: 16
TimelineZoom: 1.5

[Metadata]
Title:sweets parade
TitleUnicode:sweets parade
Artist:Roromiya Karuta(Hanazawa Kana)
ArtistUnicode:髏々宮カルタ(花澤香菜)
Creator:gary00737
Version:Easy
Source:妖狐×僕SS
Tags:Inu boku secret service ending ed DreaM117er walaowey cut version
BeatmapID:1286716
BeatmapSetID:609311

[Difficulty]
HPDrainRate:3
CircleSize:3
OverallDifficulty:3
ApproachRate:3.5
SliderMultiplier:0.9
SliderTickRate:1

[Events]
//Background and Video events
0,0,"cropped-1920-1080-227211.jpg",0,0
//Break Periods
//Storyboard Layer 0 (Background)
//Storyboard Layer 1 (Fail)
//Storyboard Layer 2 (Pass)
//Storyboard Layer 3 (Foreground)
//Storyboard Sound Samples

[TimingPoints]
264,291.26213592233,4,2,17,80,1,0

[Colours]
Combo1 : 255,55,255
Combo2 : 255,119,187
Combo3 : 255,77,77

[HitObjects]
472,38,264,6,0,L|465:135,1,90,6|8,0:0|0:0,0:0:0:0:
415,202,846,2,0,P|345:209|297:264,1,135,2|0,0:0|3:0,0:0:0:0:
265,335,1574,2,0,L|126:324,1,135,0|2,3:0|0:0,0:0:0:0:
48,286,2302,1,8,0:0:0:0:
41,195,2594,6,0,L|35:105,1,90,2|8,0:0|0:0,0:0:0:0:
36,15,3176,2,0,P|97:39|125:108,1,135,2|0,0:0|3:0,0:0:0:0:
177,172,3904,2,0,P|289:161|366:73,1,225,0|8,3:0|0:0,0:0:0:0:
440,37,4924,6,0,L|447:134,1,90,6|8,0:0|0:0,0:0:0:0:
495,202,5506,2,0,P|491:265|485:337,1,135,2|0,0:0|3:0,0:0:0:0:
406,292,6234,2,0,P|334:269|274:302,1,135,0|2,3:0|0:0,0:0:0:0:
217,355,6963,1,8,0:0:0:0:
127,345,7254,6,0,L|120:248,1,90,2|8,0:0|0:0,0:0:0:0:
182,189,7836,2,0,P|110:166|50:199,1,135,2|0,0:0|3:0,0:0:0:0:
33,275,8564,2,0,L|22:131,1,135,0|2,3:0|0:0,0:0:0:0:
33,50,9293,1,8,0:0:0:0:
122,40,9584,6,0,L|219:47,1,90,6|8,0:0|0:0,0:0:0:0:
285,95,10166,2,0,P|344:125|407:106,1,135,2|0,0:0|3:0,0:0:0:0:
468,39,10895,2,0,P|498:99|475:164,1,135,0|2,3:0|0:0,0:0:0:0:
403,211,11623,1,8,0:0:0:0:
313,215,11914,6,0,L|223:209,1,90,2|8,0:0|0:0,0:0:0:0:
160,143,12497,2,0,P|129:202|150:265,1,135,2|0,0:0|3:0,0:0:0:0:
243,291,13225,2,0,P|160:361|66:312,1,225,0|8,3:0|0:0,0:0:0:0:
33,230,14244,6,0,L|27:140,1,90,6|8,0:0|0:0,0:0:0:0:
53,53,14827,2,0,P|115:33|174:63,1,135,2|0,0:0|3:0,0:0:0:0:
235,130,15555,2,0,P|297:149|356:119,1,135,0|2,3:0|0:0,0:0:0:0:
427,63,16283,1,8,0:0:0:0:
442,151,16574,6,0,L|448:241,1,90,2|8,0:0|0:0,0:0:0:0:
503,312,17157,2,0,P|440:331|381:301,1,135,2|0,0:0|3:0,0:0:0:0:
326,229,17885,2,0,P|263:209|204:239,1,135,0|2,3:0|0:0,0:0:0:0:
164,320,18613,1,8,0:0:0:0:
98,257,18904,6,0,L|92:167,1,90,6|8,0:0|0:0,0:0:0:0:
37,96,19487,2,0,P|99:76|158:106,1,135,2|0,0:0|3:0,0:0:0:0:
203,184,20215,2,0,P|265:203|324:173,1,135,0|2,3:0|0:0,0:0:0:0:
383,103,20943,1,8,0:0:0:0:
470,80,21234,6,0,P|467:137|438:175,1,90,2|8,0:0|0:0,0:0:0:0:
389,231,21817,2,0,P|371:295|406:358,1,135,2|0,0:0|3:0,0:0:0:0:
461,286,22545,2,0,B|417:286|417:286|333:309|333:309|237:309,1,225,0|8,3:0|0:0,0:0:0:0:
165,257,23564,6,0,L|171:167,1,90,6|8,0:0|0:0,0:0:0:0:
150,79,24147,2,0,P|92:48|29:67,1,135,2|0,0:0|3:0,0:0:0:0:
15,156,24875,2,0,L|24:297,1,135,0|2,3:0|0:0,0:0:0:0:
91,350,25603,1,8,0:0:0:0:
181,345,25895,6,0,L|271:339,1,90,2|8,0:0|0:0,0:0:0:0:
359,326,26477,2,0,P|389:268|370:205,1,135,2|0,0:0|3:0,0:0:0:0:
289,164,27205,2,0,P|258:106|277:43,1,135,0|2,3:0|0:0,0:0:0:0:
367,32,27933,1,8,0:0:0:0:
456,39,28225,6,0,L|462:129,1,90,6|8,0:0|0:0,0:0:0:0:
472,218,28807,2,0,P|414:248|351:229,1,135,2|0,0:0|3:0,0:0:0:0:
289,164,29535,2,0,P|226:144|168:175,1,135,0|2,3:0|0:0,0:0:0:0:
115,248,30263,1,8,0:0:0:0:
68,170,30555,6,0,L|62:80,1,90,2|8,0:0|0:0,0:0:0:0:
136,30,31137,2,0,P|193:60|256:41,1,135,2|0,0:0|3:0,0:0:0:0:
347,37,31865,2,0,P|419:113|384:227,1,225,0|8,3:0|0:0,0:0:0:0:
300,216,32885,6,0,L|210:210,1,90,6|8,0:0|0:0,0:0:0:0:
150,144,33467,2,0,P|120:201|139:264,1,135,2|0,0:0|3:0,0:0:0:0:
218,309,34196,2,0,L|352:317,1,135,0|8,3:0|3:0,0:0:0:0:
442,304,34924,1,4,3:0:0:0:
488,226,35215,5,2,3:0:0:0:
439,150,35506,1,2,3:0:0:0:
506,91,35797,2,0,P|449:61|386:80,1,135,2|10,3:0|0:0,0:0:0:0:
332,155,36526,2,0,P|275:185|212:166,1,135,10|10,0:0|0:0,0:0:0:0:
