osu file format v14

[General]
AudioFilename: audio.mp3
AudioLeadIn: 0
PreviewTime: 58097
Countdown: 0
SampleSet: Soft
StackLeniency: 0.7
Mode: 0
LetterboxInBreaks: 0
WidescreenStoryboard: 0

[Editor]
Bookmarks: 14304,21546,24994,49132,67753,74649
DistanceSpacing: 1.6
BeatDivisor: 4
GridSize: 32
TimelineZoom: 2.1

[Metadata]
Title:Against the Sun
TitleUnicode:Against the Sun
Artist:Rootkit ft. Anna Yvette
ArtistUnicode:Rootkit ft. Anna Yvette
Creator:_Fail
Version:Sunset
Source:
Tags:Drumstep Eletronic
BeatmapID:1920719
BeatmapSetID:919698

[Difficulty]
HPDrainRate:8
CircleSize:4
OverallDifficulty:8
ApproachRate:9.2
SliderMultiplier:1.6
SliderTickRate:1

[Events]
//Background and Video events
0,0,"45397_anime_scenery_girl_and_sunset.jpg",0,0
//Break Periods
2,36228,42872
//Storyboard Layer 0 (Background)
//Storyboard Layer 1 (Fail)
//Storyboard Layer 2 (Pass)
//Storyboard Layer 3 (Foreground)
//Storyboard Sound Samples

[TimingPoints]
13960,344.827586206897,4,2,0,60,1,0
28442,-100,4,3,0,60,0,0
30511,-100,4,2,0,60,0,0
47063,-80,4,1,0,60,0,1
49132,-200,4,2,0,60,0,0
49132,-80,4,2,0,60,0,0
49649,-80,4,1,0,60,0,0
54649,-200,4,2,0,60,0,0
55166,-80,4,1,0,60,0,0
56718,-80,4,2,0,60,0,0
57235,-80,4,1,0,60,0,0
58097,-80,4,1,0,60,0,1
60166,-200,4,2,0,60,0,1
60856,-80,4,1,0,60,0,1
65684,-80,4,2,0,60,0,1
66373,-80,4,1,0,60,0,0
74649,-80,4,1,0,50,0,0
76718,-80,4,2,0,40,0,0
77408,-80,4,1,0,20,0,0

[Colours]
Combo1 : 255,169,128
Combo2 : 255,128,64
Combo3 : 176,0,0
Combo4 : 255,224,9

[HitObjects]
424,64,13960,5,8,0:0:0:0:
318,182,14304,5,0,0:0:0:0:
248,248,14477,1,0,0:0:0:0:
195,82,14649,2,0,B|146:82|122:125|122:125|42:112,1,160,8|0,0:0|0:0,0:0:0:0:
196,168,15166,1,0,0:0:0:0:
140,248,15339,2,0,L|48:248,1,80
196,336,15684,1,8,0:0:0:0:
248,248,15856,1,0,0:0:0:0:
112,336,16028,1,0,0:0:0:0:
284,336,16373,1,0,0:0:0:0:
372,297,16546,5,0,0:0:0:0:
433,223,16718,2,0,P|457:184|458:143,1,80
362,156,17063,1,0,0:0:0:0:
198,206,17235,2,0,P|215:241|247:264,1,80
283,183,17580,1,0,0:0:0:0:
142,136,17753,1,0,0:0:0:0:
49,160,17925,1,0,0:0:0:0:
12,248,18097,6,0,B|52:266|93:246|93:246|109:294|142:302,1,160
230,337,18615,1,0,0:0:0:0:
319,302,18787,2,0,B|350:294|366:246|366:246|407:266|447:248,1,160
434,38,19477,5,10,0:0:0:0:
407,178,19822,1,0,0:0:0:0:
504,15,20166,1,0,0:0:0:0:
339,216,20511,1,0,0:0:0:0:
360,122,20684,1,0,0:0:0:0:
453,103,20856,2,0,P|498:172|469:248,1,160
315,346,21546,5,8,0:0:0:0:
220,328,21718,1,0,0:0:0:0:
163,250,21891,2,0,B|150:209|177:172,1,80,8|0,0:0|0:0,0:0:0:0:
63,103,22235,2,8,B|115:122|115:122|149:81|211:100,1,160
300,118,22753,1,0,0:0:0:0:
383,186,22925,2,0,P|370:258|296:292,1,160
228,180,23442,6,0,L|305:210,1,80,0|8,0:0|0:0,0:0:0:0:
441,291,23787,1,0,0:0:0:0:
236,341,23960,2,0,B|206:303|226:261,1,80,8|0,0:0|0:0,0:0:0:0:
138,262,24304,2,8,P|182:191|255:187,1,160
353,130,24994,5,8,0:0:0:0:
313,47,25166,1,0,0:0:0:0:
410,59,25339,2,0,P|437:89|443:141,1,80
290,197,25684,1,8,0:0:0:0:
353,130,25856,1,0,0:0:0:0:
375,225,26029,2,0,P|356:260|309:284,1,80
164,312,26374,5,0,0:0:0:0:
93,246,26546,1,0,0:0:0:0:
1,266,26718,2,0,P|1:230|21:186,1,80
106,58,27063,1,12,0:0:0:0:
465,77,27580,5,0,0:0:0:0:
353,37,27753,2,0,B|308:35|275:63,1,80
268,155,28097,2,0,B|313:157|346:129,1,80
353,37,28442,5,12,0:0:0:0:
161,30,28787,1,12,0:0:0:0:
268,155,29132,5,12,0:0:0:0:
353,37,29304,1,0,0:0:0:0:
161,30,29477,2,0,P|120:49|97:80,1,80
19,122,29822,2,0,P|44:152|81:167,1,80
192,192,30166,1,4,0:0:0:0:
192,192,30511,5,10,0:0:0:0:
383,355,30856,1,0,0:0:0:0:
405,162,31201,1,0,0:0:0:0:
256,288,31546,1,0,0:0:0:0:
192,192,31718,1,0,0:0:0:0:
96,288,31891,2,0,B|113:245|113:245|76:194|111:139,1,160
165,59,32408,5,0,0:0:0:0:
256,30,32580,2,0,P|303:31|338:44,1,80,8|0,0:0|0:0,0:0:0:0:
415,92,32925,1,8,0:0:0:0:
449,181,33097,1,0,0:0:0:0:
435,276,33270,2,8,B|404:323|404:323|365:305|365:305|344:335|302:343,1,160
220,323,33788,1,0,0:0:0:0:
156,247,33960,2,0,P|229:223|297:262,1,160
316,339,34477,1,0,0:0:0:0:
220,323,34649,2,0,P|181:345|137:345,1,80,0|8,0:0|0:0,0:0:0:0:
82,271,34994,2,0,P|121:249|165:249,1,80,0|8,0:0|0:0,0:0:0:0:
296,261,35339,5,8,0:0:0:0:
403,212,35511,1,0,0:0:0:0:
429,184,35597,1,0,0:0:0:0:
439,143,35683,1,0,0:0:0:0:
428,22,35856,1,0,0:0:0:0:
428,22,36028,1,0,0:0:0:0:
256,192,43442,12,0,46373,0:0:0:0:
186,47,47063,5,8,0:0:0:0:
152,187,47235,1,0,0:0:0:0:
295,152,47408,1,8,0:0:0:0:
186,47,47580,1,0,0:0:0:0:
73,192,47753,2,0,P|94:240|150:268,1,100,8|0,0:0|0:0,0:0:0:0:
384,323,48097,2,0,L|287:302,1,100,8|0,0:0|0:0,0:0:0:0:
499,210,48442,2,0,B|492:168|492:168|498:149|498:149|489:102,1,100,8|0,0:0|0:0,0:0:0:0:
334,76,48787,2,0,P|383:76|424:48,1,100,8|0,0:0|0:0,0:0:0:0:
267,152,49132,5,0,0:0:0:0:
248,178,49218,1,0,0:0:0:0:
229,203,49304,1,0,0:0:0:0:
137,350,49476,1,0,0:0:0:0:
156,324,49563,1,0,0:0:0:0:
174,297,49649,1,0,0:0:0:0:
61,269,49822,6,0,P|25:230|19:179,1,105.000004005432,8|0,0:0|0:0,0:0:0:0:
109,35,50166,2,0,P|59:50|27:91,1,105.000004005432,8|0,0:0|0:0,0:0:0:0:
61,269,50511,1,8,0:0:0:0:
108,118,50684,1,0,0:0:0:0:
0,319,50856,1,0,0:0:0:0:
121,190,51028,1,0,0:0:0:0:
133,341,51201,6,0,B|146:283|200:257,1,100,8|0,0:0|0:0,0:0:0:0:
357,152,51546,1,8,0:0:0:0:
217,339,51718,1,0,0:0:0:0:
283,169,51891,1,8,0:0:0:0:
291,318,52063,1,0,0:0:0:0:
258,98,52235,2,0,P|218:128|206:180,1,100,8|0,0:0|0:0,0:0:0:0:
122,183,52580,6,0,P|138:229|177:258,1,100,8|0,0:0|0:0,0:0:0:0:
435,196,52925,2,0,P|411:239|367:262,1,100,8|0,0:0|0:0,0:0:0:0:
181,336,53270,1,0,0:0:0:0:
272,189,53442,1,0,0:0:0:0:
356,341,53615,1,0,0:0:0:0:
178,234,53787,1,0,0:0:0:0:
360,236,53960,2,0,P|398:270|461:263,1,100
461,102,54304,2,0,L|424:198,1,100
354,64,54649,5,0,0:0:0:0:
333,88,54735,1,0,0:0:0:0:
312,112,54821,1,0,0:0:0:0:
255,54,54993,1,0,0:0:0:0:
238,81,55080,1,0,0:0:0:0:
219,109,55166,1,0,0:0:0:0:
181,237,55339,6,0,P|191:284|234:317,1,100
357,239,55684,2,0,L|235:247,1,100
46,287,56028,1,0,0:0:0:0:
197,380,56201,1,0,0:0:0:0:
227,172,56373,1,0,0:0:0:0:
46,287,56546,1,0,0:0:0:0:
264,280,56718,6,0,L|312:251,2,50
393,300,57063,2,0,L|348:323,2,50
46,287,58097,5,0,0:0:0:0:
59,46,58270,2,0,B|85:100|85:100|118:123,1,100
269,149,58615,1,0,0:0:0:0:
152,51,58787,1,0,0:0:0:0:
344,175,58960,1,0,0:0:0:0:
59,46,59132,1,0,0:0:0:0:
202,184,59304,2,0,B|233:234|295:222,1,100
435,235,59649,1,0,0:0:0:0:
368,67,59822,1,0,0:0:0:0:
455,164,59994,1,0,0:0:0:0:
304,30,60166,5,0,0:0:0:0:
288,58,60253,1,0,0:0:0:0:
274,86,60339,1,0,0:0:0:0:
203,215,60511,1,0,0:0:0:0:
221,188,60597,1,0,0:0:0:0:
237,160,60684,1,0,0:0:0:0:
152,283,60856,6,0,B|128:334|68:339,1,100
0,201,61201,2,0,B|25:251|84:257,1,100
232,298,61546,5,0,0:0:0:0:
79,163,61718,1,0,0:0:0:0:
263,229,61891,1,0,0:0:0:0:
78,240,62063,1,0,0:0:0:0:
324,287,62235,2,0,B|357:240|337:193,1,100
291,61,62580,1,0,0:0:0:0:
414,153,62753,1,0,0:0:0:0:
232,15,62925,6,0,P|217:61|259:129,1,100
336,192,63270,1,0,0:0:0:0:
212,311,63442,1,0,0:0:0:0:
395,266,63615,1,0,0:0:0:0:
256,163,63787,1,0,0:0:0:0:
352,349,63960,1,0,0:0:0:0:
187,226,64132,1,0,0:0:0:0:
395,266,64304,2,0,P|373:216|335:192,1,100
165,124,64649,2,0,L|266:168,1,100
453,207,64994,5,0,0:0:0:0:
316,267,65166,1,0,0:0:0:0:
380,30,65339,2,0,B|394:81|357:123,1,100
244,216,65684,1,0,0:0:0:0:
244,216,65770,1,0,0:0:0:0:
244,216,65856,1,0,0:0:0:0:
162,267,66028,1,0,0:0:0:0:
162,267,66114,1,0,0:0:0:0:
162,267,66200,1,0,0:0:0:0:
0,284,66373,6,0,P|6:230|32:195,1,100
163,60,66718,1,0,0:0:0:0:
76,259,66891,1,0,0:0:0:0:
119,117,67063,1,0,0:0:0:0:
152,308,67235,2,0,P|164:263|143:208,1,100
81,44,67580,1,0,0:0:0:0:
196,154,67753,6,0,B|254:154|254:154|279:105|279:105|307:149|367:142,1,200
497,189,68270,1,0,0:0:0:0:
347,69,68442,2,0,L|318:186,2,100
359,235,68960,2,0,B|291:262|253:198|253:198|181:230,1,200
322,166,69477,1,0,0:0:0:0:
221,342,69649,5,0,0:0:0:0:
253,198,69822,1,0,0:0:0:0:
310,362,69995,1,0,0:0:0:0:
194,150,70166,1,0,0:0:0:0:
145,363,70339,1,0,0:0:0:0:
266,123,70512,1,0,0:0:0:0:
172,278,70684,1,0,0:0:0:0:
207,71,70856,2,0,P|155:80|120:120,1,100
0,224,71201,6,0,P|35:214|54:196,2,50
167,202,71546,2,0,P|132:212|113:230,2,50
51,358,71891,1,0,0:0:0:0:
123,112,72063,1,0,0:0:0:0:
279,312,72235,1,0,0:0:0:0:
167,202,72408,1,0,0:0:0:0:
358,302,72580,2,0,P|334:255|291:234,1,100
290,108,72925,2,0,P|314:155|357:176,1,100
102,168,73270,5,0,0:0:0:0:
218,45,73442,1,0,0:0:0:0:
283,253,73615,1,0,0:0:0:0:
102,168,73787,1,0,0:0:0:0:
327,42,73960,2,0,P|361:71|366:127,1,100
208,165,74304,2,0,L|299:103,1,100
99,60,74649,5,8,0:0:0:0:
65,200,74821,1,0,0:0:0:0:
208,165,74994,1,8,0:0:0:0:
99,60,75166,1,0,0:0:0:0:
147,227,75339,2,0,P|168:275|224:303,1,100,8|0,0:0|0:0,0:0:0:0:
401,342,75683,2,0,L|304:321,1,100,8|0,0:0|0:0,0:0:0:0:
75,264,76028,2,0,B|68:222|68:222|74:203|74:203|65:156,1,100,8|0,0:0|0:0,0:0:0:0:
124,31,76373,2,0,B|131:73|131:73|125:92|125:92|134:139,1,100,8|0,0:0|0:0,0:0:0:0:
168,319,76718,5,0,0:0:0:0:
168,319,76804,1,0,0:0:0:0:
168,319,76890,1,0,0:0:0:0:
315,287,77062,1,0,0:0:0:0:
315,287,77149,1,0,0:0:0:0:
315,287,77235,1,0,0:0:0:0:
147,227,77408,6,0,P|170:184|219:159,1,100,8|0,0:0|0:0,0:0:0:0:
232,81,77753,2,0,P|275:105|299:149,1,100,8|0,0:0|0:0,0:0:0:0:
335,361,78097,1,0,0:0:0:0:
228,235,78270,1,0,0:0:0:0:
422,338,78442,1,0,0:0:0:0:
313,235,78615,1,0,0:0:0:0:
467,273,78787,1,0,0:0:0:0:
