osu file format v14

[General]
AudioFilename: 1.mp3
AudioLeadIn: 0
PreviewTime: 42812
Countdown: 0
SampleSet: Soft
StackLeniency: 0.7
Mode: 0
LetterboxInBreaks: 0
WidescreenStoryboard: 0

[Editor]
Bookmarks: 31778,40743,55226,77295,88329,109019,142122,143502,154536,165571,179416,198726
DistanceSpacing: 1.2
BeatDivisor: 4
GridSize: 8
TimelineZoom: 1.2

[Metadata]
Title:Do It
TitleUnicode:Do It
Artist:Rootkit
ArtistUnicode:Rootkit
Creator:Come[Back]Home
Version:Extra
Source:
Tags:dance music electronic drumstep dnb drum and bass cbh monstercat kashif rootkitmusic fall _tranquility mimari william k cbh
BeatmapID:960016
BeatmapSetID:447087

[Difficulty]
HPDrainRate:6.5
CircleSize:4.3
OverallDifficulty:8.5
ApproachRate:9.3
SliderMultiplier:1.8
SliderTickRate:2

[Events]
//Background and Video events
0,0,"bg.png",0,0
//Break Periods
2,88529,109844
//Storyboard Layer 0 (Background)
//Storyboard Layer 1 (Fail)
//Storyboard Layer 2 (Pass)
//Storyboard Layer 3 (Foreground)
//Storyboard Layer 4 (Overlay)
//Storyboard Sound Samples

[TimingPoints]
54,344.827586206897,4,2,1,70,1,0
31778,-100,4,2,2,70,0,0
44191,-90.9090909090909,4,2,1,70,0,0
69019,-100,4,2,1,70,0,0
70829,-100,4,2,1,5,0,0
70916,-100,4,2,1,70,0,0
72726,-100,4,2,1,5,0,0
72812,-100,4,2,1,70,0,0
76347,-100,4,2,1,5,0,0
76433,-100,4,2,1,70,0,0
78243,-100,4,2,1,5,0,0
78329,-100,4,2,1,70,0,0
110398,-250,4,2,0,70,0,0
121433,-100,4,2,2,70,0,0
132467,-83.3333333333333,4,2,1,70,0,1
154536,-90.9090909090909,4,2,1,70,0,0
179364,-100,4,2,1,70,0,0
180657,-100,4,2,1,5,0,0
180743,-100,4,2,1,70,0,0
183416,-100,4,2,1,5,0,0
183502,-100,4,2,1,70,0,0
188933,-100,4,2,1,5,0,0
189019,-100,4,2,1,70,0,0
191691,-100,4,2,1,5,0,0
191778,-100,4,2,1,70,0,0
194450,-100,4,2,1,5,0,0
194536,-100,4,2,1,70,0,0

[Colours]
Combo1 : 128,0,0
Combo2 : 255,128,64
Combo3 : 255,128,128
Combo4 : 128,64,0

[HitObjects]
46,205,33157,6,0,L|36:109,1,90,8|0,0:0|0:0,0:0:0:0:
24,7,33502,1,2,0:0:0:0:
147,247,33674,6,0,L|137:151,1,90,8|0,0:0|0:0,0:0:0:0:
125,49,34019,1,2,0:0:0:0:
246,290,34191,6,0,L|236:194,1,90,8|0,0:0|0:0,0:0:0:0:
224,92,34536,1,2,0:0:0:0:
346,334,34709,6,0,L|336:238,1,90,8|0,0:0|0:0,0:0:0:0:
324,136,35054,1,2,0:0:0:0:
452,373,35226,6,0,L|442:277,1,90,8|0,0:0|0:0,0:0:0:0:
36,115,35571,2,0,L|46:205,1,90,8|0,0:0|0:0,0:0:0:0:
246,79,35916,5,8,0:0:0:0:
352,97,36088,1,0,0:0:0:0:
271,83,36260,1,2,0:0:0:0:
452,41,36433,5,8,0:0:0:0:
471,146,36605,1,0,0:0:0:0:
456,64,36778,1,2,0:0:0:0:
358,212,36950,5,8,0:0:0:0:
459,247,37122,1,0,0:0:0:0:
380,221,37295,1,2,0:0:0:0:
211,323,37467,5,8,0:0:0:0:
230,216,37640,1,0,0:0:0:0:
216,297,37812,1,2,0:0:0:0:
74,167,37985,5,8,0:0:0:0:
169,117,38157,1,0,0:0:0:0:
101,254,38329,5,8,0:0:0:0:
95,64,38502,1,0,0:0:0:0:
365,171,38674,6,0,L|266:177,1,90,8|0,0:0|0:0,0:0:0:0:
185,182,39019,2,0,L|274:176,1,90,8|0,0:0|0:0,0:0:0:0:
125,241,39364,2,0,P|103:197|109:146,1,90,8|0,0:0|0:0,0:0:0:0:
424,115,39709,2,0,P|446:159|440:210,1,90,8|0,0:0|0:0,0:0:0:0:
250,64,40054,5,8,0:0:0:0:
353,32,40226,1,0,0:0:0:0:
232,72,40398,5,8,0:0:0:0:
426,83,40571,1,0,0:0:0:0:
215,212,40743,5,8,0:0:0:0:
318,180,40915,1,0,0:0:0:0:
197,220,41087,5,8,0:0:0:0:
391,231,41260,1,0,0:0:0:0:
150,334,41433,5,8,0:0:0:0:
123,113,41605,1,8,0:0:0:0:
150,342,41778,1,8,0:0:0:0:
121,102,41950,1,8,0:0:0:0:
336,217,42122,5,8,0:0:0:0:
166,191,42295,1,8,0:0:0:0:
226,31,42467,1,8,0:0:0:0:
396,57,42640,1,8,0:0:0:0:
94,106,42812,5,2,0:0:0:0:
185,336,42985,1,8,0:0:0:0:
188,347,43329,1,2,0:0:0:0:
282,146,43502,5,8,0:0:0:0:
256,155,43674,1,2,0:0:0:0:
294,246,43847,1,2,0:0:0:0:
148,208,44019,1,8,0:0:0:0:
386,153,44191,6,0,L|494:174,2,99.0000030212403,2|0|0,0:0|0:0|0:0,0:0:0:0:
322,51,44709,2,0,L|214:72,1,99.0000030212403,0|8,0:0|0:0,0:0:0:0:
108,93,45054,5,2,0:0:0:0:
76,207,45226,1,0,0:0:0:0:
110,81,45398,1,0,0:0:0:0:
270,187,45571,5,2,0:0:0:0:
154,160,45743,1,0,0:0:0:0:
37,134,45916,1,0,0:0:0:0:
250,185,46088,1,2,0:0:0:0:
53,138,46260,1,8,0:0:0:0:
179,43,46433,5,0,0:0:0:0:
130,238,46605,1,0,0:0:0:0:
74,24,46778,1,0,0:0:0:0:
325,105,46950,6,0,P|381:96|429:61,2,99.0000030212403,2|0|0,0:0|0:0|0:0,0:0:0:0:
205,105,47467,2,0,P|149:114|101:149,1,99.0000030212403,0|8,0:0|0:0,0:0:0:0:
70,247,47812,5,0,0:0:0:0:
180,292,47985,1,2,0:0:0:0:
86,365,48157,1,0,0:0:0:0:
275,135,48329,5,2,0:0:0:0:
348,297,48502,1,0,0:0:0:0:
453,154,48674,1,0,0:0:0:0:
288,223,48847,1,0,0:0:0:0:
471,145,49019,1,8,0:0:0:0:
426,276,49191,5,0,0:0:0:0:
369,97,49364,1,0,0:0:0:0:
347,315,49536,1,0,0:0:0:0:
277,132,49709,6,0,L|176:140,1,99.0000030212403,2|0,0:0|0:0,0:0:0:0:
59,152,50054,1,0,0:0:0:0:
112,45,50226,1,0,0:0:0:0:
128,246,50398,1,8,0:0:0:0:
324,192,50571,5,2,0:0:0:0:
261,292,50743,1,0,0:0:0:0:
332,176,50916,1,0,0:0:0:0:
485,381,51088,5,2,0:0:0:0:
471,263,51260,1,0,0:0:0:0:
457,144,51433,1,0,0:0:0:0:
444,26,51605,1,2,0:0:0:0:
469,245,51778,1,8,0:0:0:0:
319,121,51950,5,0,0:0:0:0:
435,140,52122,1,0,0:0:0:0:
246,181,52295,1,0,0:0:0:0:
364,357,52467,6,0,P|383:310|379:252,2,99.0000030212403,2|0|0,0:0|0:0|0:0,0:0:0:0:
146,119,52985,2,0,P|127:166|131:224,1,99.0000030212403,0|8,0:0|0:0,0:0:0:0:
340,62,53329,5,0,0:0:0:0:
247,137,53502,1,2,0:0:0:0:
328,74,53674,1,0,0:0:0:0:
450,219,53847,5,2,0:0:0:0:
310,88,54019,1,0,0:0:0:0:
363,308,54191,1,0,0:0:0:0:
436,60,54364,1,0,0:0:0:0:
227,241,54536,1,8,0:0:0:0:
410,143,54709,5,0,0:0:0:0:
292,154,54881,1,0,0:0:0:0:
173,164,55054,1,0,0:0:0:0:
410,143,55226,6,0,L|506:169,2,99.0000030212403,2|0|0,0:0|0:0|0:0,0:0:0:0:
88,73,55743,2,0,L|184:47,1,99.0000030212403,0|8,0:0|0:0,0:0:0:0:
298,14,56088,5,2,0:0:0:0:
258,179,56260,1,0,0:0:0:0:
295,33,56433,1,0,0:0:0:0:
380,283,56605,5,2,0:0:0:0:
261,275,56778,1,0,0:0:0:0:
142,265,56950,1,0,0:0:0:0:
23,256,57122,1,2,0:0:0:0:
241,275,57295,1,8,0:0:0:0:
90,157,57467,5,0,0:0:0:0:
124,340,57640,1,0,0:0:0:0:
191,102,57812,1,0,0:0:0:0:
45,256,57985,5,2,0:0:0:0:
215,206,58157,1,0,0:0:0:0:
5,162,58329,1,0,0:0:0:0:
194,206,58502,1,0,0:0:0:0:
86,22,58674,1,8,0:0:0:0:
132,306,58847,5,0,0:0:0:0:
194,206,59019,1,2,0:0:0:0:
142,292,59191,1,0,0:0:0:0:
81,117,59364,5,2,0:0:0:0:
197,93,59536,1,0,0:0:0:0:
314,70,59709,1,0,0:0:0:0:
429,44,59881,1,0,0:0:0:0:
329,233,60054,1,8,0:0:0:0:
487,147,60226,5,0,0:0:0:0:
351,224,60398,1,0,0:0:0:0:
429,44,60571,1,0,0:0:0:0:
468,259,60743,6,0,L|449:363,2,99.0000030212403,2|0|0,0:0|0:0|0:0,0:0:0:0:
132,276,61260,2,0,L|114:178,1,99.0000030212403,0|8,0:0|0:0,0:0:0:0:
302,138,61605,5,2,0:0:0:0:
194,87,61778,1,0,0:0:0:0:
86,36,61950,1,0,0:0:0:0:
389,52,62122,5,2,0:0:0:0:
418,230,62295,1,0,0:0:0:0:
490,15,62467,1,0,0:0:0:0:
372,147,62640,1,2,0:0:0:0:
501,358,62812,1,8,0:0:0:0:
327,310,62985,5,0,0:0:0:0:
488,264,63157,1,0,0:0:0:0:
255,238,63329,1,0,0:0:0:0:
414,360,63502,5,2,0:0:0:0:
398,242,63674,1,0,0:0:0:0:
382,123,63847,1,0,0:0:0:0:
368,5,64019,1,0,0:0:0:0:
395,228,64191,1,8,0:0:0:0:
200,162,64364,5,0,0:0:0:0:
265,309,64536,1,2,0:0:0:0:
289,79,64709,1,0,0:0:0:0:
155,261,64881,5,2,0:0:0:0:
137,269,65226,1,2,0:0:0:0:
249,232,65398,1,2,0:0:0:0:
447,305,65571,5,8,0:0:0:0:
267,226,65743,1,2,0:0:0:0:
415,57,65916,5,8,0:0:0:0:
443,289,66088,1,2,0:0:0:0:
130,43,66260,1,8,0:0:0:0:
256,192,66347,12,0,68847,0:0:0:0:
383,345,69019,6,0,B|365:264|365:264|392:184|392:184|359:80,1,270,2|0,0:0|0:0,0:0:0:0:
260,44,69709,1,8,0:0:0:0:
494,84,69881,1,2,0:0:0:0:
210,133,70054,1,0,0:0:0:0:
158,38,70226,1,0,0:0:0:0:
40,302,70398,6,0,L|269:328,1,225,2|0,0:0|0:0,0:0:0:0:
290,332,70916,1,2,0:0:0:0:
251,97,71088,1,8,0:0:0:0:
431,208,71260,1,0,0:0:0:0:
392,309,71433,1,0,0:0:0:0:
498,294,71605,1,0,0:0:0:0:
320,148,71778,6,0,P|262:183|196:34,1,270,2|0,0:0|0:0,0:0:0:0:
442,46,72467,2,0,L|452:191,1,135,8|0,0:0|0:0,0:0:0:0:
439,287,72812,2,0,P|445:242|466:203,1,90,2|0,0:0|0:0,0:0:0:0:
289,0,73157,6,0,P|313:45|338:266,1,270,2|0,0:0|0:0,0:0:0:0:
309,363,73847,1,8,0:0:0:0:
162,243,74019,1,0,0:0:0:0:
54,245,74191,1,0,0:0:0:0:
173,270,74364,1,0,0:0:0:0:
40,91,74536,6,0,B|175:35|175:139|330:68,1,270,2|0,0:0|0:0,0:0:0:0:
406,45,75226,1,8,0:0:0:0:
449,278,75398,1,2,0:0:0:0:
283,186,75571,1,0,0:0:0:0:
390,194,75743,1,0,0:0:0:0:
83,338,75916,6,0,B|124:283|124:283|118:112,1,225,2|0,0:0|0:0,0:0:0:0:
118,99,76433,1,2,0:0:0:0:
374,111,76605,1,8,0:0:0:0:
280,275,76778,1,0,0:0:0:0:
363,130,76950,1,0,0:0:0:0:
270,293,77122,1,0,0:0:0:0:
316,70,77295,6,0,L|217:60,1,90,2|0,0:0|0:0,0:0:0:0:
56,41,77640,2,0,L|145:50,1,90,0|0,0:0|0:0,0:0:0:0:
409,8,77985,2,0,L|426:164,1,135,8|0,0:0|0:0,0:0:0:0:
417,257,78329,2,0,L|427:168,1,90,2|0,0:0|0:0,0:0:0:0:
498,358,78674,6,0,B|424:341|424:341|315:353|315:353|233:327,1,270,2|0,0:0|0:0,0:0:0:0:
136,281,79364,1,8,0:0:0:0:
256,136,79536,1,0,0:0:0:0:
362,155,79709,1,0,0:0:0:0:
295,239,79881,1,0,0:0:0:0:
120,116,80054,6,0,L|106:12,2,90,2|0|0,0:0|0:0|0:0,0:0:0:0:
131,223,80571,1,0,0:0:0:0:
211,150,80743,1,8,0:0:0:0:
439,218,80916,1,2,0:0:0:0:
340,56,81088,1,0,0:0:0:0:
328,163,81260,1,0,0:0:0:0:
439,309,81433,6,0,P|485:299|522:250,2,90,2|0|0,0:0|0:0|0:0,0:0:0:0:
330,311,81950,1,2,0:0:0:0:
439,101,82122,1,8,0:0:0:0:
242,179,82295,1,0,0:0:0:0:
349,174,82467,1,0,0:0:0:0:
222,204,82640,1,0,0:0:0:0:
70,54,82812,6,0,L|97:233,1,180,2|0,0:0|0:0,0:0:0:0:
113,339,83329,1,0,0:0:0:0:
184,3,83502,2,0,L|203:131,1,90,8|0,0:0|0:0,0:0:0:0:
227,288,83847,2,0,L|213:198,1,90,2|0,0:0|0:0,0:0:0:0:
113,160,84191,6,0,L|381:118,1,270,2|0,0:0|0:0,0:0:0:0:
486,97,84881,1,8,0:0:0:0:
413,256,85054,1,0,0:0:0:0:
410,363,85226,1,0,0:0:0:0:
506,314,85398,1,0,0:0:0:0:
233,220,85571,5,2,0:0:0:0:
256,192,85657,12,0,88329,0:0:0:0:
448,63,110398,6,0,L|452:98,1,36,2|0,0:0|0:0,0:0:0:0:
335,108,110743,2,0,L|330:143,1,36,0|0,0:0|0:0,0:0:0:0:
177,108,111088,2,0,L|181:143,1,36,0|0,0:0|0:0,0:0:0:0:
64,63,111433,2,0,L|59:98,1,36,0|0,0:0|0:0,0:0:0:0:
64,224,111778,6,0,L|59:188,1,36,0|0,0:0|0:0,0:0:0:0:
177,179,112123,2,0,L|181:143,1,36,0|0,0:0|0:0,0:0:0:0:
335,179,112468,2,0,L|330:143,1,36,0|0,0:0|0:0,0:0:0:0:
448,224,112813,2,0,L|452:188,1,36,0|0,0:0|0:0,0:0:0:0:
365,327,113157,5,2,0:0:0:0:
286,316,113329,1,0,0:0:0:0:
169,234,113502,1,0,0:0:0:0:
248,245,113674,1,0,0:0:0:0:
366,320,113847,1,0,0:0:0:0:
287,309,114019,1,0,0:0:0:0:
170,227,114192,1,0,0:0:0:0:
249,238,114364,1,0,0:0:0:0:
423,122,114536,5,0,0:0:0:0:
434,43,114708,1,0,0:0:0:0:
352,160,114881,1,0,0:0:0:0:
341,239,115053,1,0,0:0:0:0:
416,121,115226,1,0,0:0:0:0:
427,42,115398,1,0,0:0:0:0:
345,159,115571,1,0,0:0:0:0:
334,238,115743,1,0,0:0:0:0:
252,57,115916,6,0,L|216:61,1,36,2|0,0:0|0:0,0:0:0:0:
328,75,116260,1,0,0:0:0:0:
339,73,116433,1,0,0:0:0:0:
161,159,116605,2,0,L|125:163,1,36,0|0,0:0|0:0,0:0:0:0:
237,177,116949,1,0,0:0:0:0:
248,175,117122,1,0,0:0:0:0:
398,158,117295,5,0,0:0:0:0:
396,169,117468,1,0,0:0:0:0:
446,297,117640,1,0,0:0:0:0:
444,286,117813,1,0,0:0:0:0:
293,127,117985,1,0,0:0:0:0:
291,138,118158,1,0,0:0:0:0:
341,266,118330,1,0,0:0:0:0:
339,255,118503,1,0,0:0:0:0:
260,327,118674,6,0,L|295:322,1,36,2|0,0:0|0:0,0:0:0:0:
184,309,119018,1,0,0:0:0:0:
173,311,119191,1,0,0:0:0:0:
351,225,119363,2,0,L|386:220,1,36,0|0,0:0|0:0,0:0:0:0:
275,207,119709,1,0,0:0:0:0:
264,209,119880,1,0,0:0:0:0:
114,226,120053,5,0,0:0:0:0:
116,215,120226,1,0,0:0:0:0:
66,87,120398,1,0,0:0:0:0:
68,98,120571,1,0,0:0:0:0:
219,257,120743,1,0,0:0:0:0:
221,246,120916,1,0,0:0:0:0:
171,118,121088,1,0,0:0:0:0:
173,129,121261,1,0,0:0:0:0:
444,172,121433,6,0,L|258:161,1,180,8|2,0:0|0:0,0:0:0:0:
84,150,121950,2,0,L|264:161,1,180,8|2,0:0|0:0,0:0:0:0:
509,201,122467,2,0,L|323:190,1,180,8|2,0:0|0:0,0:0:0:0:
20,123,122985,2,0,L|199:133,1,180,8|2,0:0|0:0,0:0:0:0:
422,46,123502,2,0,L|434:162,1,90,8|0,0:0|0:0,0:0:0:0:
90,338,123847,2,0,L|78:222,1,90,8|0,0:0|0:0,0:0:0:0:
285,283,124191,5,8,0:0:0:0:
392,295,124364,1,0,0:0:0:0:
301,286,124536,1,2,0:0:0:0:
187,180,124709,5,8,0:0:0:0:
199,287,124881,1,0,0:0:0:0:
189,198,125054,1,2,0:0:0:0:
45,98,125226,5,8,0:0:0:0:
33,205,125398,1,0,0:0:0:0:
43,116,125571,1,2,0:0:0:0:
235,55,125743,5,8,0:0:0:0:
128,35,125916,1,0,0:0:0:0:
221,53,126088,1,2,0:0:0:0:
399,71,126260,5,8,0:0:0:0:
380,230,126433,1,0,0:0:0:0:
260,157,126605,5,8,0:0:0:0:
474,139,126778,1,0,0:0:0:0:
201,223,126950,6,0,P|174:171|178:130,1,90,8|0,0:0|0:0,0:0:0:0:
149,58,127295,2,0,P|176:110|172:151,1,90,8|0,0:0|0:0,0:0:0:0:
342,131,127640,2,0,P|304:154|259:156,1,90,8|0,0:0|0:0,0:0:0:0:
18,147,127985,2,0,P|55:123|100:121,1,90,8|0,0:0|0:0,0:0:0:0:
312,260,128329,5,8,0:0:0:0:
418,240,128502,1,0,0:0:0:0:
264,338,128674,5,8,0:0:0:0:
449,352,128847,1,0,0:0:0:0:
162,243,129019,5,8,0:0:0:0:
174,349,129191,1,0,0:0:0:0:
66,187,129364,5,8,0:0:0:0:
36,369,129536,1,0,0:0:0:0:
229,98,129709,5,8,0:0:0:0:
384,140,129881,1,8,0:0:0:0:
305,282,130054,1,8,0:0:0:0:
149,239,130226,1,8,0:0:0:0:
329,38,130398,5,8,0:0:0:0:
422,253,130571,1,8,0:0:0:0:
202,333,130743,1,8,0:0:0:0:
109,117,130916,1,8,0:0:0:0:
403,252,131088,5,2,0:0:0:0:
39,225,131261,1,8,0:0:0:0:
24,225,131605,1,2,0:0:0:0:
289,115,131778,5,8,0:0:0:0:
282,138,131950,1,2,0:0:0:0:
330,233,132122,1,2,0:0:0:0:
176,137,132295,1,8,0:0:0:0:
420,88,132467,5,2,0:0:0:0:
446,266,132640,1,0,0:0:0:0:
497,39,132812,1,8,0:0:0:0:
361,287,132985,1,0,0:0:0:0:
417,106,133157,1,0,0:0:0:0:
463,359,133329,1,2,0:0:0:0:
334,181,133502,1,8,0:0:0:0:
451,350,133674,1,0,0:0:0:0:
191,225,133847,5,2,0:0:0:0:
263,117,134019,1,0,0:0:0:0:
196,264,134191,1,8,0:0:0:0:
250,82,134364,1,0,0:0:0:0:
200,299,134536,1,0,0:0:0:0:
243,55,134709,1,2,0:0:0:0:
204,333,134881,1,8,0:0:0:0:
237,35,135054,1,0,0:0:0:0:
373,219,135226,5,2,0:0:0:0:
141,188,135398,1,0,0:0:0:0:
409,121,135571,1,8,0:0:0:0:
123,288,135743,1,0,0:0:0:0:
361,217,135916,1,0,0:0:0:0:
155,192,136088,1,2,0:0:0:0:
393,122,136260,1,8,0:0:0:0:
137,293,136433,1,0,0:0:0:0:
262,103,136605,5,2,0:0:0:0:
328,301,136778,1,0,0:0:0:0:
194,194,136950,1,8,0:0:0:0:
422,220,137122,1,0,0:0:0:0:
214,196,137295,1,0,0:0:0:0:
437,104,137467,1,2,0:0:0:0:
292,225,137640,1,8,0:0:0:0:
365,16,137812,1,0,0:0:0:0:
439,303,137985,5,2,0:0:0:0:
159,340,138157,1,0,0:0:0:0:
446,315,138329,1,8,0:0:0:0:
154,329,138502,1,0,0:0:0:0:
454,327,138674,1,0,0:0:0:0:
148,318,138847,1,2,0:0:0:0:
461,339,139019,1,8,0:0:0:0:
142,307,139191,1,0,0:0:0:0:
268,134,139364,5,2,0:0:0:0:
307,322,139536,1,0,0:0:0:0:
273,127,139709,1,8,0:0:0:0:
298,330,139881,1,0,0:0:0:0:
279,117,140054,1,0,0:0:0:0:
289,340,140226,1,2,0:0:0:0:
284,109,140398,1,8,0:0:0:0:
281,350,140571,1,0,0:0:0:0:
449,195,140743,5,2,0:0:0:0:
225,229,140916,1,0,0:0:0:0:
434,199,141088,1,8,0:0:0:0:
179,161,141260,1,0,0:0:0:0:
345,275,141433,1,0,0:0:0:0:
274,57,141605,1,2,0:0:0:0:
247,320,141778,1,8,0:0:0:0:
350,160,141950,1,0,0:0:0:0:
88,263,142122,5,2,0:0:0:0:
422,229,142295,1,0,0:0:0:0:
156,64,142467,1,8,0:0:0:0:
249,308,142640,1,0,0:0:0:0:
326,113,142812,1,0,0:0:0:0:
62,277,142985,1,2,0:0:0:0:
350,230,143157,1,8,0:0:0:0:
122,144,143329,1,0,0:0:0:0:
350,104,143502,5,2,0:0:0:0:
227,251,143674,1,0,0:0:0:0:
340,119,143847,1,8,0:0:0:0:
317,316,144019,1,0,0:0:0:0:
229,143,144191,1,0,0:0:0:0:
175,366,144364,1,2,0:0:0:0:
304,222,144536,1,8,0:0:0:0:
92,262,144709,1,0,0:0:0:0:
418,296,144881,5,2,0:0:0:0:
376,116,145054,1,0,0:0:0:0:
421,312,145226,1,8,0:0:0:0:
458,145,145398,1,0,0:0:0:0:
422,329,145571,1,0,0:0:0:0:
298,95,145743,1,2,0:0:0:0:
424,343,145916,1,8,0:0:0:0:
461,130,146088,1,0,0:0:0:0:
148,262,146260,5,2,0:0:0:0:
356,223,146433,1,0,0:0:0:0:
96,187,146605,1,8,0:0:0:0:
394,306,146778,1,0,0:0:0:0:
158,258,146950,1,0,0:0:0:0:
343,226,147122,1,2,0:0:0:0:
107,190,147295,1,8,0:0:0:0:
383,306,147467,1,0,0:0:0:0:
204,55,147640,5,2,0:0:0:0:
171,291,147812,1,0,0:0:0:0:
308,55,147985,1,8,0:0:0:0:
341,291,148157,1,0,0:0:0:0:
203,68,148329,1,0,0:0:0:0:
175,278,148502,1,2,0:0:0:0:
309,68,148674,1,8,0:0:0:0:
337,278,148847,1,0,0:0:0:0:
119,163,149019,5,2,0:0:0:0:
334,263,149191,1,0,0:0:0:0:
221,142,149364,1,8,0:0:0:0:
248,332,149536,1,0,0:0:0:0:
338,101,149709,1,0,0:0:0:0:
177,239,149881,1,2,0:0:0:0:
418,187,150054,1,8,0:0:0:0:
86,142,150226,1,0,0:0:0:0:
248,332,150398,5,2,0:0:0:0:
275,204,150571,1,0,0:0:0:0:
243,351,150743,1,8,0:0:0:0:
200,144,150916,1,0,0:0:0:0:
326,286,151088,1,0,0:0:0:0:
191,132,151260,1,2,0:0:0:0:
417,169,151433,1,8,0:0:0:0:
213,243,151605,1,0,0:0:0:0:
477,282,151778,5,2,0:0:0:0:
409,78,151950,1,0,0:0:0:0:
314,298,152122,1,8,0:0:0:0:
483,159,152295,1,0,0:0:0:0:
418,349,152467,1,0,0:0:0:0:
241,226,152640,1,2,0:0:0:0:
403,247,152812,1,8,0:0:0:0:
166,310,152985,1,0,0:0:0:0:
104,38,153157,5,2,0:0:0:0:
104,38,153329,1,0,0:0:0:0:
104,38,153502,1,0,0:0:0:0:
104,38,153674,1,0,0:0:0:0:
476,143,154019,1,0,0:0:0:0:
476,143,154192,1,0,0:0:0:0:
476,143,154364,1,0,0:0:0:0:
476,143,154536,6,0,L|369:154,2,99.0000030212403,2|0|0,0:0|0:0|0:0,0:0:0:0:
134,153,155054,2,0,L|36:143,1,99.0000030212403,0|8,0:0|0:0,0:0:0:0:
66,250,155398,5,2,0:0:0:0:
228,142,155571,1,0,0:0:0:0:
82,240,155743,1,0,0:0:0:0:
283,320,155916,5,2,0:0:0:0:
97,230,156088,1,0,0:0:0:0:
185,357,156260,1,0,0:0:0:0:
179,145,156433,1,2,0:0:0:0:
65,345,156605,1,8,0:0:0:0:
234,241,156778,5,0,0:0:0:0:
118,214,156950,1,0,0:0:0:0:
221,238,157122,1,0,0:0:0:0:
398,88,157295,6,0,P|417:142|451:187,2,99.0000030212403,2|0|0,0:0|0:0|0:0,0:0:0:0:
306,267,157812,2,0,P|287:321|253:366,1,99.0000030212403,0|8,0:0|0:0,0:0:0:0:
182,267,158157,5,0,0:0:0:0:
208,66,158329,1,2,0:0:0:0:
186,250,158502,1,0,0:0:0:0:
416,147,158674,5,2,0:0:0:0:
297,159,158847,1,0,0:0:0:0:
179,170,159019,1,0,0:0:0:0:
61,184,159191,1,0,0:0:0:0:
283,162,159364,1,8,0:0:0:0:
125,260,159536,5,0,0:0:0:0:
226,99,159709,1,0,0:0:0:0:
278,343,159881,1,0,0:0:0:0:
125,92,160054,6,0,P|148:39|200:5,2,99.0000030212403,2|0|0,0:0|0:0|0:0,0:0:0:0:
474,92,160571,2,0,L|376:104,1,99.0000030212403,0|8,0:0|0:0,0:0:0:0:
258,121,160916,5,2,0:0:0:0:
398,207,161088,1,0,0:0:0:0:
309,38,161260,1,0,0:0:0:0:
275,245,161433,5,2,0:0:0:0:
337,144,161605,1,0,0:0:0:0:
192,212,161778,1,0,0:0:0:0:
322,152,161950,1,2,0:0:0:0:
124,113,162122,1,8,0:0:0:0:
305,161,162295,5,0,0:0:0:0:
383,249,162467,1,0,0:0:0:0:
463,336,162640,1,0,0:0:0:0:
486,105,162812,6,0,L|472:-7,2,99.0000030212403,2|0|0,0:0|0:0|0:0,0:0:0:0:
216,199,163329,2,0,L|228:297,1,99.0000030212403,0|8,0:0|0:0,0:0:0:0:
101,105,163674,5,0,0:0:0:0:
215,72,163847,1,2,0:0:0:0:
89,109,164019,1,0,0:0:0:0:
296,158,164191,5,2,0:0:0:0:
141,31,164364,1,0,0:0:0:0:
193,249,164536,1,0,0:0:0:0:
274,65,164709,1,0,0:0:0:0:
86,194,164881,1,8,0:0:0:0:
361,247,165054,5,0,0:0:0:0:
213,143,165226,1,0,0:0:0:0:
268,338,165398,1,0,0:0:0:0:
442,132,165571,6,0,P|427:80|430:17,2,99.0000030212403,2|0|0,0:0|0:0|0:0,0:0:0:0:
181,110,166088,2,0,P|180:159|165:206,1,99.0000030212403,0|8,0:0|0:0,0:0:0:0:
126,319,166433,5,2,0:0:0:0:
30,249,166605,1,0,0:0:0:0:
136,328,166778,1,0,0:0:0:0:
323,332,166950,5,2,0:0:0:0:
406,168,167122,1,0,0:0:0:0:
330,318,167295,1,0,0:0:0:0:
294,108,167467,1,2,0:0:0:0:
413,267,167640,1,8,0:0:0:0:
192,222,167812,5,0,0:0:0:0:
309,199,167985,1,0,0:0:0:0:
425,177,168157,1,0,0:0:0:0:
228,109,168329,5,2,0:0:0:0:
292,318,168502,1,0,0:0:0:0:
224,96,168674,1,0,0:0:0:0:
297,334,168847,1,0,0:0:0:0:
320,32,169019,1,8,0:0:0:0:
195,195,169191,5,0,0:0:0:0:
398,155,169364,1,2,0:0:0:0:
214,191,169536,1,0,0:0:0:0:
483,14,169709,5,2,0:0:0:0:
472,132,169881,1,0,0:0:0:0:
460,250,170054,1,0,0:0:0:0:
450,368,170226,1,0,0:0:0:0:
471,147,170398,1,8,0:0:0:0:
225,268,170571,5,0,0:0:0:0:
341,245,170743,1,0,0:0:0:0:
140,212,170916,1,0,0:0:0:0:
359,249,171088,6,0,L|476:237,2,99.0000030212403,2|0|0,0:0|0:0|0:0,0:0:0:0:
145,123,171605,2,0,P|94:137|55:184,1,99.0000030212403,0|8,0:0|0:0,0:0:0:0:
278,149,171950,5,2,0:0:0:0:
320,38,172122,1,0,0:0:0:0:
343,202,172295,1,0,0:0:0:0:
234,68,172467,5,2,0:0:0:0:
399,117,172640,1,0,0:0:0:0:
166,140,172812,1,0,0:0:0:0:
385,122,172985,1,2,0:0:0:0:
137,45,173157,1,8,0:0:0:0:
250,250,173329,5,0,0:0:0:0:
277,134,173502,1,0,0:0:0:0:
303,18,173674,1,0,0:0:0:0:
253,235,173847,5,2,0:0:0:0:
414,179,174019,1,0,0:0:0:0:
189,162,174191,1,0,0:0:0:0:
399,179,174364,1,0,0:0:0:0:
248,77,174536,1,8,0:0:0:0:
352,259,174709,5,0,0:0:0:0:
375,142,174881,1,2,0:0:0:0:
398,25,175054,1,0,0:0:0:0:
479,347,175226,5,2,0:0:0:0:
479,347,175571,1,2,0:0:0:0:
363,320,175743,1,2,0:0:0:0:
144,264,175916,5,8,0:0:0:0:
345,315,176088,1,2,0:0:0:0:
219,35,176260,5,8,0:0:0:0:
149,244,176433,1,2,0:0:0:0:
478,54,176605,1,0,0:0:0:0:
256,192,176691,12,0,179191,0:0:0:0:
103,316,179364,5,2,0:0:0:0:
209,300,179536,1,0,0:0:0:0:
139,216,179709,1,0,0:0:0:0:
163,361,179881,1,0,0:2:0:0:
163,361,179967,1,0,0:0:0:0:
163,361,180054,1,8,0:0:0:0:
226,209,180226,1,0,0:0:0:0:
46,267,180398,2,0,L|39:127,1,135,2|0,0:0|0:0,0:0:0:0:
38,104,180743,6,0,L|137:111,1,90,2|0,0:0|0:0,0:0:0:0:
218,50,181088,1,0,0:0:0:0:
249,153,181260,1,0,0:0:0:0:
501,80,181433,2,0,L|322:73,1,180,8|0,0:0|0:0,0:0:0:0:
249,153,181950,1,0,0:0:0:0:
394,272,182122,5,2,0:0:0:0:
285,279,182295,1,0,0:0:0:0:
411,270,182467,1,0,0:0:0:0:
220,222,182640,1,0,0:0:0:0:
220,222,182726,1,0,0:0:0:0:
220,222,182812,1,8,0:0:0:0:
356,343,182985,1,2,0:0:0:0:
461,147,183157,2,0,L|320:138,1,135,0|0,0:0|0:0,0:0:0:0:
312,114,183502,6,0,B|251:108|251:108|191:129|191:129|119:119,1,180,2|0,0:0|0:0,0:0:0:0:
60,43,184019,1,2,0:0:0:0:
35,200,184191,2,0,L|53:299,1,90,8|0,0:0|0:0,0:0:0:0:
146,340,184536,2,0,L|162:251,1,90,0|0,0:0|0:0,0:0:0:0:
428,138,184881,6,0,L|446:237,2,90,2|0|0,0:0|0:0|0:0,0:0:0:0:
482,44,185398,1,0,0:0:0:0:
482,44,185485,1,0,0:0:0:0:
482,44,185571,2,0,L|393:27,1,90,8|0,0:0|0:0,0:0:0:0:
293,68,185916,2,0,L|204:84,1,90,2|0,0:0|0:0,0:0:0:0:
57,21,186260,6,0,L|21:205,1,180,2|0,0:0|0:0,0:0:0:0:
2,304,186778,1,0,0:0:0:0:
186,239,186950,2,0,L|98:256,1,90,8|0,0:0|0:0,0:0:0:0:
318,344,187295,2,0,L|406:360,1,90,0|0,0:0|0:0,0:0:0:0:
443,103,187640,6,0,P|417:146|408:206,1,90,2|0,0:0|0:0,0:0:0:0:
210,310,187985,2,0,P|199:266|175:228,1,90,0|0,0:0|0:0,0:0:0:0:
140,187,188243,1,0,0:0:0:0:
140,187,188329,2,0,P|150:143|174:105,1,90,8|2,0:0|0:0,0:0:0:0:
401,132,188674,2,0,P|345:167|279:178,1,135,0|0,0:0|0:0,0:0:0:0:
252,181,189019,6,0,P|286:223|305:272,2,90,2|0|0,0:0|0:0|0:0,0:0:0:0:
168,112,189536,1,2,0:0:0:0:
409,259,189709,2,0,P|375:301|356:350,2,90,8|0|0,0:0|0:0|0:0,0:0:0:0:
485,181,190226,1,0,0:0:0:0:
329,68,190398,5,2,0:0:0:0:
436,83,190571,1,0,0:0:0:0:
371,169,190743,1,0,0:0:0:0:
392,7,190916,1,0,0:0:0:0:
392,7,191002,1,0,0:0:0:0:
392,7,191088,1,8,0:0:0:0:
458,210,191260,1,0,0:0:0:0:
255,147,191433,2,0,L|107:139,1,135,2|0,0:0|0:0,0:0:0:0:
92,140,191778,6,0,P|143:170|155:296,1,180,2|0,0:0|0:0,0:0:0:0:
59,248,192295,1,0,0:0:0:0:
251,198,192467,2,0,B|338:162|337:232|440:183,1,180,8|0,0:0|0:0,0:0:0:0:
376,91,192985,1,0,0:0:0:0:
302,269,193157,6,0,L|315:373,1,90,2|0,0:0|0:0,0:0:0:0:
408,306,193502,1,0,0:0:0:0:
211,311,193674,1,0,0:0:0:0:
211,311,193760,1,0,0:0:0:0:
211,311,193847,1,8,0:0:0:0:
389,308,194019,1,2,0:0:0:0:
201,218,194191,2,0,P|150:241|115:324,1,135,0|0,0:0|0:0,0:0:0:0:
102,332,194536,6,0,L|94:143,1,180,2|0,0:0|0:0,0:0:0:0:
32,62,195054,1,2,0:0:0:0:
202,119,195226,2,0,P|244:97|305:83,1,90,8|0,0:0|0:0,0:0:0:0:
370,226,195571,2,0,P|327:214|288:193,1,90,0|0,0:0|0:0,0:0:0:0:
503,141,195916,1,2,0:0:0:0:
256,192,196002,12,0,198674,0:0:0:0:
