osu file format v14

[General]
AudioFilename: Drumstep_-_Rootkit_-_Against_the_Sun_feat._Anna_Yvette_Monstercat_Release.mp3
AudioLeadIn: 0
PreviewTime: -1
Countdown: 0
SampleSet: Soft
StackLeniency: 0.7
Mode: 3
LetterboxInBreaks: 0
SpecialStyle: 0
WidescreenStoryboard: 0

[Editor]
DistanceSpacing: 0.8
BeatDivisor: 8
GridSize: 4
TimelineZoom: 1.3

[Metadata]
Title:Against The Sun (feat. Anna Yvette)
TitleUnicode:Against The Sun (feat. Anna Yvette)
Artist:Rootkit
ArtistUnicode:Rootkit
Creator:-Dom-
Version:Sunshine
Source:Monstercat
Tags:
BeatmapID:879370
BeatmapSetID:404441

[Difficulty]
HPDrainRate:8
CircleSize:4
OverallDifficulty:8
ApproachRate:5
SliderMultiplier:1.4
SliderTickRate:1

[Events]
//Background and Video events
0,0,"hN0TnNU.jpg",0,0
//Break Periods
//Storyboard Layer 0 (Background)
//Storyboard Layer 1 (Fail)
//Storyboard Layer 2 (Pass)
//Storyboard Layer 3 (Foreground)
//Storyboard Sound Samples

[TimingPoints]
13960,344.827586206897,4,2,0,30,1,0

[HitObjects]
64,192,5856,5,0,0:0:0:0:
192,192,7925,1,0,0:0:0:0:
320,192,8615,1,0,0:0:0:0:
448,192,9994,1,0,0:0:0:0:
320,192,10684,1,0,0:0:0:0:
64,192,11373,1,0,0:0:0:0:
192,192,13442,1,0,0:0:0:0:
320,192,14132,128,0,16891:0:0:0:0:
448,192,15511,1,0,0:0:0:0:
448,192,16891,1,0,0:0:0:0:
192,192,16891,1,0,0:0:0:0:
64,192,16891,1,0,0:0:0:0:
64,192,17235,1,0,0:0:0:0:
320,192,17235,1,0,0:0:0:0:
192,192,17408,1,0,0:0:0:0:
448,192,17580,1,0,0:0:0:0:
320,192,17580,1,0,0:0:0:0:
448,192,17753,1,0,0:0:0:0:
448,192,17925,1,0,0:0:0:0:
192,192,18097,1,0,0:0:0:0:
64,192,18270,1,0,0:0:0:0:
448,192,18270,1,0,0:0:0:0:
320,192,18442,1,0,0:0:0:0:
448,192,18615,1,0,0:0:0:0:
192,192,18615,1,0,0:0:0:0:
448,192,18960,1,0,0:0:0:0:
320,192,18960,1,0,0:0:0:0:
64,192,18960,1,0,0:0:0:0:
192,192,18960,1,0,0:0:0:0:
320,192,19477,1,0,0:0:0:0:
64,192,19649,1,0,0:0:0:0:
192,192,19649,1,0,0:0:0:0:
320,192,19649,1,0,0:0:0:0:
448,192,19649,1,0,0:0:0:0:
320,192,19994,1,0,0:0:0:0:
192,192,20166,1,0,0:0:0:0:
320,192,20339,1,0,0:0:0:0:
64,192,20339,1,0,0:0:0:0:
64,192,20511,1,0,0:0:0:0:
64,192,20684,1,0,0:0:0:0:
448,192,20856,1,0,0:0:0:0:
320,192,21028,1,0,0:0:0:0:
64,192,21201,1,0,0:0:0:0:
192,192,21373,1,0,0:0:0:0:
448,192,21546,1,0,0:0:0:0:
320,192,21718,1,0,0:0:0:0:
64,192,21718,1,0,0:0:0:0:
64,192,22063,1,0,0:0:0:0:
64,192,22235,1,0,0:0:0:0:
320,192,22408,1,0,0:0:0:0:
448,192,22408,128,0,22753:0:0:0:0:
320,192,22753,128,0,23097:0:0:0:0:
192,192,22753,1,0,0:0:0:0:
64,192,22925,1,0,0:0:0:0:
64,192,23097,1,0,0:0:0:0:
192,192,23097,128,0,23442:0:0:0:0:
64,192,23442,1,0,0:0:0:0:
448,192,23615,1,0,0:0:0:0:
320,192,23615,1,0,0:0:0:0:
192,192,23787,1,0,0:0:0:0:
320,192,23960,1,0,0:0:0:0:
192,192,24304,1,0,0:0:0:0:
448,192,24477,1,0,0:0:0:0:
320,192,24477,1,0,0:0:0:0:
192,192,24477,1,0,0:0:0:0:
64,192,24477,1,0,0:0:0:0:
192,192,24822,1,0,0:0:0:0:
192,192,24994,128,0,26546:0:0:0:0:
320,192,25166,1,0,0:0:0:0:
448,192,25166,1,0,0:0:0:0:
64,192,25166,1,0,0:0:0:0:
64,192,25511,1,0,0:0:0:0:
64,192,25684,1,0,0:0:0:0:
448,192,25856,1,0,0:0:0:0:
320,192,25856,1,0,0:0:0:0:
448,192,26028,1,0,0:0:0:0:
448,192,26201,1,0,0:0:0:0:
448,192,26546,1,0,0:0:0:0:
64,192,26546,1,0,0:0:0:0:
320,192,26546,128,0,27408:0:0:0:0:
64,192,26718,1,0,0:0:0:0:
64,192,26891,1,0,0:0:0:0:
64,192,27063,1,0,0:0:0:0:
192,192,27235,1,0,0:0:0:0:
64,192,27235,1,0,0:0:0:0:
448,192,27408,1,0,0:0:0:0:
192,192,27580,1,0,0:0:0:0:
64,192,27753,1,0,0:0:0:0:
192,192,27925,1,0,0:0:0:0:
448,192,27925,1,0,0:0:0:0:
320,192,28097,1,0,0:0:0:0:
448,192,28270,1,0,0:0:0:0:
192,192,28270,1,0,0:0:0:0:
320,192,28442,1,0,0:0:0:0:
64,192,28442,1,0,0:0:0:0:
192,192,28615,1,0,0:0:0:0:
448,192,28615,1,0,0:0:0:0:
448,192,28787,1,0,0:0:0:0:
448,192,28960,1,0,0:0:0:0:
64,192,29132,1,0,0:0:0:0:
192,192,29304,1,0,0:0:0:0:
320,192,29304,1,0,0:0:0:0:
64,192,29477,1,0,0:0:0:0:
448,192,29649,1,0,0:0:0:0:
192,192,29649,1,0,0:0:0:0:
320,192,29822,1,0,0:0:0:0:
64,192,29822,1,0,0:0:0:0:
448,192,29994,1,0,0:0:0:0:
320,192,29994,1,0,0:0:0:0:
192,192,29994,1,0,0:0:0:0:
64,192,29994,1,0,0:0:0:0:
320,192,30339,1,0,0:0:0:0:
64,192,30684,1,0,0:0:0:0:
448,192,30684,1,0,0:0:0:0:
320,192,30684,1,0,0:0:0:0:
192,192,30684,1,0,0:0:0:0:
320,192,30856,1,0,0:0:0:0:
192,192,31028,1,0,0:0:0:0:
64,192,31028,1,0,0:0:0:0:
448,192,31201,1,0,0:0:0:0:
320,192,31201,1,0,0:0:0:0:
320,192,31373,1,0,0:0:0:0:
192,192,31373,1,0,0:0:0:0:
64,192,31546,1,0,0:0:0:0:
448,192,31718,1,0,0:0:0:0:
64,192,31718,1,0,0:0:0:0:
64,192,31891,1,0,0:0:0:0:
320,192,32063,1,0,0:0:0:0:
192,192,32063,1,0,0:0:0:0:
192,192,32235,1,0,0:0:0:0:
64,192,32235,1,0,0:0:0:0:
320,192,32408,1,0,0:0:0:0:
192,192,32408,1,0,0:0:0:0:
448,192,32580,1,0,0:0:0:0:
320,192,32580,1,0,0:0:0:0:
192,192,32753,1,0,0:0:0:0:
320,192,32753,1,0,0:0:0:0:
320,192,32925,128,0,33097:0:0:0:0:
448,192,32925,128,0,33097:0:0:0:0:
64,192,33442,128,0,33787:0:0:0:0:
192,192,33442,1,0,0:0:0:0:
192,192,33787,128,0,34132:0:0:0:0:
320,192,33960,1,0,0:0:0:0:
320,192,34132,128,0,34477:0:0:0:0:
448,192,34477,128,0,34649:0:0:0:0:
320,192,34649,128,0,34822:0:0:0:0:
192,192,34649,1,0,0:0:0:0:
192,192,34822,1,0,0:0:0:0:
64,192,34822,1,0,0:0:0:0:
448,192,34994,1,0,0:0:0:0:
320,192,35339,1,0,0:0:0:0:
64,192,35511,1,0,0:0:0:0:
192,192,35511,1,0,0:0:0:0:
320,192,35511,1,0,0:0:0:0:
448,192,35511,1,0,0:0:0:0:
448,192,35856,1,0,0:0:0:0:
320,192,35856,1,0,0:0:0:0:
320,192,36028,1,0,0:0:0:0:
64,192,36028,1,0,0:0:0:0:
192,192,36201,1,0,0:0:0:0:
64,192,36201,1,0,0:0:0:0:
448,192,36201,1,0,0:0:0:0:
320,192,36201,128,0,37580:0:0:0:0:
192,192,36546,1,0,0:0:0:0:
192,192,36718,1,0,0:0:0:0:
448,192,36718,1,0,0:0:0:0:
64,192,36891,1,0,0:0:0:0:
448,192,36891,1,0,0:0:0:0:
192,192,37063,1,0,0:0:0:0:
64,192,37063,1,0,0:0:0:0:
448,192,37235,1,0,0:0:0:0:
192,192,37580,128,0,38270:0:0:0:0:
64,192,37580,1,0,0:0:0:0:
448,192,37753,1,0,0:0:0:0:
320,192,37925,1,0,0:0:0:0:
64,192,38097,1,0,0:0:0:0:
448,192,38270,1,0,0:0:0:0:
320,192,38270,1,0,0:0:0:0:
64,192,38442,1,0,0:0:0:0:
192,192,38442,1,0,0:0:0:0:
320,192,38528,1,0,0:0:0:0:
448,192,38528,1,0,0:0:0:0:
192,192,38615,1,0,0:0:0:0:
64,192,38615,1,0,0:0:0:0:
64,192,38787,1,0,0:0:0:0:
320,192,38960,128,0,40166:0:0:0:0:
448,192,38960,128,0,40166:0:0:0:0:
64,192,38960,1,0,0:0:0:0:
192,192,38960,1,0,0:0:0:0:
192,192,39132,1,0,0:0:0:0:
64,192,39132,1,0,0:0:0:0:
192,192,39304,1,0,0:0:0:0:
64,192,39477,1,0,0:0:0:0:
192,192,39649,1,0,0:0:0:0:
64,192,39649,128,0,39994:0:0:0:0:
192,192,39994,1,0,0:0:0:0:
192,192,40166,1,0,0:0:0:0:
64,192,40166,1,0,0:0:0:0:
64,192,40339,1,0,0:0:0:0:
448,192,40339,1,0,0:0:0:0:
320,192,40511,1,0,0:0:0:0:
192,192,40511,1,0,0:0:0:0:
64,192,40684,128,0,41028:0:0:0:0:
320,192,41028,1,0,0:0:0:0:
192,192,41028,1,0,0:0:0:0:
192,192,41201,1,0,0:0:0:0:
64,192,41201,1,0,0:0:0:0:
64,192,41373,1,0,0:0:0:0:
320,192,41373,1,0,0:0:0:0:
64,192,41546,1,0,0:0:0:0:
192,192,41546,1,0,0:0:0:0:
448,192,41718,1,0,0:0:0:0:
320,192,41718,1,0,0:0:0:0:
192,192,41804,1,0,0:0:0:0:
448,192,41891,1,0,0:0:0:0:
320,192,41891,1,0,0:0:0:0:
64,192,41977,1,0,0:0:0:0:
320,192,42063,1,0,0:0:0:0:
192,192,42063,1,0,0:0:0:0:
448,192,42149,1,0,0:0:0:0:
192,192,42235,1,0,0:0:0:0:
64,192,42235,1,0,0:0:0:0:
320,192,42322,1,0,0:0:0:0:
192,192,42408,1,0,0:0:0:0:
448,192,42408,1,0,0:0:0:0:
64,192,42408,128,0,42753:0:0:0:0:
448,192,42753,1,0,0:0:0:0:
320,192,42753,1,0,0:0:0:0:
320,192,42925,1,0,0:0:0:0:
192,192,42925,1,0,0:0:0:0:
448,192,43097,1,0,0:0:0:0:
320,192,43097,1,0,0:0:0:0:
192,192,43270,1,0,0:0:0:0:
64,192,43270,1,0,0:0:0:0:
448,192,43442,1,0,0:0:0:0:
320,192,43442,1,0,0:0:0:0:
192,192,43442,128,0,43787:0:0:0:0:
448,192,43787,1,0,0:0:0:0:
64,192,43787,1,0,0:0:0:0:
448,192,44132,1,0,0:0:0:0:
192,192,44477,1,0,0:0:0:0:
64,192,44477,1,0,0:0:0:0:
448,192,44649,1,0,0:0:0:0:
320,192,44649,1,0,0:0:0:0:
192,192,44822,1,0,0:0:0:0:
64,192,44822,1,0,0:0:0:0:
320,192,44994,1,0,0:0:0:0:
192,192,44994,1,0,0:0:0:0:
448,192,45166,1,0,0:0:0:0:
320,192,45166,1,0,0:0:0:0:
64,192,45166,128,0,45511:0:0:0:0:
448,192,45511,1,0,0:0:0:0:
320,192,45684,1,0,0:0:0:0:
192,192,45684,1,0,0:0:0:0:
448,192,45856,1,0,0:0:0:0:
192,192,45856,1,0,0:0:0:0:
192,192,46028,1,0,0:0:0:0:
64,192,46028,1,0,0:0:0:0:
64,192,46201,1,0,0:0:0:0:
320,192,46201,1,0,0:0:0:0:
192,192,46201,128,0,46546:0:0:0:0:
64,192,46373,1,0,0:0:0:0:
448,192,46546,1,0,0:0:0:0:
320,192,46546,128,0,46891:0:0:0:0:
64,192,46718,1,0,0:0:0:0:
448,192,46891,1,0,0:0:0:0:
192,192,46891,128,0,47235:0:0:0:0:
64,192,47063,1,0,0:0:0:0:
64,192,47235,1,0,0:0:0:0:
320,192,47235,1,0,0:0:0:0:
448,192,47235,128,0,48097:0:0:0:0:
192,192,47322,1,0,0:0:0:0:
64,192,47408,1,0,0:0:0:0:
320,192,47494,1,0,0:0:0:0:
192,192,47580,1,0,0:0:0:0:
64,192,47580,1,0,0:0:0:0:
320,192,47666,1,0,0:0:0:0:
64,192,47753,1,0,0:0:0:0:
320,192,47839,1,0,0:0:0:0:
64,192,47925,1,0,0:0:0:0:
320,192,48011,1,0,0:0:0:0:
192,192,48097,1,0,0:0:0:0:
64,192,48097,1,0,0:0:0:0:
448,192,48184,1,0,0:0:0:0:
320,192,48270,1,0,0:0:0:0:
192,192,48270,1,0,0:0:0:0:
448,192,48356,1,0,0:0:0:0:
192,192,48442,1,0,0:0:0:0:
64,192,48442,1,0,0:0:0:0:
448,192,48615,1,0,0:0:0:0:
64,192,48615,1,0,0:0:0:0:
192,192,48615,128,0,49477:0:0:0:0:
320,192,48615,128,0,49477:0:0:0:0:
448,192,49477,128,0,49649:0:0:0:0:
64,192,49477,128,0,49649:0:0:0:0:
192,192,49649,128,0,49822:0:0:0:0:
320,192,49649,128,0,49822:0:0:0:0:
448,192,49822,128,0,49994:0:0:0:0:
64,192,49822,128,0,49994:0:0:0:0:
320,192,49994,1,0,0:0:0:0:
192,192,49994,1,0,0:0:0:0:
192,192,50166,1,0,0:0:0:0:
320,192,50253,1,0,0:0:0:0:
192,192,50339,1,0,0:0:0:0:
448,192,50511,1,0,0:0:0:0:
320,192,50511,1,0,0:0:0:0:
64,192,50511,1,0,0:0:0:0:
448,192,50684,1,0,0:0:0:0:
320,192,50684,1,0,0:0:0:0:
192,192,50684,1,0,0:0:0:0:
64,192,50684,1,0,0:0:0:0:
64,192,50856,1,0,0:0:0:0:
192,192,50942,1,0,0:0:0:0:
448,192,51028,1,0,0:0:0:0:
320,192,51028,1,0,0:0:0:0:
64,192,51115,1,0,0:0:0:0:
192,192,51201,1,0,0:0:0:0:
64,192,51287,1,0,0:0:0:0:
320,192,51373,1,0,0:0:0:0:
192,192,51373,1,0,0:0:0:0:
448,192,51460,1,0,0:0:0:0:
64,192,51546,1,0,0:0:0:0:
192,192,51632,1,0,0:0:0:0:
320,192,51718,1,0,0:0:0:0:
64,192,51804,1,0,0:0:0:0:
448,192,51891,1,0,0:0:0:0:
320,192,51891,1,0,0:0:0:0:
192,192,51891,1,0,0:0:0:0:
448,192,52063,1,0,0:0:0:0:
320,192,52063,1,0,0:0:0:0:
192,192,52063,1,0,0:0:0:0:
64,192,52063,1,0,0:0:0:0:
448,192,52235,1,0,0:0:0:0:
192,192,52235,1,0,0:0:0:0:
64,192,52235,1,0,0:0:0:0:
320,192,52322,1,0,0:0:0:0:
192,192,52408,1,0,0:0:0:0:
64,192,52408,1,0,0:0:0:0:
448,192,52408,1,0,0:0:0:0:
320,192,52494,1,0,0:0:0:0:
448,192,52580,1,0,0:0:0:0:
64,192,52580,1,0,0:0:0:0:
192,192,52580,1,0,0:0:0:0:
320,192,52666,1,0,0:0:0:0:
448,192,52753,1,0,0:0:0:0:
192,192,52753,1,0,0:0:0:0:
64,192,52753,1,0,0:0:0:0:
320,192,52839,1,0,0:0:0:0:
192,192,52925,1,0,0:0:0:0:
64,192,52925,1,0,0:0:0:0:
448,192,53011,1,0,0:0:0:0:
320,192,53097,1,0,0:0:0:0:
192,192,53097,1,0,0:0:0:0:
64,192,53184,1,0,0:0:0:0:
448,192,53270,1,0,0:0:0:0:
320,192,53270,1,0,0:0:0:0:
192,192,53270,1,0,0:0:0:0:
448,192,53442,1,0,0:0:0:0:
320,192,53442,1,0,0:0:0:0:
192,192,53442,1,0,0:0:0:0:
64,192,53442,1,0,0:0:0:0:
192,192,53615,1,0,0:0:0:0:
448,192,53701,1,0,0:0:0:0:
192,192,53787,1,0,0:0:0:0:
64,192,53787,1,0,0:0:0:0:
320,192,53873,1,0,0:0:0:0:
192,192,53960,1,0,0:0:0:0:
64,192,54046,1,0,0:0:0:0:
448,192,54132,1,0,0:0:0:0:
320,192,54132,1,0,0:0:0:0:
64,192,54218,1,0,0:0:0:0:
192,192,54304,1,0,0:0:0:0:
64,192,54391,1,0,0:0:0:0:
192,192,54477,1,0,0:0:0:0:
320,192,54563,1,0,0:0:0:0:
448,192,54649,1,0,0:0:0:0:
192,192,54649,1,0,0:0:0:0:
64,192,54649,1,0,0:0:0:0:
448,192,54822,1,0,0:0:0:0:
320,192,54822,1,0,0:0:0:0:
192,192,54822,1,0,0:0:0:0:
64,192,54822,1,0,0:0:0:0:
320,192,54994,1,0,0:0:0:0:
448,192,55080,1,0,0:0:0:0:
192,192,55166,1,0,0:0:0:0:
64,192,55166,1,0,0:0:0:0:
448,192,55253,1,0,0:0:0:0:
320,192,55339,1,0,0:0:0:0:
192,192,55425,1,0,0:0:0:0:
448,192,55511,1,0,0:0:0:0:
320,192,55511,1,0,0:0:0:0:
192,192,55597,1,0,0:0:0:0:
320,192,55684,1,0,0:0:0:0:
64,192,55684,1,0,0:0:0:0:
448,192,55770,1,0,0:0:0:0:
192,192,55856,1,0,0:0:0:0:
64,192,55942,1,0,0:0:0:0:
448,192,56028,1,0,0:0:0:0:
320,192,56028,1,0,0:0:0:0:
192,192,56028,1,0,0:0:0:0:
448,192,56201,1,0,0:0:0:0:
320,192,56201,1,0,0:0:0:0:
192,192,56201,1,0,0:0:0:0:
64,192,56201,1,0,0:0:0:0:
448,192,56373,1,0,0:0:0:0:
320,192,56373,1,0,0:0:0:0:
192,192,56460,1,0,0:0:0:0:
64,192,56546,1,0,0:0:0:0:
448,192,56546,1,0,0:0:0:0:
320,192,56632,1,0,0:0:0:0:
192,192,56718,1,0,0:0:0:0:
64,192,56718,1,0,0:0:0:0:
448,192,56804,1,0,0:0:0:0:
320,192,56891,1,0,0:0:0:0:
192,192,56891,1,0,0:0:0:0:
64,192,56977,1,0,0:0:0:0:
320,192,57063,1,0,0:0:0:0:
192,192,57063,1,0,0:0:0:0:
448,192,57149,1,0,0:0:0:0:
192,192,57235,1,0,0:0:0:0:
64,192,57235,1,0,0:0:0:0:
320,192,57322,1,0,0:0:0:0:
64,192,57408,1,0,0:0:0:0:
192,192,57408,1,0,0:0:0:0:
448,192,57408,1,0,0:0:0:0:
64,192,57580,1,0,0:0:0:0:
192,192,57580,1,0,0:0:0:0:
320,192,57580,1,0,0:0:0:0:
448,192,57580,1,0,0:0:0:0:
320,192,57753,1,0,0:0:0:0:
448,192,57753,1,0,0:0:0:0:
64,192,57753,1,0,0:0:0:0:
192,192,57839,1,0,0:0:0:0:
320,192,57925,1,0,0:0:0:0:
448,192,57925,1,0,0:0:0:0:
64,192,57925,1,0,0:0:0:0:
192,192,58011,1,0,0:0:0:0:
448,192,58097,1,0,0:0:0:0:
320,192,58097,1,0,0:0:0:0:
64,192,58097,1,0,0:0:0:0:
192,192,58184,1,0,0:0:0:0:
320,192,58270,1,0,0:0:0:0:
64,192,58270,1,0,0:0:0:0:
448,192,58356,1,0,0:0:0:0:
192,192,58442,1,0,0:0:0:0:
64,192,58442,1,0,0:0:0:0:
320,192,58528,1,0,0:0:0:0:
448,192,58615,1,0,0:0:0:0:
64,192,58615,1,0,0:0:0:0:
192,192,58701,1,0,0:0:0:0:
448,192,58787,1,0,0:0:0:0:
320,192,58787,1,0,0:0:0:0:
64,192,58787,1,0,0:0:0:0:
448,192,58960,1,0,0:0:0:0:
320,192,58960,1,0,0:0:0:0:
192,192,58960,1,0,0:0:0:0:
64,192,58960,1,0,0:0:0:0:
320,192,59132,1,0,0:0:0:0:
64,192,59132,1,0,0:0:0:0:
192,192,59218,1,0,0:0:0:0:
320,192,59304,1,0,0:0:0:0:
448,192,59304,1,0,0:0:0:0:
64,192,59391,1,0,0:0:0:0:
192,192,59477,1,0,0:0:0:0:
320,192,59477,1,0,0:0:0:0:
448,192,59563,1,0,0:0:0:0:
320,192,59649,1,0,0:0:0:0:
192,192,59649,1,0,0:0:0:0:
64,192,59735,1,0,0:0:0:0:
448,192,59822,128,0,59994:0:0:0:0:
320,192,59822,1,0,0:0:0:0:
64,192,59994,128,0,60166:0:0:0:0:
320,192,59994,1,0,0:0:0:0:
192,192,59994,1,0,0:0:0:0:
192,192,60166,1,0,0:0:0:0:
448,192,60511,1,0,0:0:0:0:
320,192,60511,1,0,0:0:0:0:
192,192,60684,1,0,0:0:0:0:
64,192,60684,1,0,0:0:0:0:
192,192,61028,1,0,0:0:0:0:
64,192,61028,1,0,0:0:0:0:
448,192,61115,1,0,0:0:0:0:
320,192,61201,1,0,0:0:0:0:
192,192,61201,1,0,0:0:0:0:
64,192,61287,1,0,0:0:0:0:
448,192,61373,1,0,0:0:0:0:
320,192,61373,1,0,0:0:0:0:
192,192,61460,1,0,0:0:0:0:
448,192,61546,1,0,0:0:0:0:
320,192,61546,1,0,0:0:0:0:
64,192,61546,1,0,0:0:0:0:
448,192,61718,1,0,0:0:0:0:
320,192,61718,1,0,0:0:0:0:
192,192,61718,1,0,0:0:0:0:
64,192,61718,1,0,0:0:0:0:
64,192,61891,1,0,0:0:0:0:
320,192,61891,1,0,0:0:0:0:
192,192,61977,1,0,0:0:0:0:
448,192,62063,1,0,0:0:0:0:
320,192,62063,1,0,0:0:0:0:
64,192,62149,1,0,0:0:0:0:
320,192,62235,1,0,0:0:0:0:
192,192,62235,1,0,0:0:0:0:
448,192,62322,1,0,0:0:0:0:
192,192,62408,1,0,0:0:0:0:
64,192,62408,1,0,0:0:0:0:
320,192,62494,1,0,0:0:0:0:
448,192,62580,1,0,0:0:0:0:
64,192,62580,1,0,0:0:0:0:
192,192,62666,1,0,0:0:0:0:
448,192,62753,1,0,0:0:0:0:
320,192,62753,1,0,0:0:0:0:
192,192,62839,1,0,0:0:0:0:
448,192,62925,1,0,0:0:0:0:
64,192,62925,1,0,0:0:0:0:
320,192,62925,1,0,0:0:0:0:
64,192,63097,1,0,0:0:0:0:
192,192,63097,1,0,0:0:0:0:
320,192,63097,1,0,0:0:0:0:
448,192,63097,1,0,0:0:0:0:
192,192,63270,1,0,0:0:0:0:
320,192,63270,1,0,0:0:0:0:
448,192,63270,1,0,0:0:0:0:
64,192,63356,1,0,0:0:0:0:
192,192,63442,1,0,0:0:0:0:
320,192,63442,1,0,0:0:0:0:
448,192,63442,1,0,0:0:0:0:
64,192,63528,1,0,0:0:0:0:
192,192,63615,1,0,0:0:0:0:
320,192,63615,1,0,0:0:0:0:
448,192,63615,1,0,0:0:0:0:
64,192,63701,1,0,0:0:0:0:
320,192,63787,1,0,0:0:0:0:
192,192,63787,1,0,0:0:0:0:
448,192,63873,1,0,0:0:0:0:
192,192,63960,1,0,0:0:0:0:
64,192,63960,1,0,0:0:0:0:
320,192,64046,1,0,0:0:0:0:
448,192,64132,1,0,0:0:0:0:
192,192,64132,1,0,0:0:0:0:
64,192,64132,1,0,0:0:0:0:
448,192,64304,1,0,0:0:0:0:
320,192,64304,1,0,0:0:0:0:
192,192,64304,1,0,0:0:0:0:
64,192,64304,1,0,0:0:0:0:
448,192,64477,1,0,0:0:0:0:
320,192,64477,1,0,0:0:0:0:
192,192,64477,1,0,0:0:0:0:
64,192,64477,1,0,0:0:0:0:
64,192,64649,1,0,0:0:0:0:
448,192,64649,1,0,0:0:0:0:
320,192,64735,1,0,0:0:0:0:
192,192,64822,1,0,0:0:0:0:
64,192,64822,1,0,0:0:0:0:
320,192,64908,1,0,0:0:0:0:
448,192,64994,1,0,0:0:0:0:
192,192,64994,1,0,0:0:0:0:
64,192,65080,1,0,0:0:0:0:
192,192,65166,1,0,0:0:0:0:
320,192,65166,1,0,0:0:0:0:
448,192,65253,1,0,0:0:0:0:
320,192,65339,1,0,0:0:0:0:
64,192,65339,1,0,0:0:0:0:
192,192,65425,1,0,0:0:0:0:
64,192,65511,1,0,0:0:0:0:
448,192,65511,1,0,0:0:0:0:
320,192,65597,1,0,0:0:0:0:
64,192,65684,1,0,0:0:0:0:
192,192,65684,1,0,0:0:0:0:
448,192,65684,1,0,0:0:0:0:
448,192,65856,128,0,66201:0:0:0:0:
320,192,65856,1,0,0:0:0:0:
192,192,65856,1,0,0:0:0:0:
64,192,65856,1,0,0:0:0:0:
64,192,66201,128,0,66373:0:0:0:0:
320,192,66201,1,0,0:0:0:0:
192,192,66201,1,0,0:0:0:0:
448,192,66460,1,0,0:0:0:0:
320,192,66546,1,0,0:0:0:0:
192,192,66546,1,0,0:0:0:0:
64,192,66632,1,0,0:0:0:0:
320,192,66718,1,0,0:0:0:0:
192,192,66718,1,0,0:0:0:0:
448,192,66804,1,0,0:0:0:0:
192,192,66891,1,0,0:0:0:0:
64,192,66891,1,0,0:0:0:0:
320,192,66977,1,0,0:0:0:0:
448,192,67063,1,0,0:0:0:0:
192,192,67063,1,0,0:0:0:0:
64,192,67063,1,0,0:0:0:0:
64,192,67235,1,0,0:0:0:0:
192,192,67235,1,0,0:0:0:0:
320,192,67235,1,0,0:0:0:0:
448,192,67235,1,0,0:0:0:0:
448,192,67408,1,0,0:0:0:0:
192,192,67408,1,0,0:0:0:0:
64,192,67494,1,0,0:0:0:0:
448,192,67580,1,0,0:0:0:0:
320,192,67580,1,0,0:0:0:0:
192,192,67666,1,0,0:0:0:0:
448,192,67753,1,0,0:0:0:0:
320,192,67753,1,0,0:0:0:0:
64,192,67839,1,0,0:0:0:0:
192,192,67925,1,0,0:0:0:0:
320,192,67925,1,0,0:0:0:0:
448,192,68011,1,0,0:0:0:0:
64,192,68097,1,0,0:0:0:0:
192,192,68097,1,0,0:0:0:0:
320,192,68184,1,0,0:0:0:0:
448,192,68270,1,0,0:0:0:0:
192,192,68270,1,0,0:0:0:0:
320,192,68356,1,0,0:0:0:0:
448,192,68442,1,0,0:0:0:0:
192,192,68442,1,0,0:0:0:0:
64,192,68442,1,0,0:0:0:0:
64,192,68615,1,0,0:0:0:0:
192,192,68615,1,0,0:0:0:0:
320,192,68615,1,0,0:0:0:0:
448,192,68615,1,0,0:0:0:0:
64,192,68787,1,0,0:0:0:0:
192,192,68787,1,0,0:0:0:0:
448,192,68787,1,0,0:0:0:0:
320,192,68873,1,0,0:0:0:0:
64,192,68960,1,0,0:0:0:0:
192,192,68960,1,0,0:0:0:0:
448,192,68960,1,0,0:0:0:0:
320,192,69046,1,0,0:0:0:0:
64,192,69132,1,0,0:0:0:0:
192,192,69132,1,0,0:0:0:0:
448,192,69132,1,0,0:0:0:0:
320,192,69218,1,0,0:0:0:0:
64,192,69304,1,0,0:0:0:0:
192,192,69304,1,0,0:0:0:0:
448,192,69304,1,0,0:0:0:0:
320,192,69391,1,0,0:0:0:0:
448,192,69477,1,0,0:0:0:0:
64,192,69477,1,0,0:0:0:0:
192,192,69563,1,0,0:0:0:0:
448,192,69649,1,0,0:0:0:0:
320,192,69649,1,0,0:0:0:0:
64,192,69735,1,0,0:0:0:0:
448,192,69822,1,0,0:0:0:0:
320,192,69822,1,0,0:0:0:0:
192,192,69822,1,0,0:0:0:0:
448,192,69994,1,0,0:0:0:0:
320,192,69994,1,0,0:0:0:0:
192,192,69994,1,0,0:0:0:0:
64,192,69994,1,0,0:0:0:0:
448,192,70166,1,0,0:0:0:0:
320,192,70166,1,0,0:0:0:0:
192,192,70253,1,0,0:0:0:0:
64,192,70339,1,0,0:0:0:0:
448,192,70339,1,0,0:0:0:0:
320,192,70425,1,0,0:0:0:0:
192,192,70511,1,0,0:0:0:0:
64,192,70511,1,0,0:0:0:0:
448,192,70597,1,0,0:0:0:0:
320,192,70684,1,0,0:0:0:0:
192,192,70684,1,0,0:0:0:0:
64,192,70770,1,0,0:0:0:0:
448,192,70856,128,0,71546:0:0:0:0:
192,192,71373,1,0,0:0:0:0:
64,192,71373,1,0,0:0:0:0:
320,192,71546,128,0,71718:0:0:0:0:
192,192,71718,128,0,71891:0:0:0:0:
64,192,71718,1,0,0:0:0:0:
448,192,71718,1,0,0:0:0:0:
64,192,71891,128,0,72063:0:0:0:0:
448,192,72063,1,0,0:0:0:0:
320,192,72063,1,0,0:0:0:0:
192,192,72063,1,0,0:0:0:0:
192,192,72235,1,0,0:0:0:0:
320,192,72322,1,0,0:0:0:0:
192,192,72408,1,0,0:0:0:0:
64,192,72494,1,0,0:0:0:0:
448,192,72580,1,0,0:0:0:0:
64,192,72753,1,0,0:0:0:0:
192,192,72753,1,0,0:0:0:0:
320,192,72753,1,0,0:0:0:0:
448,192,72753,1,0,0:0:0:0:
320,192,72925,1,0,0:0:0:0:
448,192,72925,1,0,0:0:0:0:
192,192,73011,1,0,0:0:0:0:
64,192,73097,1,0,0:0:0:0:
448,192,73097,1,0,0:0:0:0:
320,192,73184,1,0,0:0:0:0:
64,192,73270,1,0,0:0:0:0:
192,192,73270,1,0,0:0:0:0:
448,192,73356,1,0,0:0:0:0:
320,192,73442,1,0,0:0:0:0:
192,192,73442,1,0,0:0:0:0:
64,192,73528,1,0,0:0:0:0:
448,192,73615,1,0,0:0:0:0:
320,192,73615,1,0,0:0:0:0:
192,192,73701,1,0,0:0:0:0:
64,192,73787,1,0,0:0:0:0:
448,192,73787,1,0,0:0:0:0:
320,192,73873,1,0,0:0:0:0:
64,192,73960,1,0,0:0:0:0:
448,192,73960,1,0,0:0:0:0:
192,192,73960,1,0,0:0:0:0:
192,192,74132,1,0,0:0:0:0:
64,192,74132,1,0,0:0:0:0:
320,192,74132,1,0,0:0:0:0:
448,192,74132,1,0,0:0:0:0:
64,192,74304,1,0,0:0:0:0:
192,192,74304,1,0,0:0:0:0:
448,192,74304,1,0,0:0:0:0:
320,192,74391,1,0,0:0:0:0:
192,192,74477,1,0,0:0:0:0:
448,192,74477,1,0,0:0:0:0:
64,192,74477,1,0,0:0:0:0:
320,192,74563,1,0,0:0:0:0:
192,192,74649,1,0,0:0:0:0:
448,192,74649,1,0,0:0:0:0:
64,192,74649,1,0,0:0:0:0:
320,192,74735,1,0,0:0:0:0:
64,192,74822,1,0,0:0:0:0:
448,192,74822,1,0,0:0:0:0:
320,192,74908,1,0,0:0:0:0:
192,192,74994,1,0,0:0:0:0:
64,192,74994,1,0,0:0:0:0:
320,192,75080,1,0,0:0:0:0:
448,192,75166,1,0,0:0:0:0:
64,192,75166,1,0,0:0:0:0:
192,192,75253,1,0,0:0:0:0:
320,192,75339,1,0,0:0:0:0:
448,192,75339,1,0,0:0:0:0:
64,192,75339,1,0,0:0:0:0:
448,192,75511,1,0,0:0:0:0:
320,192,75511,1,0,0:0:0:0:
192,192,75511,1,0,0:0:0:0:
64,192,75511,1,0,0:0:0:0:
192,192,75684,1,0,0:0:0:0:
64,192,75684,1,0,0:0:0:0:
448,192,75770,1,0,0:0:0:0:
320,192,75856,1,0,0:0:0:0:
192,192,75856,1,0,0:0:0:0:
64,192,75942,1,0,0:0:0:0:
320,192,76028,1,0,0:0:0:0:
448,192,76028,1,0,0:0:0:0:
192,192,76115,1,0,0:0:0:0:
64,192,76201,1,0,0:0:0:0:
320,192,76201,1,0,0:0:0:0:
192,192,76287,1,0,0:0:0:0:
64,192,76373,1,0,0:0:0:0:
448,192,76373,1,0,0:0:0:0:
320,192,76460,1,0,0:0:0:0:
192,192,76546,1,0,0:0:0:0:
64,192,76546,1,0,0:0:0:0:
448,192,76632,1,0,0:0:0:0:
320,192,76718,1,0,0:0:0:0:
192,192,76718,1,0,0:0:0:0:
64,192,76718,1,0,0:0:0:0:
192,192,76891,1,0,0:0:0:0:
320,192,76891,1,0,0:0:0:0:
448,192,76891,1,0,0:0:0:0:
64,192,76891,1,0,0:0:0:0:
320,192,77063,1,0,0:0:0:0:
64,192,77063,1,0,0:0:0:0:
192,192,77149,1,0,0:0:0:0:
320,192,77235,1,0,0:0:0:0:
448,192,77235,1,0,0:0:0:0:
192,192,77322,1,0,0:0:0:0:
320,192,77408,1,0,0:0:0:0:
448,192,77408,1,0,0:0:0:0:
64,192,77494,1,0,0:0:0:0:
192,192,77580,1,0,0:0:0:0:
320,192,77580,1,0,0:0:0:0:
448,192,77666,1,0,0:0:0:0:
64,192,77753,1,0,0:0:0:0:
192,192,77753,1,0,0:0:0:0:
320,192,77839,1,0,0:0:0:0:
448,192,77925,1,0,0:0:0:0:
192,192,77925,1,0,0:0:0:0:
64,192,78011,1,0,0:0:0:0:
192,192,78097,1,0,0:0:0:0:
320,192,78097,1,0,0:0:0:0:
448,192,78097,1,0,0:0:0:0:
320,192,78270,1,0,0:0:0:0:
192,192,78270,1,0,0:0:0:0:
448,192,78270,1,0,0:0:0:0:
64,192,78270,1,0,0:0:0:0:
320,192,78442,1,0,0:0:0:0:
448,192,78442,1,0,0:0:0:0:
192,192,78528,1,0,0:0:0:0:
64,192,78615,1,0,0:0:0:0:
320,192,78615,1,0,0:0:0:0:
192,192,78701,1,0,0:0:0:0:
448,192,78787,1,0,0:0:0:0:
64,192,78787,1,0,0:0:0:0:
320,192,78873,1,0,0:0:0:0:
64,192,78960,1,0,0:0:0:0:
192,192,78960,1,0,0:0:0:0:
320,192,79046,1,0,0:0:0:0:
448,192,79132,1,0,0:0:0:0:
192,192,79132,1,0,0:0:0:0:
320,192,79218,1,0,0:0:0:0:
64,192,79304,1,0,0:0:0:0:
192,192,79304,1,0,0:0:0:0:
448,192,79391,1,0,0:0:0:0:
192,192,79477,1,0,0:0:0:0:
64,192,79477,1,0,0:0:0:0:
320,192,79477,1,0,0:0:0:0:
192,192,79649,1,0,0:0:0:0:
320,192,79649,1,0,0:0:0:0:
448,192,79649,1,0,0:0:0:0:
64,192,79649,1,0,0:0:0:0:
320,192,79822,1,0,0:0:0:0:
448,192,79822,1,0,0:0:0:0:
64,192,79822,1,0,0:0:0:0:
192,192,79908,1,0,0:0:0:0:
64,192,79994,1,0,0:0:0:0:
320,192,79994,1,0,0:0:0:0:
448,192,79994,1,0,0:0:0:0:
192,192,80080,1,0,0:0:0:0:
64,192,80166,1,0,0:0:0:0:
320,192,80166,1,0,0:0:0:0:
448,192,80166,1,0,0:0:0:0:
192,192,80253,1,0,0:0:0:0:
448,192,80339,1,0,0:0:0:0:
320,192,80339,1,0,0:0:0:0:
64,192,80339,1,0,0:0:0:0:
192,192,80425,1,0,0:0:0:0:
320,192,80511,1,0,0:0:0:0:
64,192,80597,1,0,0:0:0:0:
192,192,80597,1,0,0:0:0:0:
320,192,80684,1,0,0:0:0:0:
448,192,80684,1,0,0:0:0:0:
192,192,80770,1,0,0:0:0:0:
64,192,80856,1,0,0:0:0:0:
448,192,80856,1,0,0:0:0:0:
320,192,80856,1,0,0:0:0:0:
320,192,81028,1,0,0:0:0:0:
448,192,81028,1,0,0:0:0:0:
192,192,81028,1,0,0:0:0:0:
64,192,81028,1,0,0:0:0:0:
320,192,81201,1,0,0:0:0:0:
192,192,81201,1,0,0:0:0:0:
64,192,81287,1,0,0:0:0:0:
320,192,81373,1,0,0:0:0:0:
192,192,81373,1,0,0:0:0:0:
448,192,81460,1,0,0:0:0:0:
192,192,81546,1,0,0:0:0:0:
64,192,81546,1,0,0:0:0:0:
320,192,81632,1,0,0:0:0:0:
64,192,81718,1,0,0:0:0:0:
448,192,81718,1,0,0:0:0:0:
192,192,81804,1,0,0:0:0:0:
448,192,81891,1,0,0:0:0:0:
320,192,81891,1,0,0:0:0:0:
64,192,81977,1,0,0:0:0:0:
320,192,82063,1,0,0:0:0:0:
192,192,82063,1,0,0:0:0:0:
448,192,82149,1,0,0:0:0:0:
64,192,82235,1,0,0:0:0:0:
192,192,82235,1,0,0:0:0:0:
320,192,82235,1,0,0:0:0:0:
64,192,82408,1,0,0:0:0:0:
192,192,82408,1,0,0:0:0:0:
320,192,82408,1,0,0:0:0:0:
448,192,82408,1,0,0:0:0:0:
320,192,82580,1,0,0:0:0:0:
192,192,82580,1,0,0:0:0:0:
64,192,82666,1,0,0:0:0:0:
448,192,82753,1,0,0:0:0:0:
320,192,82753,1,0,0:0:0:0:
192,192,82839,1,0,0:0:0:0:
64,192,82925,1,0,0:0:0:0:
448,192,82925,1,0,0:0:0:0:
320,192,83011,1,0,0:0:0:0:
192,192,83097,1,0,0:0:0:0:
64,192,83097,1,0,0:0:0:0:
448,192,83184,1,0,0:0:0:0:
320,192,83270,1,0,0:0:0:0:
192,192,83270,1,0,0:0:0:0:
64,192,83356,1,0,0:0:0:0:
448,192,83442,1,0,0:0:0:0:
192,192,83442,1,0,0:0:0:0:
320,192,83528,1,0,0:0:0:0:
192,192,83615,1,0,0:0:0:0:
64,192,83615,1,0,0:0:0:0:
448,192,83615,1,0,0:0:0:0:
448,192,83787,1,0,0:0:0:0:
320,192,83787,1,0,0:0:0:0:
192,192,83787,1,0,0:0:0:0:
64,192,83787,1,0,0:0:0:0:
320,192,83960,1,0,0:0:0:0:
192,192,84046,1,0,0:0:0:0:
320,192,84132,1,0,0:0:0:0:
448,192,84132,1,0,0:0:0:0:
64,192,84218,1,0,0:0:0:0:
192,192,84304,1,0,0:0:0:0:
320,192,84304,1,0,0:0:0:0:
448,192,84391,1,0,0:0:0:0:
64,192,84477,1,0,0:0:0:0:
192,192,84477,1,0,0:0:0:0:
320,192,84563,1,0,0:0:0:0:
192,192,84649,1,0,0:0:0:0:
448,192,84649,1,0,0:0:0:0:
320,192,84735,1,0,0:0:0:0:
64,192,84822,1,0,0:0:0:0:
192,192,84822,1,0,0:0:0:0:
448,192,84908,1,0,0:0:0:0:
320,192,84994,1,0,0:0:0:0:
64,192,84994,1,0,0:0:0:0:
192,192,84994,1,0,0:0:0:0:
320,192,85166,1,0,0:0:0:0:
192,192,85166,1,0,0:0:0:0:
448,192,85166,1,0,0:0:0:0:
64,192,85166,1,0,0:0:0:0:
448,192,85339,1,0,0:0:0:0:
192,192,85339,1,0,0:0:0:0:
64,192,85339,1,0,0:0:0:0:
320,192,85425,1,0,0:0:0:0:
64,192,85511,1,0,0:0:0:0:
192,192,85511,1,0,0:0:0:0:
448,192,85511,1,0,0:0:0:0:
320,192,85597,1,0,0:0:0:0:
64,192,85684,1,0,0:0:0:0:
448,192,85684,1,0,0:0:0:0:
192,192,85684,1,0,0:0:0:0:
320,192,85770,1,0,0:0:0:0:
64,192,85856,1,0,0:0:0:0:
448,192,85856,1,0,0:0:0:0:
192,192,85942,1,0,0:0:0:0:
64,192,86028,1,0,0:0:0:0:
320,192,86028,1,0,0:0:0:0:
448,192,86115,1,0,0:0:0:0:
320,192,86201,1,0,0:0:0:0:
192,192,86201,1,0,0:0:0:0:
64,192,86287,1,0,0:0:0:0:
320,192,86373,1,0,0:0:0:0:
448,192,86373,1,0,0:0:0:0:
192,192,86373,1,0,0:0:0:0:
64,192,86546,1,0,0:0:0:0:
448,192,86546,1,0,0:0:0:0:
320,192,86546,1,0,0:0:0:0:
192,192,86546,1,0,0:0:0:0:
192,192,86718,1,0,0:0:0:0:
64,192,86718,1,0,0:0:0:0:
320,192,86804,1,0,0:0:0:0:
448,192,86891,1,0,0:0:0:0:
192,192,86891,1,0,0:0:0:0:
320,192,86977,1,0,0:0:0:0:
64,192,87063,1,0,0:0:0:0:
192,192,87063,1,0,0:0:0:0:
448,192,87149,1,0,0:0:0:0:
192,192,87235,1,0,0:0:0:0:
320,192,87235,1,0,0:0:0:0:
64,192,87322,1,0,0:0:0:0:
448,192,87408,1,0,0:0:0:0:
320,192,87408,1,0,0:0:0:0:
192,192,87494,1,0,0:0:0:0:
64,192,87580,1,0,0:0:0:0:
320,192,87580,1,0,0:0:0:0:
192,192,87666,1,0,0:0:0:0:
320,192,87753,1,0,0:0:0:0:
448,192,87753,1,0,0:0:0:0:
64,192,87753,1,0,0:0:0:0:
192,192,87925,1,0,0:0:0:0:
320,192,87925,1,0,0:0:0:0:
448,192,87925,1,0,0:0:0:0:
64,192,87925,1,0,0:0:0:0:
320,192,88097,1,0,0:0:0:0:
192,192,88097,1,0,0:0:0:0:
64,192,88184,1,0,0:0:0:0:
448,192,88270,1,0,0:0:0:0:
320,192,88270,1,0,0:0:0:0:
192,192,88356,1,0,0:0:0:0:
64,192,88442,1,0,0:0:0:0:
448,192,88442,1,0,0:0:0:0:
320,192,88528,1,0,0:0:0:0:
448,192,88615,1,0,0:0:0:0:
192,192,88615,1,0,0:0:0:0:
64,192,88701,1,0,0:0:0:0:
192,192,88787,1,0,0:0:0:0:
320,192,88787,1,0,0:0:0:0:
448,192,88873,1,0,0:0:0:0:
64,192,88960,1,0,0:0:0:0:
192,192,88960,1,0,0:0:0:0:
320,192,89046,1,0,0:0:0:0:
448,192,89132,1,0,0:0:0:0:
192,192,89132,1,0,0:0:0:0:
64,192,89132,1,0,0:0:0:0:
64,192,89304,1,0,0:0:0:0:
192,192,89304,1,0,0:0:0:0:
320,192,89304,1,0,0:0:0:0:
448,192,89304,1,0,0:0:0:0:
448,192,89477,1,0,0:0:0:0:
192,192,89477,1,0,0:0:0:0:
64,192,89563,1,0,0:0:0:0:
192,192,89649,1,0,0:0:0:0:
320,192,89649,1,0,0:0:0:0:
448,192,89735,1,0,0:0:0:0:
64,192,89822,1,0,0:0:0:0:
192,192,89822,1,0,0:0:0:0:
320,192,89908,1,0,0:0:0:0:
192,192,89994,1,0,0:0:0:0:
448,192,89994,1,0,0:0:0:0:
64,192,90080,1,0,0:0:0:0:
192,192,90166,1,0,0:0:0:0:
320,192,90166,1,0,0:0:0:0:
448,192,90253,1,0,0:0:0:0:
320,192,90339,1,0,0:0:0:0:
192,192,90339,1,0,0:0:0:0:
64,192,90425,1,0,0:0:0:0:
448,192,90511,1,0,0:0:0:0:
320,192,90511,1,0,0:0:0:0:
192,192,90511,1,0,0:0:0:0:
64,192,90684,1,0,0:0:0:0:
448,192,90684,1,0,0:0:0:0:
320,192,90684,1,0,0:0:0:0:
192,192,90684,1,0,0:0:0:0:
64,192,90856,1,0,0:0:0:0:
192,192,90856,1,0,0:0:0:0:
320,192,90856,1,0,0:0:0:0:
448,192,90942,1,0,0:0:0:0:
64,192,91028,1,0,0:0:0:0:
320,192,91028,1,0,0:0:0:0:
192,192,91028,1,0,0:0:0:0:
448,192,91115,1,0,0:0:0:0:
320,192,91201,1,0,0:0:0:0:
192,192,91201,1,0,0:0:0:0:
64,192,91201,1,0,0:0:0:0:
448,192,91287,1,0,0:0:0:0:
192,192,91373,1,0,0:0:0:0:
320,192,91373,1,0,0:0:0:0:
64,192,91460,1,0,0:0:0:0:
192,192,91546,1,0,0:0:0:0:
448,192,91546,1,0,0:0:0:0:
320,192,91632,1,0,0:0:0:0:
448,192,91718,1,0,0:0:0:0:
64,192,91718,1,0,0:0:0:0:
192,192,91804,1,0,0:0:0:0:
320,192,91891,1,0,0:0:0:0:
448,192,91891,1,0,0:0:0:0:
64,192,91891,1,0,0:0:0:0:
192,192,92063,1,0,0:0:0:0:
320,192,92063,1,0,0:0:0:0:
448,192,92063,1,0,0:0:0:0:
64,192,92063,1,0,0:0:0:0:
320,192,92235,1,0,0:0:0:0:
192,192,92235,1,0,0:0:0:0:
64,192,92322,1,0,0:0:0:0:
448,192,92408,1,0,0:0:0:0:
320,192,92408,1,0,0:0:0:0:
192,192,92494,1,0,0:0:0:0:
64,192,92580,1,0,0:0:0:0:
448,192,92753,1,0,0:0:0:0:
320,192,92753,1,0,0:0:0:0:
320,192,92925,1,0,0:0:0:0:
192,192,92925,1,0,0:0:0:0:
64,192,93097,1,0,0:0:0:0:
320,192,93097,1,0,0:0:0:0:
448,192,93270,1,0,0:0:0:0:
192,192,93270,1,0,0:0:0:0:
64,192,93442,1,0,0:0:0:0:
192,192,93442,1,0,0:0:0:0:
320,192,93615,1,0,0:0:0:0:
448,192,93615,1,0,0:0:0:0:
64,192,93787,1,0,0:0:0:0:
320,192,93787,1,0,0:0:0:0:
448,192,93960,1,0,0:0:0:0:
320,192,93960,1,0,0:0:0:0:
64,192,94132,1,0,0:0:0:0:
320,192,94132,1,0,0:0:0:0:
448,192,94132,1,0,0:0:0:0:
192,192,94218,1,0,0:0:0:0:
320,192,94304,1,0,0:0:0:0:
448,192,94391,1,0,0:0:0:0:
64,192,94477,1,0,0:0:0:0:
192,192,94563,1,0,0:0:0:0:
320,192,94649,1,0,0:0:0:0:
448,192,94735,1,0,0:0:0:0:
320,192,94822,1,0,0:0:0:0:
192,192,94908,1,0,0:0:0:0:
320,192,94994,1,0,0:0:0:0:
448,192,95080,1,0,0:0:0:0:
320,192,95166,1,0,0:0:0:0:
192,192,95253,1,0,0:0:0:0:
64,192,95339,1,0,0:0:0:0:
192,192,95425,1,0,0:0:0:0:
320,192,95511,1,0,0:0:0:0:
448,192,95597,1,0,0:0:0:0:
320,192,95684,1,0,0:0:0:0:
192,192,95770,1,0,0:0:0:0:
64,192,95856,1,0,0:0:0:0:
448,192,95942,1,0,0:0:0:0:
320,192,96028,1,0,0:0:0:0:
192,192,96115,1,0,0:0:0:0:
64,192,96201,1,0,0:0:0:0:
320,192,96201,1,0,0:0:0:0:
448,192,96201,1,0,0:0:0:0:
192,192,96287,1,0,0:0:0:0:
320,192,96373,1,0,0:0:0:0:
192,192,96460,1,0,0:0:0:0:
64,192,96546,1,0,0:0:0:0:
192,192,96632,1,0,0:0:0:0:
320,192,96718,1,0,0:0:0:0:
448,192,96804,1,0,0:0:0:0:
320,192,96891,1,0,0:0:0:0:
192,192,96891,1,0,0:0:0:0:
64,192,96891,1,0,0:0:0:0:
448,192,96977,1,0,0:0:0:0:
320,192,97063,1,0,0:0:0:0:
192,192,97149,1,0,0:0:0:0:
64,192,97235,1,0,0:0:0:0:
448,192,97322,1,0,0:0:0:0:
320,192,97408,1,0,0:0:0:0:
192,192,97494,1,0,0:0:0:0:
64,192,97580,1,0,0:0:0:0:
192,192,97666,1,0,0:0:0:0:
448,192,97753,1,0,0:0:0:0:
320,192,97839,1,0,0:0:0:0:
64,192,97925,1,0,0:0:0:0:
192,192,98011,1,0,0:0:0:0:
320,192,98097,1,0,0:0:0:0:
192,192,98184,1,0,0:0:0:0:
320,192,98270,1,0,0:0:0:0:
448,192,98270,1,0,0:0:0:0:
64,192,98270,1,0,0:0:0:0:
192,192,98356,1,0,0:0:0:0:
320,192,98442,1,0,0:0:0:0:
448,192,98528,1,0,0:0:0:0:
320,192,98615,1,0,0:0:0:0:
192,192,98701,1,0,0:0:0:0:
320,192,98787,1,0,0:0:0:0:
192,192,98873,1,0,0:0:0:0:
320,192,98960,1,0,0:0:0:0:
64,192,98960,1,0,0:0:0:0:
448,192,98960,1,0,0:0:0:0:
192,192,99046,1,0,0:0:0:0:
64,192,99132,1,0,0:0:0:0:
192,192,99218,1,0,0:0:0:0:
320,192,99304,1,0,0:0:0:0:
448,192,99391,1,0,0:0:0:0:
64,192,99477,1,0,0:0:0:0:
192,192,99563,1,0,0:0:0:0:
320,192,99649,1,0,0:0:0:0:
448,192,99649,1,0,0:0:0:0:
64,192,99649,1,0,0:0:0:0:
192,192,99735,1,0,0:0:0:0:
320,192,99822,1,0,0:0:0:0:
448,192,99908,1,0,0:0:0:0:
320,192,99994,1,0,0:0:0:0:
192,192,100080,1,0,0:0:0:0:
64,192,100166,1,0,0:0:0:0:
448,192,100253,1,0,0:0:0:0:
320,192,100339,1,0,0:0:0:0:
192,192,100425,1,0,0:0:0:0:
64,192,100511,1,0,0:0:0:0:
448,192,100597,1,0,0:0:0:0:
320,192,100684,1,0,0:0:0:0:
64,192,100770,1,0,0:0:0:0:
192,192,100856,1,0,0:0:0:0:
448,192,100942,1,0,0:0:0:0:
320,192,101028,1,0,0:0:0:0:
64,192,101115,1,0,0:0:0:0:
192,192,101201,1,0,0:0:0:0:
320,192,101287,1,0,0:0:0:0:
448,192,101373,1,0,0:0:0:0:
64,192,101460,1,0,0:0:0:0:
192,192,101546,1,0,0:0:0:0:
320,192,101632,1,0,0:0:0:0:
192,192,101718,1,0,0:0:0:0:
64,192,101718,1,0,0:0:0:0:
448,192,101718,1,0,0:0:0:0:
320,192,101804,1,0,0:0:0:0:
192,192,101891,1,0,0:0:0:0:
64,192,101977,1,0,0:0:0:0:
192,192,102063,1,0,0:0:0:0:
320,192,102149,1,0,0:0:0:0:
192,192,102235,1,0,0:0:0:0:
64,192,102322,1,0,0:0:0:0:
448,192,102408,1,0,0:0:0:0:
320,192,102408,1,0,0:0:0:0:
192,192,102408,1,0,0:0:0:0:
64,192,102494,1,0,0:0:0:0:
192,192,102580,1,0,0:0:0:0:
320,192,102666,1,0,0:0:0:0:
448,192,102753,1,0,0:0:0:0:
192,192,102753,1,0,0:0:0:0:
64,192,102839,1,0,0:0:0:0:
192,192,102896,1,0,0:0:0:0:
320,192,102954,1,0,0:0:0:0:
448,192,103011,1,0,0:0:0:0:
64,192,103069,1,0,0:0:0:0:
192,192,103126,1,0,0:0:0:0:
448,192,103184,1,0,0:0:0:0:
320,192,103270,1,0,0:0:0:0:
64,192,103335,1,0,0:0:0:0:
192,192,103378,1,0,0:0:0:0:
320,192,103442,1,0,0:0:0:0:
448,192,103507,1,0,0:0:0:0:
64,192,103550,1,0,0:0:0:0:
192,192,103615,1,0,0:0:0:0:
448,192,103679,1,0,0:0:0:0:
320,192,103722,1,0,0:0:0:0:
192,192,103787,1,0,0:0:0:0:
64,192,103809,1,0,0:0:0:0:
448,192,103809,1,0,0:0:0:0:
320,192,103852,1,0,0:0:0:0:
192,192,103895,1,0,0:0:0:0:
64,192,103960,1,0,0:0:0:0:
448,192,104024,1,0,0:0:0:0:
320,192,104067,1,0,0:0:0:0:
64,192,104132,1,0,0:0:0:0:
192,192,104197,1,0,0:0:0:0:
320,192,104240,1,0,0:0:0:0:
448,192,104304,1,0,0:0:0:0:
64,192,104369,1,0,0:0:0:0:
192,192,104412,1,0,0:0:0:0:
320,192,104477,1,0,0:0:0:0:
448,192,104520,1,0,0:0:0:0:
192,192,104585,1,0,0:0:0:0:
64,192,104628,1,0,0:0:0:0:
320,192,104692,1,0,0:0:0:0:
448,192,104757,1,0,0:0:0:0:
64,192,104800,1,0,0:0:0:0:
192,192,104865,1,0,0:0:0:0:
448,192,104929,1,0,0:0:0:0:
320,192,104972,1,0,0:0:0:0:
64,192,105037,1,0,0:0:0:0:
192,192,105102,1,0,0:0:0:0:
320,192,105145,1,0,0:0:0:0:
448,192,105188,1,0,0:0:0:0:
64,192,105188,1,0,0:0:0:0:
192,192,105274,1,0,0:0:0:0:
448,192,105360,1,0,0:0:0:0:
320,192,105447,1,0,0:0:0:0:
64,192,105511,1,0,0:0:0:0:
192,192,105597,1,0,0:0:0:0:
320,192,105684,1,0,0:0:0:0:
448,192,105770,1,0,0:0:0:0:
64,192,105856,1,0,0:0:0:0:
192,192,105942,1,0,0:0:0:0:
448,192,106028,1,0,0:0:0:0:
320,192,106115,1,0,0:0:0:0:
64,192,106201,1,0,0:0:0:0:
192,192,106287,1,0,0:0:0:0:
320,192,106373,1,0,0:0:0:0:
448,192,106460,1,0,0:0:0:0:
192,192,106546,1,0,0:0:0:0:
64,192,106632,1,0,0:0:0:0:
320,192,106718,1,0,0:0:0:0:
448,192,106804,1,0,0:0:0:0:
192,192,106891,1,0,0:0:0:0:
64,192,106977,1,0,0:0:0:0:
192,192,107063,1,0,0:0:0:0:
320,192,107149,1,0,0:0:0:0:
448,192,107235,1,0,0:0:0:0:
192,192,107235,1,0,0:0:0:0:
64,192,107235,1,0,0:0:0:0:
320,192,107322,1,0,0:0:0:0:
192,192,107408,1,0,0:0:0:0:
64,192,107494,1,0,0:0:0:0:
320,192,107580,1,0,0:0:0:0:
448,192,107666,1,0,0:0:0:0:
320,192,107753,1,0,0:0:0:0:
192,192,107839,1,0,0:0:0:0:
448,192,107925,1,0,0:0:0:0:
320,192,107925,1,0,0:0:0:0:
64,192,107925,1,0,0:0:0:0:
192,192,108011,1,0,0:0:0:0:
64,192,108097,1,0,0:0:0:0:
320,192,108184,1,0,0:0:0:0:
192,192,108270,1,0,0:0:0:0:
64,192,108356,1,0,0:0:0:0:
448,192,108442,1,0,0:0:0:0:
320,192,108528,1,0,0:0:0:0:
64,192,108615,1,0,0:0:0:0:
192,192,108701,1,0,0:0:0:0:
320,192,108787,1,0,0:0:0:0:
64,192,108873,1,0,0:0:0:0:
192,192,108960,1,0,0:0:0:0:
320,192,109046,1,0,0:0:0:0:
448,192,109132,1,0,0:0:0:0:
192,192,109218,1,0,0:0:0:0:
448,192,109304,1,0,0:0:0:0:
320,192,109304,1,0,0:0:0:0:
64,192,109304,1,0,0:0:0:0:
192,192,109391,1,0,0:0:0:0:
320,192,109477,1,0,0:0:0:0:
64,192,109563,1,0,0:0:0:0:
192,192,109649,1,0,0:0:0:0:
320,192,109735,1,0,0:0:0:0:
448,192,109822,1,0,0:0:0:0:
320,192,109908,1,0,0:0:0:0:
448,192,109994,1,0,0:0:0:0:
192,192,109994,1,0,0:0:0:0:
64,192,109994,1,0,0:0:0:0:
320,192,110080,1,0,0:0:0:0:
192,192,110166,1,0,0:0:0:0:
64,192,110253,1,0,0:0:0:0:
192,192,110339,1,0,0:0:0:0:
320,192,110425,1,0,0:0:0:0:
192,192,110511,1,0,0:0:0:0:
64,192,110597,1,0,0:0:0:0:
448,192,110684,1,0,0:0:0:0:
320,192,110684,1,0,0:0:0:0:
192,192,110684,1,0,0:0:0:0:
64,192,110770,1,0,0:0:0:0:
192,192,110856,1,0,0:0:0:0:
320,192,110942,1,0,0:0:0:0:
192,192,111028,1,0,0:0:0:0:
64,192,111115,1,0,0:0:0:0:
320,192,111201,1,0,0:0:0:0:
448,192,111287,1,0,0:0:0:0:
192,192,111373,1,0,0:0:0:0:
64,192,111460,1,0,0:0:0:0:
192,192,111546,1,0,0:0:0:0:
320,192,111632,1,0,0:0:0:0:
448,192,111718,1,0,0:0:0:0:
320,192,111804,1,0,0:0:0:0:
192,192,111891,1,0,0:0:0:0:
64,192,111977,1,0,0:0:0:0:
192,192,112063,1,0,0:0:0:0:
320,192,112149,1,0,0:0:0:0:
64,192,112235,1,0,0:0:0:0:
192,192,112322,1,0,0:0:0:0:
320,192,112408,1,0,0:0:0:0:
448,192,112494,1,0,0:0:0:0:
320,192,112580,1,0,0:0:0:0:
448,192,112666,1,0,0:0:0:0:
320,192,112753,1,0,0:0:0:0:
192,192,112753,1,0,0:0:0:0:
64,192,112753,1,0,0:0:0:0:
448,192,112839,1,0,0:0:0:0:
320,192,112925,1,0,0:0:0:0:
192,192,113011,1,0,0:0:0:0:
320,192,113097,1,0,0:0:0:0:
192,192,113184,1,0,0:0:0:0:
64,192,113270,1,0,0:0:0:0:
192,192,113356,1,0,0:0:0:0:
448,192,113442,1,0,0:0:0:0:
320,192,113442,1,0,0:0:0:0:
64,192,113528,1,0,0:0:0:0:
192,192,113615,1,0,0:0:0:0:
64,192,113701,1,0,0:0:0:0:
320,192,113787,1,0,0:0:0:0:
448,192,113787,1,0,0:0:0:0:
192,192,113809,1,0,0:0:0:0:
64,192,113873,1,0,0:0:0:0:
448,192,113938,1,0,0:0:0:0:
320,192,113981,1,0,0:0:0:0:
192,192,114046,1,0,0:0:0:0:
64,192,114110,1,0,0:0:0:0:
192,192,114153,1,0,0:0:0:0:
320,192,114218,1,0,0:0:0:0:
448,192,114283,1,0,0:0:0:0:
192,192,114362,1,0,0:0:0:0:
64,192,114434,1,0,0:0:0:0:
320,192,114477,1,0,0:0:0:0:
448,192,114534,1,0,0:0:0:0:
192,192,114606,1,0,0:0:0:0:
64,192,114649,1,0,0:0:0:0:
448,192,114707,1,0,0:0:0:0:
320,192,114778,1,0,0:0:0:0:
192,192,114822,1,0,0:0:0:0:
448,192,114865,1,0,0:0:0:0:
64,192,114865,1,0,0:0:0:0:
320,192,114879,1,0,0:0:0:0:
192,192,114951,1,0,0:0:0:0:
64,192,114994,1,0,0:0:0:0:
448,192,115051,1,0,0:0:0:0:
320,192,115123,1,0,0:0:0:0:
192,192,115166,1,0,0:0:0:0:
64,192,115224,1,0,0:0:0:0:
448,192,115296,1,0,0:0:0:0:
320,192,115339,1,0,0:0:0:0:
192,192,115396,1,0,0:0:0:0:
64,192,115468,1,0,0:0:0:0:
448,192,115511,1,0,0:0:0:0:
320,192,115569,1,0,0:0:0:0:
192,192,115641,1,0,0:0:0:0:
64,192,115684,1,0,0:0:0:0:
448,192,115770,1,0,0:0:0:0:
320,192,115770,1,0,0:0:0:0:
64,192,115856,1,0,0:0:0:0:
192,192,115856,1,0,0:0:0:0:
320,192,115942,1,0,0:0:0:0:
448,192,115942,1,0,0:0:0:0:
192,192,116093,1,0,0:0:0:0:
320,192,116093,1,0,0:0:0:0:
320,192,116201,1,0,0:0:0:0:
448,192,116201,1,0,0:0:0:0:
192,192,116201,1,0,0:0:0:0:
64,192,116201,1,0,0:0:0:0:
64,192,116330,1,0,0:0:0:0:
192,192,116330,1,0,0:0:0:0:
320,192,116438,1,0,0:0:0:0:
192,192,116438,1,0,0:0:0:0:
320,192,116546,1,0,0:0:0:0:
64,192,116546,1,0,0:0:0:0:
64,192,116675,1,0,0:0:0:0:
192,192,116675,1,0,0:0:0:0:
320,192,116783,1,0,0:0:0:0:
448,192,116783,1,0,0:0:0:0:
448,192,116891,1,0,0:0:0:0:
320,192,116891,1,0,0:0:0:0:
192,192,116891,1,0,0:0:0:0:
64,192,116891,1,0,0:0:0:0:
320,192,117005,1,0,0:0:0:0:
192,192,117005,1,0,0:0:0:0:
320,192,117120,1,0,0:0:0:0:
448,192,117120,1,0,0:0:0:0:
64,192,117235,1,0,0:0:0:0:
448,192,117235,1,0,0:0:0:0:
320,192,117350,1,0,0:0:0:0:
64,192,117350,1,0,0:0:0:0:
192,192,117465,1,0,0:0:0:0:
320,192,117465,1,0,0:0:0:0:
448,192,117580,1,0,0:0:0:0:
320,192,117580,1,0,0:0:0:0:
192,192,117580,1,0,0:0:0:0:
64,192,117580,1,0,0:0:0:0:
320,192,117695,1,0,0:0:0:0:
448,192,117695,1,0,0:0:0:0:
320,192,117810,1,0,0:0:0:0:
192,192,117810,1,0,0:0:0:0:
64,192,117925,1,0,0:0:0:0:
192,192,117925,1,0,0:0:0:0:
320,192,118040,1,0,0:0:0:0:
64,192,118040,1,0,0:0:0:0:
448,192,118155,1,0,0:0:0:0:
192,192,118155,1,0,0:0:0:0:
448,192,118270,1,0,0:0:0:0:
320,192,118270,1,0,0:0:0:0:
192,192,118270,1,0,0:0:0:0:
64,192,118270,1,0,0:0:0:0:
192,192,118385,1,0,0:0:0:0:
64,192,118385,1,0,0:0:0:0:
320,192,118500,1,0,0:0:0:0:
192,192,118500,1,0,0:0:0:0:
320,192,118615,1,0,0:0:0:0:
64,192,118615,1,0,0:0:0:0:
64,192,118730,1,0,0:0:0:0:
448,192,118730,1,0,0:0:0:0:
320,192,118845,1,0,0:0:0:0:
192,192,118845,1,0,0:0:0:0:
64,192,118960,1,0,0:0:0:0:
192,192,118960,1,0,0:0:0:0:
320,192,118960,1,0,0:0:0:0:
448,192,118960,1,0,0:0:0:0:
448,192,119074,1,0,0:0:0:0:
320,192,119074,1,0,0:0:0:0:
320,192,119189,1,0,0:0:0:0:
192,192,119189,1,0,0:0:0:0:
64,192,119304,1,0,0:0:0:0:
192,192,119304,1,0,0:0:0:0:
64,192,119419,1,0,0:0:0:0:
448,192,119419,1,0,0:0:0:0:
320,192,119534,1,0,0:0:0:0:
192,192,119534,1,0,0:0:0:0:
192,192,119649,1,0,0:0:0:0:
320,192,119649,1,0,0:0:0:0:
64,192,119649,1,0,0:0:0:0:
448,192,119649,1,0,0:0:0:0:
64,192,119764,1,0,0:0:0:0:
448,192,119764,1,0,0:0:0:0:
320,192,119879,1,0,0:0:0:0:
64,192,119879,1,0,0:0:0:0:
320,192,119994,1,0,0:0:0:0:
192,192,119994,1,0,0:0:0:0:
448,192,120109,1,0,0:0:0:0:
192,192,120109,1,0,0:0:0:0:
320,192,120224,1,0,0:0:0:0:
64,192,120224,1,0,0:0:0:0:
448,192,120339,1,0,0:0:0:0:
320,192,120339,1,0,0:0:0:0:
192,192,120339,1,0,0:0:0:0:
64,192,120339,1,0,0:0:0:0:
192,192,120454,1,0,0:0:0:0:
448,192,120454,1,0,0:0:0:0:
192,192,120569,1,0,0:0:0:0:
320,192,120569,1,0,0:0:0:0:
320,192,120684,1,0,0:0:0:0:
64,192,120684,1,0,0:0:0:0:
64,192,120799,1,0,0:0:0:0:
448,192,120799,1,0,0:0:0:0:
448,192,120914,1,0,0:0:0:0:
192,192,120914,1,0,0:0:0:0:
320,192,121028,1,0,0:0:0:0:
448,192,121028,1,0,0:0:0:0:
192,192,121028,1,0,0:0:0:0:
64,192,121028,1,0,0:0:0:0:
320,192,121143,1,0,0:0:0:0:
64,192,121143,1,0,0:0:0:0:
320,192,121258,1,0,0:0:0:0:
448,192,121258,1,0,0:0:0:0:
192,192,121373,1,0,0:0:0:0:
448,192,121373,1,0,0:0:0:0:
192,192,121488,1,0,0:0:0:0:
320,192,121488,1,0,0:0:0:0:
64,192,121603,1,0,0:0:0:0:
448,192,121603,1,0,0:0:0:0:
448,192,121718,1,0,0:0:0:0:
320,192,121718,1,0,0:0:0:0:
192,192,121718,1,0,0:0:0:0:
64,192,121718,1,0,0:0:0:0:
320,192,121833,1,0,0:0:0:0:
448,192,121833,1,0,0:0:0:0:
320,192,121948,1,0,0:0:0:0:
64,192,121948,1,0,0:0:0:0:
192,192,122063,1,0,0:0:0:0:
64,192,122063,1,0,0:0:0:0:
320,192,122178,1,0,0:0:0:0:
192,192,122178,1,0,0:0:0:0:
320,192,122293,1,0,0:0:0:0:
448,192,122293,1,0,0:0:0:0:
448,192,122408,1,0,0:0:0:0:
320,192,122408,1,0,0:0:0:0:
192,192,122408,1,0,0:0:0:0:
64,192,122408,1,0,0:0:0:0:
320,192,122523,1,0,0:0:0:0:
64,192,122523,1,0,0:0:0:0:
320,192,122638,1,0,0:0:0:0:
192,192,122638,1,0,0:0:0:0:
448,192,122753,1,0,0:0:0:0:
64,192,122753,1,0,0:0:0:0:
448,192,122868,1,0,0:0:0:0:
192,192,122868,1,0,0:0:0:0:
320,192,122982,1,0,0:0:0:0:
64,192,122982,1,0,0:0:0:0:
448,192,123097,1,0,0:0:0:0:
320,192,123097,1,0,0:0:0:0:
192,192,123097,1,0,0:0:0:0:
64,192,123097,1,0,0:0:0:0:
448,192,123212,1,0,0:0:0:0:
192,192,123212,1,0,0:0:0:0:
320,192,123327,1,0,0:0:0:0:
192,192,123327,1,0,0:0:0:0:
320,192,123442,1,0,0:0:0:0:
64,192,123442,1,0,0:0:0:0:
64,192,123557,1,0,0:0:0:0:
448,192,123557,1,0,0:0:0:0:
192,192,123672,1,0,0:0:0:0:
448,192,123672,1,0,0:0:0:0:
448,192,123787,1,0,0:0:0:0:
320,192,123787,1,0,0:0:0:0:
64,192,123787,1,0,0:0:0:0:
192,192,123787,1,0,0:0:0:0:
320,192,123902,1,0,0:0:0:0:
64,192,123902,1,0,0:0:0:0:
320,192,124017,1,0,0:0:0:0:
192,192,124017,1,0,0:0:0:0:
448,192,124132,1,0,0:0:0:0:
192,192,124132,1,0,0:0:0:0:
320,192,124247,1,0,0:0:0:0:
64,192,124247,1,0,0:0:0:0:
448,192,124362,1,0,0:0:0:0:
192,192,124362,1,0,0:0:0:0:
448,192,124477,1,0,0:0:0:0:
320,192,124477,1,0,0:0:0:0:
192,192,124477,1,0,0:0:0:0:
64,192,124477,1,0,0:0:0:0:
448,192,124592,1,0,0:0:0:0:
320,192,124592,1,0,0:0:0:0:
64,192,124707,1,0,0:0:0:0:
192,192,124707,1,0,0:0:0:0:
192,192,124822,1,0,0:0:0:0:
64,192,124822,1,0,0:0:0:0:
320,192,124937,1,0,0:0:0:0:
448,192,124937,1,0,0:0:0:0:
320,192,125051,1,0,0:0:0:0:
64,192,125051,1,0,0:0:0:0:
320,192,125166,1,0,0:0:0:0:
448,192,125166,1,0,0:0:0:0:
192,192,125166,1,0,0:0:0:0:
64,192,125166,1,0,0:0:0:0:
320,192,125281,1,0,0:0:0:0:
64,192,125281,1,0,0:0:0:0:
320,192,125396,1,0,0:0:0:0:
192,192,125396,1,0,0:0:0:0:
448,192,125511,1,0,0:0:0:0:
192,192,125511,1,0,0:0:0:0:
64,192,125626,1,0,0:0:0:0:
320,192,125626,1,0,0:0:0:0:
448,192,125741,1,0,0:0:0:0:
320,192,125741,1,0,0:0:0:0:
448,192,125856,1,0,0:0:0:0:
320,192,125856,1,0,0:0:0:0:
192,192,125856,1,0,0:0:0:0:
64,192,125856,1,0,0:0:0:0:
64,192,125971,1,0,0:0:0:0:
320,192,125971,1,0,0:0:0:0:
64,192,126086,1,0,0:0:0:0:
448,192,126086,1,0,0:0:0:0:
448,192,126201,1,0,0:0:0:0:
192,192,126201,1,0,0:0:0:0:
192,192,126316,1,0,0:0:0:0:
64,192,126316,1,0,0:0:0:0:
320,192,126431,1,0,0:0:0:0:
448,192,126431,1,0,0:0:0:0:
448,192,126546,1,0,0:0:0:0:
320,192,126546,1,0,0:0:0:0:
192,192,126546,1,0,0:0:0:0:
64,192,126546,1,0,0:0:0:0:
320,192,126661,1,0,0:0:0:0:
448,192,126661,1,0,0:0:0:0:
64,192,126761,1,0,0:0:0:0:
192,192,126804,1,0,0:0:0:0:
320,192,126847,1,0,0:0:0:0:
448,192,126891,1,0,0:0:0:0:
64,192,126934,1,0,0:0:0:0:
192,192,126977,1,0,0:0:0:0:
320,192,127020,1,0,0:0:0:0:
448,192,127063,1,0,0:0:0:0:
64,192,127106,1,0,0:0:0:0:
448,192,127235,1,0,0:0:0:0:
320,192,127235,1,0,0:0:0:0:
192,192,127235,1,0,0:0:0:0:
64,192,127235,1,0,0:0:0:0:
192,192,127408,1,0,0:0:0:0:
192,192,127580,1,0,0:0:0:0:
192,192,127753,1,0,0:0:0:0:
448,192,127925,128,0,128184:0:0:0:0:
64,192,128270,1,0,0:0:0:0:
64,192,128442,1,0,0:0:0:0:
192,192,128615,1,0,0:0:0:0:
192,192,128787,1,0,0:0:0:0:
448,192,128960,128,0,129218:0:0:0:0:
64,192,129304,1,0,0:0:0:0:
64,192,129477,1,0,0:0:0:0:
64,192,129649,1,0,0:0:0:0:
64,192,129822,1,0,0:0:0:0:
192,192,129994,1,0,0:0:0:0:
192,192,130166,1,0,0:0:0:0:
192,192,130339,1,0,0:0:0:0:
192,192,130511,1,0,0:0:0:0:
448,192,130684,128,0,130942:0:0:0:0:
320,192,131028,1,0,0:0:0:0:
320,192,131201,1,0,0:0:0:0:
448,192,131373,1,0,0:0:0:0:
448,192,131546,1,0,0:0:0:0:
192,192,131718,1,0,0:0:0:0:
192,192,131891,1,0,0:0:0:0:
64,192,132063,1,0,0:0:0:0:
64,192,132235,1,0,0:0:0:0:
64,192,132408,1,0,0:0:0:0:
64,192,132580,1,0,0:0:0:0:
192,192,132753,1,0,0:0:0:0:
192,192,132925,1,0,0:0:0:0:
192,192,133097,1,0,0:0:0:0:
192,192,133270,1,0,0:0:0:0:
448,192,133442,128,0,133701:0:0:0:0:
320,192,133787,1,0,0:0:0:0:
320,192,133960,1,0,0:0:0:0:
320,192,134132,1,0,0:0:0:0:
320,192,134304,1,0,0:0:0:0:
448,192,134477,128,0,134735:0:0:0:0:
192,192,134822,1,0,0:0:0:0:
192,192,134994,1,0,0:0:0:0:
320,192,135166,1,0,0:0:0:0:
320,192,135339,1,0,0:0:0:0:
448,192,135511,1,0,0:0:0:0:
448,192,135684,1,0,0:0:0:0:
448,192,135856,1,0,0:0:0:0:
448,192,136028,1,0,0:0:0:0:
448,192,136201,128,0,136460:0:0:0:0:
192,192,136546,1,0,0:0:0:0:
192,192,136718,1,0,0:0:0:0:
192,192,136891,1,0,0:0:0:0:
192,192,137063,1,0,0:0:0:0:
448,192,137235,128,0,137494:0:0:0:0:
320,192,137925,1,0,0:0:0:0:
448,192,137925,1,0,0:0:0:0:
192,192,137925,1,0,0:0:0:0:
64,192,137925,1,0,0:0:0:0:
192,192,138097,1,0,0:0:0:0:
320,192,138270,1,0,0:0:0:0:
448,192,138270,1,0,0:0:0:0:
192,192,138270,1,0,0:0:0:0:
64,192,138270,1,0,0:0:0:0:
