osu file format v14

[General]
AudioFilename: audio.mp3
AudioLeadIn: 0
PreviewTime: 44084
Countdown: 0
SampleSet: Soft
StackLeniency: 0.4
Mode: 0
LetterboxInBreaks: 0
WidescreenStoryboard: 0

[Editor]
Bookmarks: 33124,52455,113641
DistanceSpacing: 1.2
BeatDivisor: 4
GridSize: 4
TimelineZoom: 2

[Metadata]
Title:The Style of Evermore (Blue Marble Remix) (Cut Ver.)
TitleUnicode:The Style of Evermore (Blue Marble Remix) (Cut Ver.)
Artist:Roos Denayer
ArtistUnicode:Roos Denayer
Creator:Gordon123
Version:Easy
Source:
Tags:mpg danielexus Bekko Bakari riffy Shmiklak marvollo m_a_r_v_o_l_l_o Daycore featured artist fa mappers' guild mg Station Earth Electronic English drum and bass dnb d&b Greg Rakozy
BeatmapID:2532015
BeatmapSetID:1214619

[Difficulty]
HPDrainRate:2
CircleSize:2
OverallDifficulty:2.5
ApproachRate:3
SliderMultiplier:1
SliderTickRate:1

[Events]
//Background and Video events
0,0,"fuf.jpg",0,0
//Break Periods
//Storyboard Layer 0 (Background)
//Storyboard Layer 1 (Fail)
//Storyboard Layer 2 (Pass)
//Storyboard Layer 3 (Foreground)
//Storyboard Layer 4 (Overlay)
//Storyboard Sound Samples

[TimingPoints]
33,459.770114942529,3,2,1,40,1,0
33,-100,3,2,1,40,0,0
11067,-100,3,2,1,40,0,0
33136,344.827586206897,4,2,1,45,1,0
33136,-100,4,2,1,45,0,0
38653,-100,4,2,1,50,0,0
43308,-100,4,2,1,55,0,0
60722,-100,4,2,1,58,0,0
63480,-100,4,2,1,60,0,0
64860,-100,4,2,1,65,0,0
66239,-100,4,2,1,70,0,1
85549,-100,4,2,1,60,0,0
88308,-100,4,2,1,70,0,1
107618,-100,4,2,1,60,0,0
108998,-100,4,2,1,55,0,0
110377,-100,4,2,1,50,0,0
110722,-100,4,2,1,40,0,0
111239,-100,4,2,1,30,0,0
111756,-100,4,2,1,25,0,0
112273,-100,4,2,1,20,0,0
112791,-100,4,2,1,15,0,0
113308,-100,4,2,1,10,0,0
113825,-100,4,2,1,5,0,0

[Colours]
Combo1 : 187,211,251
Combo2 : 168,164,210
Combo3 : 203,180,199
Combo4 : 188,202,172

[HitObjects]
76,121,11067,6,0,P|85:72|73:24,2,100,4|2|2,3:2|0:0|0:0,0:0:0:0:
161,204,12446,2,0,P|151:252|163:300,2,100,2|2|2,0:3|0:0|0:0,0:0:0:0:
224,101,13826,2,0,P|271:85|320:90,1,100,2|2,0:3|0:0,0:0:0:0:
424,151,14745,1,2,0:0:0:0:
424,151,16584,6,0,L|417:253,1,100,2|2,0:3|0:0,0:0:0:0:
323,326,17504,1,2,0:0:0:0:
229,250,17964,2,0,P|187:228|126:242,1,100,2|2,0:3|0:0,0:0:0:0:
37,302,18883,1,2,0:0:0:0:
37,181,19343,2,0,L|19:78,2,100,2|2|2,0:3|0:0|0:0,0:0:0:0:
37,181,22101,6,0,P|82:187|130:220,1,100,2|2,0:3|0:0,0:0:0:0:
193,316,23021,1,2,0:0:0:0:
312,322,23481,2,0,L|298:216,1,100,2|2,0:3|0:0,0:0:0:0:
274,105,24400,1,2,0:0:0:0:
389,139,24860,2,0,P|426:108|494:109,2,100,2|2|2,0:3|0:0|0:0,0:0:0:0:
389,139,27619,6,0,L|401:254,2,100,2|2|2,0:3|0:0|0:0,0:0:0:0:
272,109,28998,2,0,L|284:-6,2,100,2|2|2,0:3|0:0|0:0,0:0:0:0:
165,165,30377,2,0,P|177:208|143:269,1,100,2|2,0:3|0:0,0:0:0:0:
63,334,31297,1,2,0:0:0:0:
254,49,33136,6,0,P|320:79|338:111,1,100,0|8,3:0|0:0,0:0:0:0:
364,216,33825,2,0,P|331:280|299:297,1,100,0|8,0:0|0:0,0:0:0:0:
192,324,34515,2,0,B|190:220|116:251|122:131,1,200,2|0,3:2|0:0,0:0:0:0:
223,79,35549,1,8,0:0:0:0:
317,153,35894,6,0,P|340:54|311:-2,2,150,2|2|8,3:2|0:0|0:0,0:0:0:0:
252,254,37273,2,0,L|262:365,1,100,0|8,3:0|0:0,0:0:0:0:
381,360,37963,2,0,L|372:260,1,100,0|8,0:0|0:0,0:0:0:0:
455,173,38653,6,0,P|398:98|298:115,1,200,2|0,3:2|0:0,0:0:0:0:
200,48,39687,1,8,0:0:0:0:
97,111,40032,2,0,L|104:214,1,100,2|8,3:2|0:0,0:0:0:0:
70,326,40722,2,0,P|124:329|181:303,1,100,0|8,0:0|0:0,0:0:0:0:
256,192,41411,12,2,42791,0:0:0:0:
269,70,44170,6,0,L|272:19,2,50,4|0|10,3:2|0:0|0:2,0:0:0:0:
149,88,44860,2,0,P|101:103|64:136,1,100,2|8,0:2|0:0,0:0:0:0:
89,252,45549,2,0,P|161:235|220:189,2,150,0|2|8,3:0|0:0|0:0,0:0:0:0:
65,135,46929,5,0,3:0:0:0:
147,48,47273,1,10,0:2:0:0:
266,56,47618,2,0,P|314:67|364:107,1,100,2|8,0:2|0:0,0:0:0:0:
428,191,48308,2,0,P|466:137|461:41,2,150,0|2|10,3:0|0:0|0:2,0:0:0:0:
343,275,49687,6,0,L|346:333,2,50,0|0|10,3:0|0:0|0:2,0:0:0:0:
239,212,50377,2,0,L|137:226,1,100,2|8,0:2|0:0,0:0:0:0:
83,119,51067,2,0,L|244:95,2,150,0|2|8,3:0|0:0|0:0,0:0:0:0:
20,221,52446,5,0,3:0:0:0:
140,225,52791,1,10,0:2:0:0:
238,294,53136,2,0,P|276:316|334:310,1,100,2|8,0:2|0:0,0:0:0:0:
421,233,53825,2,0,P|428:290|497:362,2,150,0|2|8,3:0|0:0|0:0,0:0:0:0:
450,116,55204,6,0,L|497:75,2,50,0|0|10,3:0|0:0|0:2,0:0:0:0:
330,131,55894,2,0,P|275:139|227:134,1,100,2|8,0:2|0:0,0:0:0:0:
110,131,56584,2,0,P|134:63|205:17,2,150,0|2|8,3:0|0:0|0:0,0:0:0:0:
231,135,57963,5,0,3:0:0:0:
322,212,58308,1,10,0:2:0:0:
285,326,58653,2,0,L|187:309,1,100,2|8,0:2|0:0,0:0:0:0:
78,255,59342,2,0,P|39:198|48:103,2,150,0|2|10,3:0|0:2|0:2,0:0:0:0:
153,161,60722,6,0,P|245:119|349:125,1,200,0|0,3:0|0:0,0:0:0:0:
441,55,61756,1,8,0:0:0:0:
486,164,62101,2,0,L|501:281,1,100,0|8,3:0|0:0,0:0:0:0:
396,326,62791,2,0,L|383:226,1,100,0|8,0:0|0:0,0:0:0:0:
256,192,63480,12,0,64860,1:0:0:0:
85,70,66239,6,0,L|204:78,1,100,6|10,3:2|0:2,0:0:0:0:
304,68,66929,2,0,P|292:48|284:4,2,50,0|2|10,0:0|3:2|0:2,0:0:0:0:
423,82,67618,1,0,3:0:0:0:
482,186,67963,1,10,0:2:0:0:
454,302,68308,1,0,0:0:0:0:
337,329,68653,1,10,0:2:0:0:
234,266,68998,6,0,L|120:283,1,100,0|10,3:0|0:2,0:0:0:0:
103,164,69687,2,0,L|201:149,1,100,2|10,0:0|0:2,0:0:0:0:
277,54,70377,2,0,L|437:28,2,150,2|2|10,3:2|0:0|0:2,0:0:0:0:
160,25,71756,6,0,P|179:78|170:140,1,100,0|10,3:0|0:2,0:0:0:0:
80,194,72446,2,0,L|38:155,2,50,0|2|10,0:0|3:2|0:2,0:0:0:0:
44,309,73136,1,0,3:0:0:0:
152,360,73480,1,10,0:2:0:0:
204,252,73825,1,0,0:0:0:0:
306,314,74170,1,8,0:0:0:0:
424,334,74515,6,0,L|407:234,1,100,0|8,3:0|0:0,0:0:0:0:
322,150,75204,2,0,L|339:50,1,100,0|8,2:0|0:0,0:0:0:0:
227,96,75894,2,0,P|154:124|76:137,2,150,2|2|8,3:2|0:2|0:0,0:0:0:0:
339,51,77273,6,0,L|449:63,1,100,2|10,3:2|0:2,0:0:0:0:
485,172,77963,2,0,P|490:195|489:235,2,50,0|2|10,0:0|3:2|0:2,0:0:0:0:
374,218,78653,1,0,3:0:0:0:
263,170,78998,1,10,0:2:0:0:
335,74,79342,1,0,0:0:0:0:
232,10,79687,1,10,0:2:0:0:
152,99,80032,6,0,L|38:116,1,100,0|10,3:0|0:2,0:0:0:0:
29,231,80722,2,0,L|127:216,1,100,2|10,0:0|0:2,0:0:0:0:
222,289,81411,2,0,P|271:324|372:323,2,150,2|2|10,3:2|0:0|0:2,0:0:0:0:
128,216,82791,6,0,L|118:102,1,100,0|10,3:0|0:2,0:0:0:0:
224,58,83480,2,0,L|218:-9,2,50,0|2|10,0:0|3:2|0:2,0:0:0:0:
342,39,84170,1,0,3:0:0:0:
451,89,84515,1,10,0:2:0:0:
449,209,84860,2,0,P|471:260|469:320,1,100,0|8,0:0|0:0,0:0:0:0:
353,285,85549,6,0,L|152:297,1,200,0|0,3:0|0:0,0:0:0:0:
33,310,86584,1,0,0:0:0:0:
74,197,86929,2,0,B|86:161|72:126|68:126|64:126|47:97|59:41,2,150,2|2|4,0:0|0:0|0:3,0:0:0:0:
33,310,88308,6,0,L|146:321,1,100,6|10,3:2|0:2,0:0:0:0:
224,241,88998,2,0,L|337:230,1,100,0|10,0:0|0:2,0:0:0:0:
435,273,89687,2,0,P|419:221|429:162,1,100,0|10,3:0|0:2,0:0:0:0:
474,67,90377,1,0,0:0:0:0:
354,77,90722,1,10,0:2:0:0:
240,39,91067,6,0,B|159:35|178:81|94:81,2,150,0|2|10,3:0|0:2|0:2,0:0:0:0:
354,77,92446,2,0,L|345:189,1,100,2|8,3:2|0:0,0:0:0:0:
387,289,93136,1,2,0:2:0:0:
289,358,93480,1,10,0:2:0:0:
170,342,93825,6,0,L|164:242,1,100,0|10,3:0|0:2,0:0:0:0:
60,181,94515,2,0,L|55:82,1,100,0|10,0:0|0:2,0:0:0:0:
169,43,95204,2,0,B|247:44|227:90|330:90,2,150,0|2|8,3:0|0:2|0:0,0:0:0:0:
55,81,96584,6,0,L|65:181,1,100,0|8,3:0|0:0,0:0:0:0:
40,298,97274,2,0,P|85:336|144:350,1,100,0|8,0:0|0:0,0:0:0:0:
243,344,97963,2,0,L|225:182,2,150,2|2|8,3:2|0:2|0:0,0:0:0:0:
347,284,99342,6,0,L|333:164,1,100,2|10,3:2|0:2,0:0:0:0:
318,65,100032,2,0,P|282:31|228:23,1,100,0|10,0:0|0:2,0:0:0:0:
115,44,100722,2,0,P|82:80|74:129,1,100,0|10,3:0|0:2,0:0:0:0:
87,248,101411,1,0,0:0:0:0:
206,233,101756,1,10,0:2:0:0:
291,317,102101,6,0,P|354:346|444:332,2,150,0|2|10,3:0|0:2|0:2,0:0:0:0:
206,233,103480,2,0,L|203:118,1,100,2|8,3:2|0:0,0:0:0:0:
289,49,104170,1,2,0:2:0:0:
412,52,104514,1,10,0:2:0:0:
375,166,104860,6,0,P|365:208|385:277,1,100,0|10,3:0|0:2,0:0:0:0:
307,361,105549,2,0,P|265:346|197:353,1,100,0|10,0:0|0:2,0:0:0:0:
91,367,106239,1,0,3:0:0:0:
34,261,106584,1,10,0:2:0:0:
96,158,106929,2,0,L|112:52,1,100,0|8,0:0|0:0,0:0:0:0:
225,21,107618,6,0,L|194:227,1,200,2|0,0:0|0:0,0:0:0:0:
266,315,108653,1,0,0:0:0:0:
374,263,108998,2,0,L|398:102,2,150,2|0|2,0:0|0:0|0:0,0:0:0:0:
256,192,110377,12,0,114170,0:0:0:0:
