osu file format v14

[General]
AudioFilename: audio.mp3
AudioLeadIn: 0
PreviewTime: 44084
Countdown: 0
SampleSet: Soft
StackLeniency: 0.4
Mode: 0
LetterboxInBreaks: 0
WidescreenStoryboard: 0

[Editor]
Bookmarks: 33124
DistanceSpacing: 1.3
BeatDivisor: 4
GridSize: 8
TimelineZoom: 2.799999

[Metadata]
Title:The Style of Evermore (Blue Marble Remix) (Cut Ver.)
TitleUnicode:The Style of Evermore (Blue Marble Remix) (Cut Ver.)
Artist:Roos Denayer
ArtistUnicode:Roos Denayer
Creator:Gordon123
Version:Deep Blue
Source:
Tags:mpg danielexus Bekko Bakari riffy Shmiklak marvollo m_a_r_v_o_l_l_o Daycore featured artist fa mappers' guild mg Station Earth Electronic English drum and bass dnb d&b Greg Rakozy
BeatmapID:2527887
BeatmapSetID:1214619

[Difficulty]
HPDrainRate:5
CircleSize:4.5
OverallDifficulty:8
ApproachRate:9
SliderMultiplier:1.4
SliderTickRate:1

[Events]
//Background and Video events
0,0,"fuf.jpg",0,0
//Break Periods
//Storyboard Layer 0 (Background)
//Storyboard Layer 1 (Fail)
//Storyboard Layer 2 (Pass)
//Storyboard Layer 3 (Foreground)
//Storyboard Layer 4 (Overlay)
//Storyboard Sound Samples

[TimingPoints]
33,459.770114942529,3,2,1,40,1,0
33,-100,3,2,1,40,0,0
11067,-200,3,2,1,40,0,0
33136,344.827586206897,4,2,1,45,1,0
33136,-111.111111111111,4,2,1,45,0,0
33480,-111.111111111111,4,2,1,35,0,0
33653,-111.111111111111,4,2,1,45,0,0
33998,-111.111111111111,4,2,1,35,0,0
34170,-111.111111111111,4,2,1,45,0,0
38653,-100,4,2,1,50,0,0
43308,-83.3333333333333,4,2,1,55,0,0
44170,-90.9090909090909,4,2,1,60,0,0
60722,-100,4,2,1,58,0,0
63480,-100,4,2,1,60,0,0
64860,-90.9090909090909,4,2,1,65,0,0
66239,-83.3333333333333,4,2,1,70,0,1
85549,-90.9090909090909,4,2,1,60,0,0
88308,-83.3333333333333,4,2,1,70,0,1
107618,-400,4,2,1,60,0,0
108998,-303.030303030303,4,2,1,55,0,0
110377,-303.030303030303,4,2,1,50,0,0
110636,-303.030303030303,4,2,1,50,0,0
111239,-400,4,2,1,30,0,0
111756,-400,4,2,1,25,0,0
112273,-400,4,2,1,20,0,0
112791,-400,4,2,1,15,0,0
113308,-400,4,2,1,10,0,0
113825,-400,4,2,1,5,0,0

[Colours]
Combo1 : 187,211,251
Combo2 : 168,164,210
Combo3 : 203,180,199
Combo4 : 188,202,172

[HitObjects]
185,155,11067,6,0,P|219:156|254:160,2,70,4|2|2,3:2|0:0|0:0,0:0:0:0:
99,229,12446,2,0,P|64:233|29:234,2,70,2|2|2,0:3|0:0|0:0,0:0:0:0:
222,144,13826,2,0,B|284:118|331:190|313:218|298:243|348:276,1,210,2|2,0:3|0:3,0:0:0:0:
348,275,16584,6,0,P|364:244|374:211,2,70,2|2|2,0:3|0:0|0:0,0:0:0:0:
229,223,17964,2,0,P|212:191|202:158,2,70,2|2|2,0:3|0:0|0:0,0:0:0:0:
324,98,19343,2,0,B|330:71|380:59|394:79|425:80|425:80|398:108|366:114|353:99|336:101,1,210,2|0,0:3|0:0,0:0:0:0:
261,82,22101,6,0,L|192:75,2,70,2|2|2,0:3|0:0|0:0,0:0:0:0:
184,178,23481,2,0,L|115:171,2,70,2|2|2,0:3|0:0|0:0,0:0:0:0:
107,274,24860,2,0,L|38:267,2,70,2|2|2,0:3|0:0|0:0,0:0:0:0:
314,172,26239,1,2,0:3:0:0:
314,172,27619,6,0,L|326:103,2,70,2|2|2,0:3|0:0|0:0,0:0:0:0:
350,279,28998,2,0,L|404:324,2,70,2|2|2,0:3|0:0|0:0,0:0:0:0:
238,254,30377,2,0,L|173:279,2,70,2|2|2,0:3|0:0|0:0,0:0:0:0:
404,324,31757,1,2,0:0:0:0:
44,257,33136,6,0,P|103:251|167:292,1,125.999996154785,0|8,3:0|0:0,0:0:0:0:
218,340,33653,2,0,P|271:371|333:365,1,125.999996154785,0|2,0:0|3:2,0:0:0:0:
404,324,34170,1,8,0:0:0:0:
476,176,34515,6,0,B|461:117|500:70|500:70|455:58|393:84|393:84|322:40|326:114|224:61,1,377.999988464356,2|8,3:2|0:0,0:0:0:0:
83,37,35894,6,0,L|90:184,1,125.999996154785,2|8,3:2|0:0,0:0:0:0:
31,221,36411,2,0,P|81:244|154:214,1,125.999996154785,0|0,0:0|3:0,0:0:0:0:
211,173,36929,2,0,L|289:179,1,62.9999980773926,8|0,0:0|0:0,0:0:0:0:
384,232,37273,6,0,L|361:91,1,125.999996154785,0|8,3:0|0:0,0:0:0:0:
287,75,37791,2,0,P|328:32|401:33,1,125.999996154785,0|0,0:0|3:0,0:0:0:0:
469,54,38308,1,8,0:0:0:0:
460,135,38480,1,0,0:0:0:0:
494,267,38653,6,0,L|340:254,1,140,2|8,3:2|0:0,0:0:0:0:
294,324,39170,2,0,L|140:337,1,140,0|2,0:0|3:2,0:0:0:0:
73,294,39687,2,0,P|91:256|92:208,1,70,8|0,0:0|0:0,0:0:0:0:
49,99,40032,6,0,P|115:102|201:62,1,140,2|8,3:2|0:0,0:0:0:0:
262,30,40549,2,0,L|241:174,1,140,0|2,0:0|3:2,0:0:0:0:
310,229,41067,1,8,0:0:0:0:
310,229,41239,1,0,0:0:0:0:
217,329,41412,5,2,3:2:0:0:
348,294,41584,1,0,3:0:0:0:
137,271,41756,5,2,3:2:0:0:
212,152,41929,1,0,3:0:0:0:
100,75,42101,5,0,3:0:0:0:
218,33,42273,1,0,3:0:0:0:
199,168,42446,5,0,3:0:0:0:
260,285,42618,1,0,3:0:0:0:
219,367,42791,6,0,P|315:358|347:310,1,140,2|0,3:2|3:0,0:0:0:0:
444,296,43308,2,0,B|436:218|517:222|487:114,1,167.999994873047,2|0,3:2|0:0,0:0:0:0:
470,33,43825,1,4,0:3:0:0:
436,65,43911,1,4,0:3:0:0:
389,76,43998,1,4,0:3:0:0:
342,61,44084,1,4,0:3:0:0:
302,38,44170,6,0,P|308:80|304:128,1,77.0000023498536,4|0,3:2|0:0,0:0:0:0:
214,323,44515,2,0,P|208:281|212:233,1,77.0000023498536,10|0,0:2|0:0,0:0:0:0:
147,167,44860,2,0,P|128:213|33:250,1,154.000004699707,2|8,0:2|0:0,0:0:0:0:
48,150,45377,1,0,0:0:0:0:
63,51,45549,5,0,3:0:0:0:
79,39,45894,1,8,0:0:0:0:
176,63,46067,2,0,L|289:56,1,77.0000023498536,2|0,0:0|0:0,0:0:0:0:
352,53,46411,1,0,3:0:0:0:
329,168,46584,1,8,0:0:0:0:
377,280,46756,1,0,0:0:0:0:
272,285,46929,6,0,L|184:288,1,77.0000023498536,0|0,3:0|0:0,0:0:0:0:
240,99,47273,2,0,L|328:96,1,77.0000023498536,10|0,0:2|0:0,0:0:0:0:
398,37,47618,2,0,L|387:193,1,154.000004699707,2|8,0:2|0:0,0:0:0:0:
373,290,48136,1,0,0:0:0:0:
443,360,48308,5,0,3:0:0:0:
456,341,48653,1,8,0:0:0:0:
487,246,48825,2,0,L|478:137,1,77.0000023498536,2|2,0:0|0:2,0:0:0:0:
393,79,49170,1,2,3:2:0:0:
311,175,49342,1,10,0:2:0:0:
189,206,49515,1,2,0:2:0:0:
148,297,49687,6,0,P|186:286|243:284,1,77.0000023498536,0|0,3:0|0:0,0:0:0:0:
364,86,50032,2,0,P|327:97|288:101,1,77.0000023498536,10|0,0:2|0:0,0:0:0:0:
206,43,50377,2,0,B|135:48|140:98|53:98,1,154.000004699707,2|8,0:2|0:0,0:0:0:0:
61,198,50894,1,0,0:0:0:0:
55,298,51067,5,0,3:0:0:0:
80,292,51411,1,8,0:0:0:0:
170,335,51584,2,0,L|154:229,1,77.0000023498536,2|0,0:0|0:0,0:0:0:0:
59,147,51929,1,0,3:0:0:0:
207,125,52101,1,8,0:0:0:0:
115,5,52273,1,0,0:0:0:0:
208,41,52446,6,0,L|312:33,1,77.0000023498536,0|0,3:0|0:0,0:0:0:0:
415,187,52791,2,0,L|311:195,1,77.0000023498536,10|0,0:2|0:0,0:0:0:0:
245,153,53136,2,0,P|237:204|313:291,1,154.000004699707,2|8,0:2|0:0,0:0:0:0:
380,333,53653,1,0,0:0:0:0:
380,233,53825,5,0,3:0:0:0:
475,202,53998,1,0,0:0:0:0:
464,79,54170,1,8,0:0:0:0:
370,114,54342,2,0,L|262:105,1,77.0000023498536,2|0,0:0|0:0,0:0:0:0:
188,66,54687,1,0,3:0:0:0:
214,199,54860,1,8,0:0:0:0:
156,312,55032,1,0,0:0:0:0:
55,333,55204,6,0,L|69:239,1,77.0000023498536,0|0,3:0|0:0,0:0:0:0:
55,45,55549,2,0,L|43:121,1,77.0000023498536,10|0,0:2|0:0,0:0:0:0:
143,127,55894,2,0,P|182:90|290:101,1,154.000004699707,2|8,0:2|0:0,0:0:0:0:
228,179,56411,1,0,0:0:0:0:
247,277,56584,5,0,3:0:0:0:
244,298,56929,1,8,0:0:0:0:
330,347,57101,2,0,L|425:339,1,77.0000023498536,2|0,0:0|0:0,0:0:0:0:
494,218,57446,1,0,3:0:0:0:
345,240,57618,1,8,0:0:0:0:
447,129,57791,1,0,0:0:0:0:
353,93,57963,6,0,P|292:83|253:87,1,77.0000023498536,0|0,3:0|0:0,0:0:0:0:
117,216,58308,2,0,P|178:226|217:222,1,77.0000023498536,10|0,0:2|0:0,0:0:0:0:
288,195,58653,2,0,L|261:350,1,154.000004699707,2|8,0:2|0:0,0:0:0:0:
163,325,59170,1,0,0:0:0:0:
63,336,59342,5,0,3:0:0:0:
74,312,59687,1,8,0:0:0:0:
45,215,59860,2,0,P|39:164|58:115,1,77.0000023498536,2|2,0:2|0:2,0:0:0:0:
113,10,60204,1,2,3:2:0:0:
260,37,60377,1,10,0:2:0:0:
164,153,60549,1,2,0:2:0:0:
197,238,60722,6,0,P|258:236|351:265,1,140,0|8,3:0|0:0,0:0:0:0:
462,302,61239,1,0,0:0:0:0:
428,217,61411,2,0,L|422:126,1,70,0|0,0:0|3:0,0:0:0:0:
294,102,61756,2,0,L|298:171,1,70,8|0,0:0|0:0,0:0:0:0:
213,204,62101,2,0,L|204:52,1,140,0|8,3:0|0:0,0:0:0:0:
125,19,62618,1,0,0:0:0:0:
65,88,62791,2,0,P|48:138|47:182,1,70,0|0,0:0|3:0,0:0:0:0:
3,235,63136,2,0,P|9:287|28:327,1,70,8|0,0:0|0:0,0:0:0:0:
142,354,63480,6,0,P|159:345|185:340,3,35,0|0|0|0,1:0|1:0|1:0|1:0,0:0:0:0:
213,260,63825,2,0,P|207:243|180:211,3,35,8|0|0|0,1:0|1:0|1:0|1:0,0:0:0:0:
128,172,64170,5,0,1:0:0:0:
124,144,64256,1,0,1:0:0:0:
112,120,64342,1,0,1:0:0:0:
92,100,64429,1,0,1:0:0:0:
72,80,64515,1,8,1:2:0:0:
100,80,64601,1,0,1:0:0:0:
128,76,64687,1,0,1:0:0:0:
156,68,64773,1,0,1:0:0:0:
182,57,64860,6,0,P|206:60|234:71,3,38.5000011749268,0|0|0|0,1:0|1:0|1:0|1:0,0:0:0:0:
284,118,65204,2,0,P|311:116|335:108,3,38.5000011749268,8|0|0|0,1:2|1:0|1:0|1:0,0:0:0:0:
396,84,65549,1,0,1:0:0:0:
392,122,65636,1,0,1:0:0:0:
404,158,65722,1,0,1:0:0:0:
424,190,65808,1,0,1:0:0:0:
452,215,65894,1,4,0:3:0:0:
415,223,65980,1,4,0:3:0:0:
382,246,66067,1,4,0:3:0:0:
359,281,66153,1,4,0:3:0:0:
348,321,66239,6,0,L|228:313,1,83.9999974365235,6|2,3:2|0:2,0:0:0:0:
124,222,66584,2,0,L|207:216,1,83.9999974365235,10|2,0:2|0:0,0:0:0:0:
294,149,66929,1,0,0:0:0:0:
253,23,67101,1,2,3:2:0:0:
309,152,67273,1,10,0:2:0:0:
268,23,67445,1,2,0:2:0:0:
368,67,67618,6,0,P|412:57|474:62,1,83.9999974365235,0|2,3:0|0:2,0:0:0:0:
512,219,67963,2,0,P|471:228|429:228,1,83.9999974365235,10|2,0:2|0:2,0:0:0:0:
320,213,68308,1,0,0:0:0:0:
364,312,68480,1,2,3:2:0:0:
256,291,68653,1,10,0:2:0:0:
214,190,68825,1,2,0:2:0:0:
105,173,68998,6,0,L|92:87,1,83.9999974365235,0|2,3:0|0:2,0:0:0:0:
201,107,69342,2,0,L|217:210,1,83.9999974365235,10|2,0:2|0:2,0:0:0:0:
97,342,69687,1,2,0:0:0:0:
222,295,69860,1,2,3:2:0:0:
339,364,70032,1,10,0:2:0:0:
465,331,70205,1,2,0:0:0:0:
374,263,70377,6,0,P|357:222|355:159,1,83.9999974365235,2|0,3:2|0:0,0:0:0:0:
475,70,70722,2,0,P|491:108|496:150,1,83.9999974365235,8|2,0:0|0:0,0:0:0:0:
453,251,71067,1,0,0:0:0:0:
404,348,71239,1,2,3:2:0:0:
512,345,71411,1,10,0:2:0:0:
453,251,71584,1,2,0:2:0:0:
344,256,71756,6,0,P|291:258|237:280,1,83.9999974365235,0|2,3:0|0:2,0:0:0:0:
186,187,72101,2,0,P|145:176|103:175,1,83.9999974365235,10|2,0:2|0:2,0:0:0:0:
3,219,72446,1,0,0:0:0:0:
23,112,72618,2,0,L|6:21,1,83.9999974365235,2|10,3:2|0:2,0:0:0:0:
115,63,72963,1,2,0:2:0:0:
217,33,73136,6,0,P|259:24|322:44,1,83.9999974365235,0|2,3:0|0:2,0:0:0:0:
400,70,73480,1,10,0:2:0:0:
508,51,73653,2,0,B|520:148|457:114|471:209,1,167.999994873047,2|2,0:2|3:2,0:0:0:0:
414,303,74170,1,8,2:0:0:0:
366,205,74342,1,0,2:0:0:0:
305,295,74515,5,0,3:0:0:0:
414,303,74687,1,0,2:0:0:0:
366,205,74860,2,0,L|379:101,1,83.9999974365235,8|0,2:0|2:0,0:0:0:0:
255,56,75204,2,0,L|265:139,1,83.9999974365235,0|0,2:0|3:0,0:0:0:0:
202,229,75549,2,0,L|212:312,1,83.9999974365235,8|0,0:0|0:0,0:0:0:0:
112,367,75894,5,2,3:2:0:0:
20,235,76067,1,0,0:0:0:0:
134,358,76239,1,8,0:0:0:0:
42,226,76412,1,2,0:2:0:0:
119,172,76584,2,0,P|103:124|109:68,1,83.9999974365235,0|0,0:0|3:0,0:0:0:0:
220,15,76929,2,0,P|234:54|235:95,1,83.9999974365235,8|0,0:0|0:0,0:0:0:0:
207,201,77273,5,2,3:2:0:0:
247,302,77446,1,2,0:2:0:0:
322,223,77618,2,0,L|426:238,1,83.9999974365235,10|2,0:2|0:0,0:0:0:0:
461,141,77963,2,0,L|357:126,1,83.9999974365235,2|2,0:0|3:2,0:0:0:0:
356,326,78308,2,0,L|440:338,1,83.9999974365235,10|2,0:2|0:2,0:0:0:0:
405,235,78653,6,0,L|322:224,1,83.9999974365235,0|2,3:0|0:2,0:0:0:0:
222,268,78998,1,10,0:2:0:0:
233,159,79170,1,2,0:2:0:0:
135,207,79342,1,0,0:0:0:0:
147,98,79515,1,2,3:2:0:0:
233,159,79687,1,10,0:2:0:0:
222,268,79860,1,2,0:2:0:0:
305,337,80032,6,0,P|355:323|405:322,1,83.9999974365235,0|2,3:0|0:2,0:0:0:0:
458,238,80377,2,0,P|470:187|495:143,1,83.9999974365235,10|2,0:2|0:2,0:0:0:0:
458,23,80722,1,2,0:0:0:0:
360,109,80894,1,2,3:2:0:0:
229,99,81067,1,10,0:2:0:0:
131,185,81239,1,2,0:0:0:0:
202,307,81411,6,0,L|287:299,1,83.9999974365235,2|0,3:2|0:0,0:0:0:0:
430,211,81756,2,0,L|345:203,1,83.9999974365235,8|2,0:0|0:0,0:0:0:0:
293,106,82101,1,0,0:0:0:0:
197,52,82273,1,2,3:2:0:0:
186,161,82446,1,10,0:2:0:0:
280,215,82618,1,2,0:2:0:0:
293,106,82791,6,0,P|340:88|385:87,1,83.9999974365235,0|2,3:0|0:2,0:0:0:0:
472,133,83136,2,0,P|500:174|511:218,1,83.9999974365235,10|2,0:2|0:2,0:0:0:0:
498,319,83480,1,0,0:0:0:0:
327,291,83653,1,2,3:2:0:0:
490,330,83825,1,10,0:2:0:0:
318,313,83998,1,2,0:2:0:0:
216,352,84170,6,0,L|235:263,1,83.9999974365235,0|2,3:0|0:2,0:0:0:0:
154,193,84515,2,0,L|136:275,1,83.9999974365235,10|2,0:2|0:2,0:0:0:0:
34,315,84860,2,0,L|51:232,1,83.9999974365235,0|2,0:0|3:2,0:0:0:0:
234,270,85204,2,0,L|217:353,1,83.9999974365235,8|0,0:0|0:0,0:0:0:0:
136,275,85549,6,0,L|154:193,1,77.0000023498536,0|0,3:0|0:0,0:0:0:0:
123,128,85894,1,0,0:0:0:0:
187,86,86067,1,0,0:0:0:0:
219,155,86239,1,0,0:0:0:0:
287,119,86411,1,0,0:0:0:0:
255,49,86583,1,0,0:0:0:0:
187,86,86756,1,0,0:0:0:0:
219,155,86929,6,0,L|250:241,1,77.0000023498536,2|0,0:0|0:0,0:0:0:0:
426,261,87446,2,0,L|391:169,1,77.0000023498536,2|0,0:0|0:0,0:0:0:0:
475,52,87963,1,4,0:3:0:0:
435,73,88049,1,4,0:3:0:0:
390,72,88136,1,4,0:3:0:0:
350,52,88222,1,4,0:3:0:0:
319,20,88308,6,0,L|223:53,1,83.9999974365235,6|2,3:2|0:2,0:0:0:0:
106,180,88653,2,0,L|185:152,1,83.9999974365235,10|2,0:2|0:0,0:0:0:0:
294,208,88998,1,0,0:0:0:0:
409,178,89170,1,2,3:2:0:0:
284,284,89342,1,10,0:2:0:0:
456,238,89514,1,2,0:2:0:0:
331,343,89687,6,0,P|292:359|251:353,1,83.9999974365235,0|2,3:0|0:2,0:0:0:0:
111,246,90032,2,0,P|149:230|190:236,1,83.9999974365235,10|2,0:2|0:2,0:0:0:0:
284,284,90377,1,0,0:0:0:0:
329,150,90549,1,2,3:2:0:0:
195,105,90722,1,10,0:2:0:0:
150,239,90894,1,2,0:2:0:0:
329,150,91067,6,0,L|421:157,1,83.9999974365235,0|2,3:0|0:2,0:0:0:0:
482,278,91411,2,0,L|388:269,1,83.9999974365235,10|2,0:2|0:2,0:0:0:0:
268,28,91756,2,0,L|360:35,1,83.9999974365235,2|2,0:0|3:2,0:0:0:0:
413,156,92101,2,0,L|321:150,1,83.9999974365235,10|2,0:2|0:0,0:0:0:0:
149,74,92446,5,2,3:2:0:0:
177,164,92618,1,0,0:0:0:0:
85,143,92791,1,8,0:0:0:0:
241,95,92963,1,2,0:0:0:0:
102,248,93136,5,2,0:2:0:0:
99,261,93308,1,2,3:2:0:0:
96,274,93480,1,10,0:2:0:0:
93,287,93653,1,2,0:2:0:0:
207,351,93825,6,0,P|247:336|289:332,1,83.9999974365235,0|2,3:0|0:2,0:0:0:0:
462,310,94170,2,0,P|420:305|380:291,1,83.9999974365235,10|2,0:2|0:2,0:0:0:0:
271,143,94515,1,0,0:0:0:0:
304,244,94687,1,2,3:2:0:0:
343,91,94860,2,0,P|312:64|272:53,1,83.9999974365235,10|2,0:2|0:2,0:0:0:0:
182,143,95204,5,0,3:0:0:0:
73,91,95377,2,0,L|61:174,1,83.9999974365235,2|10,0:2|0:2,0:0:0:0:
25,294,95722,2,0,B|70:311|116:294|93:276|138:259|184:276,1,167.999994873047,2|2,0:2|3:2,0:0:0:0:
297,342,96239,1,8,0:0:0:0:
364,261,96411,1,0,0:0:0:0:
399,358,96584,6,0,P|440:365|477:345,1,83.9999974365235,0|0,3:0|0:0,0:0:0:0:
392,194,96929,2,0,P|351:187|314:207,1,83.9999974365235,8|0,0:0|0:0,0:0:0:0:
427,295,97273,1,2,0:0:0:0:
497,219,97446,2,0,L|507:135,1,83.9999974365235,0|8,3:0|0:0,0:0:0:0:
398,41,97791,1,0,0:0:0:0:
283,85,97963,5,2,3:2:0:0:
123,53,98136,1,0,0:0:0:0:
286,100,98308,1,8,0:0:0:0:
126,68,98481,5,2,0:2:0:0:
22,146,98653,1,0,0:0:0:0:
134,170,98825,5,0,3:0:0:0:
210,244,98998,1,8,0:0:0:0:
322,220,99170,1,0,0:0:0:0:
406,146,99342,6,0,L|489:153,1,83.9999974365235,2|2,3:2|0:2,0:0:0:0:
437,301,99687,2,0,L|353:293,1,83.9999974365235,10|2,0:2|0:0,0:0:0:0:
225,194,100032,1,0,0:0:0:0:
271,370,100204,1,2,3:2:0:0:
165,241,100376,1,10,0:2:0:0:
195,356,100548,1,2,0:2:0:0:
80,324,100722,6,0,P|56:289|48:248,1,83.9999974365235,0|2,3:0|0:2,0:0:0:0:
107,153,101067,2,0,P|148:150|188:163,1,83.9999974365235,10|2,0:2|0:2,0:0:0:0:
293,262,101411,1,0,0:0:0:0:
431,233,101583,1,2,3:2:0:0:
403,95,101756,1,10,0:2:0:0:
264,123,101928,1,2,0:2:0:0:
293,262,102101,6,0,L|209:269,1,83.9999974365235,0|2,3:0|0:2,0:0:0:0:
155,378,102445,2,0,L|238:370,1,83.9999974365235,10|2,0:2|0:2,0:0:0:0:
219,164,102791,2,0,L|136:173,1,83.9999974365235,2|2,0:0|3:2,0:0:0:0:
81,280,103136,2,0,L|164:272,1,83.9999974365235,10|2,0:2|0:0,0:0:0:0:
298,319,103480,5,2,3:2:0:0:
408,293,103653,1,0,0:0:0:0:
336,195,103825,1,8,0:0:0:0:
447,170,103998,1,2,0:0:0:0:
257,103,104170,5,2,0:0:0:0:
244,106,104342,1,2,3:2:0:0:
231,109,104514,1,10,0:2:0:0:
218,112,104687,1,2,0:2:0:0:
128,72,104860,6,0,P|119:113|130:153,1,83.9999974365235,0|2,3:0|0:2,0:0:0:0:
267,247,105204,2,0,P|236:218|195:208,1,83.9999974365235,10|2,0:2|0:2,0:0:0:0:
34,291,105549,1,0,0:0:0:0:
111,242,105721,1,2,3:2:0:0:
31,200,105894,1,10,0:2:0:0:
34,291,106066,1,2,0:2:0:0:
125,352,106239,6,0,L|214:358,1,83.9999974365235,0|2,3:0|0:2,0:0:0:0:
342,256,106584,2,0,L|258:250,1,83.9999974365235,10|2,0:2|0:2,0:0:0:0:
84,161,106929,1,0,0:0:0:0:
144,90,107101,1,2,3:2:0:0:
226,130,107273,2,0,P|261:150|303:152,1,83.9999974365235,8|0,0:0|0:0,0:0:0:0:
458,103,107618,6,0,P|473:62|439:92,1,122.5,2|0,0:0|0:0,0:0:0:0:
278,164,108998,6,0,B|293:157|306:145|311:130|311:130|313:147|321:161|334:170|334:170|318:176|306:189|300:203|300:203|298:186|290:173|283:168,1,184.799999436035,2|0,0:0|0:0,0:0:0:0:
180,114,110549,5,2,0:0:0:0:
256,192,110636,12,0,114170,0:0:0:0:
